osu file format v14

[General]
AudioFilename: High Above the Land (short).mp3
AudioLeadIn: 1500
PreviewTime: 64046
Countdown: 0
SampleSet: Soft
StackLeniency: 0.5
Mode: 0
LetterboxInBreaks: 0
WidescreenStoryboard: 0

[Editor]
DistanceSpacing: 0.7
BeatDivisor: 4
GridSize: 4
TimelineZoom: 2.4

[Metadata]
Title:High Above the Land
TitleUnicode:High Above the Land
Artist:Jake Kaufman
ArtistUnicode:Jake Kaufman
Creator:Krisom
Version:Stratosphere
Source:Shovel Knight
Tags:Propeller The Flying Machine MoodyRPG Yatch Club Games VideoGame Video Game VGM Instrumental Electronic chiptune 8-bit 8bit
BeatmapID:455469
BeatmapSetID:191319

[Difficulty]
HPDrainRate:5
CircleSize:4
OverallDifficulty:4
ApproachRate:5
SliderMultiplier:1.6
SliderTickRate:2

[Events]
//Background and Video events
0,0,"Propeller Knight BG.png",0,0
//Break Periods
//Storyboard Layer 0 (Background)
//Storyboard Layer 1 (Fail)
//Storyboard Layer 2 (Pass)
//Storyboard Layer 3 (Foreground)
//Storyboard Layer 4 (Overlay)
//Storyboard Sound Samples

[TimingPoints]
46,400,4,2,0,30,1,0
846,-100,4,2,0,35,0,0
1646,-100,4,2,0,40,0,0
2446,-100,4,2,0,45,0,0
3246,-100,4,2,0,50,0,0
4046,-100,4,2,0,55,0,0
4846,-100,4,2,0,60,0,0
5646,-100,4,2,0,65,0,0
6246,-100,4,2,0,55,0,0
11246,-100,4,2,0,70,0,0
94346,-90.9090909090909,4,2,0,70,0,0
95346,-100,4,2,0,70,0,0

[Colours]
Combo1 : 0,171,236
Combo2 : 63,150,33
Combo3 : 245,180,27
Combo4 : 126,171,78
Combo5 : 255,182,72

[HitObjects]
256,192,46,12,2,4846,0:0:0:0:
256,148,6446,6,0,B|308:216|256:260|204:304|256:372,2,240,2|0|2,0:0|0:0|0:0,0:0:0:0:
192,36,8046,2,0,P|84:59|102:168,2,240,2|0|2,0:0|0:0|0:0,0:0:0:0:
320,36,9646,2,0,P|427:59|409:168,2,240,2|0|2,0:0|0:0|0:0,0:0:0:0:
200,192,11446,54,0,B|240:196|240:196|264:184|264:184|324:192,2,120,2|2|2,1:0|1:0|1:0,0:0:0:0:
256,308,12446,1,4,1:3:0:0:
384,332,12846,38,0,P|444:352|476:276,1,160,4|8,1:2|0:1,0:0:0:0:
500,152,13646,1,2,0:0:0:0:
476,28,14046,1,8,0:1:0:0:
376,108,14446,2,0,B|128:108,1,240,2|2,0:1|0:1,0:0:0:0:
68,108,15246,1,0,3:0:0:0:
16,224,15646,1,8,0:1:0:0:
136,276,16046,6,0,B|384:276,1,240,2|2,0:1|0:1,0:0:0:0:
444,276,16846,1,0,3:0:0:0:
496,160,17246,1,8,0:1:0:0:
396,84,17646,2,0,P|368:152|380:204,2,120,2|2|2,0:1|0:0|0:1,0:0:0:0:
336,48,18446,2,0,L|172:48,1,160,0|8,3:0|0:1,0:0:0:0:
104,156,19246,22,0,P|180:180|220:256,1,160,0|8,1:0|0:1,0:0:0:0:
128,336,20046,2,0,P|52:312|12:236,1,160,2|8,0:0|0:1,0:0:0:0:
104,156,20846,2,0,P|256:200|408:156,1,320,2|2,1:0|0:1,0:0:0:0:
448,36,22046,1,8,0:1:0:0:
348,108,22446,6,0,B|296:176|348:220|400:264|348:332,1,240,2|2,0:1|0:1,0:0:0:0:
292,376,23246,1,2,0:0:0:0:
164,108,24046,2,0,B|216:176|164:220|112:264|163:330,1,240,2|2,0:1|0:1,0:0:0:0:
220,376,24846,1,2,0:0:0:0:
128,52,25646,6,0,P|68:32|36:108,1,160,0|8,1:0|0:1,0:0:0:0:
12,232,26446,1,2,0:0:0:0:
36,356,26846,1,8,0:1:0:0:
144,288,27246,2,0,P|256:252|368:288,1,240,2|2,0:1|0:1,0:0:0:0:
436,276,28046,1,0,3:0:0:0:
496,160,28446,1,8,0:1:0:0:
368,96,28846,6,0,P|256:132|144:96,1,240,2|2,0:1|0:1,0:0:0:0:
76,108,29646,1,0,3:0:0:0:
16,224,30046,1,8,0:1:0:0:
116,300,30446,2,0,P|144:232|132:180,2,120,2|2|2,0:1|0:0|0:1,0:0:0:0:
180,332,31246,2,0,B|256:308|256:308|332:332,1,160,0|8,3:0|0:1,0:0:0:0:
408,228,32046,22,0,P|332:204|292:128,1,160,0|8,1:0|0:1,0:0:0:0:
384,48,32846,2,0,P|460:72|500:148,1,160,2|8,0:0|0:1,0:0:0:0:
408,228,33646,2,0,P|256:184|104:228,1,320,2|2,1:0|0:1,0:0:0:0:
64,348,34846,1,8,0:1:0:0:
172,276,35246,5,0,1:0:0:0:
88,180,35646,1,8,0:1:0:0:
140,64,36046,1,2,0:0:0:0:
256,120,36446,1,8,0:1:0:0:
372,64,36846,1,0,1:0:0:0:
424,180,37246,1,8,0:1:0:0:
340,276,37646,1,2,0:0:0:0:
48,344,38446,6,0,B|12:296|12:236|84:220|84:164|12:148|12:88|48:40,1,320,0|2,1:0|0:0,0:0:0:0:
160,100,39646,1,8,0:1:0:0:
204,220,40046,2,0,P|256:306|308:220,1,240,0|0,1:0|3:0,0:0:0:0:
256,176,40846,1,0,3:0:0:0:
352,100,41246,1,8,0:1:0:0:
464,40,41646,6,0,B|500:88|500:148|428:164|428:220|500:236|500:296|464:344,1,320,0|2,1:0|0:0,0:0:0:0:
352,280,42846,1,8,0:1:0:0:
316,156,43246,2,2,B|316:92|316:92|316:36|256:0|196:36|196:92|196:92|196:156,1,320,2|2,0:1|0:1,0:1:0:0:
160,280,44446,1,8,0:1:0:0:
64,192,44846,21,0,1:0:0:0:
64,120,45046,1,0,1:0:0:0:
64,48,45246,1,8,0:1:0:0:
192,92,45646,1,0,3:0:0:0:
320,132,46046,1,8,0:1:0:0:
448,192,46446,5,0,1:0:0:0:
448,264,46646,1,0,1:0:0:0:
448,336,46846,1,8,0:1:0:0:
320,292,47246,1,0,3:0:0:0:
192,252,47646,1,8,0:1:0:0:
176,124,48046,6,0,P|120:180|48:152,1,160,0|8,1:0|0:1,0:0:0:0:
112,44,48846,2,0,P|184:16|256:52,1,160,2|8,0:0|0:1,0:0:0:0:
336,124,49646,2,0,P|392:180|464:152,1,160,0|8,1:0|0:1,0:0:0:0:
396,44,50446,2,0,P|324:16|252:52,1,160,2|8,0:0|0:1,0:0:0:0:
176,152,51246,6,0,B|176:236|176:236|136:312,1,160,8|8,3:0|0:1,0:0:0:0:
256,368,52046,1,2,0:0:0:0:
384,368,52446,1,8,0:1:0:0:
496,308,52846,2,0,B|496:264|496:264|480:224|480:224|480:184,2,120,2|2|2,0:1|0:0|0:1,0:0:0:0:
424,304,53646,2,0,P|368:256|284:288,1,160,2|8,0:0|0:1,0:0:0:0:
180,344,54446,21,2,1:1:0:0:
180,344,54846,1,8,0:1:0:0:
96,248,55246,2,0,L|160:100,1,160,8|8,0:3|0:1,0:0:0:0:
268,32,56046,2,0,L|204:180,1,160,2|8,0:0|0:1,0:0:0:0:
216,308,56846,1,8,0:3:0:0:
216,308,57246,1,8,0:1:0:0:
320,248,57646,22,0,B|320:164|320:164|360:88,1,160,8|8,3:0|0:1,0:0:0:0:
256,16,58446,1,2,0:0:0:0:
128,16,58846,1,8,0:1:0:0:
16,76,59246,2,0,B|16:120|16:120|32:160|32:160|32:200,2,120,2|2|2,0:1|0:0|0:1,0:0:0:0:
88,80,60046,2,0,P|144:128|228:96,1,160,2|8,0:0|0:1,0:0:0:0:
296,212,60846,6,2,P|257:328|216:212,1,320,2|2,0:1|0:3,0:1:0:0:
256,92,62046,1,8,0:1:0:0:
256,92,62446,1,4,1:0:0:0:
256,292,64046,21,2,0:0:0:0:
368,352,64446,2,0,P|452:320|464:248,1,160,8|8,0:0|3:0,0:0:0:0:
460,132,65246,1,8,0:0:0:0:
420,72,65446,1,2,0:0:0:0:
376,16,65646,2,0,L|232:16,2,120,2|2|2,0:1|0:0|0:1,0:0:0:0:
420,72,66446,2,0,P|392:136|308:124,1,160,8|8,0:3|0:0,0:0:0:0:
184,112,67246,5,0,1:0:0:0:
84,192,67646,1,8,0:0:0:0:
84,320,68046,1,8,0:3:0:0:
220,320,68446,1,8,0:0:0:0:
292,332,68646,1,2,0:0:0:0:
364,320,68846,2,0,P|400:208|364:96,1,240,2|2,0:1|0:1,0:0:0:0:
316,152,69646,2,0,P|298:209|316:264,1,120,8|2,0:3|0:1,0:0:0:0:
440,320,70446,5,0,1:0:0:0:
428,188,70846,1,8,0:0:0:0:
380,132,71046,1,2,0:0:0:0:
332,76,71246,2,0,B|284:44|256:76|228:108|180:76,1,160,8|8,0:3|0:0,0:0:0:0:
116,40,71846,1,2,0:0:0:0:
72,96,72046,2,0,P|36:168|72:240,1,160,0|8,1:0|0:0,0:0:0:0:
124,280,72646,1,0,0:0:0:0:
184,320,72846,2,0,B|256:380|328:320,1,160,8|8,0:3|0:0,0:0:0:0:
356,196,73646,5,0,1:0:0:0:
480,167,74046,1,8,0:0:0:0:
451,42,74446,1,2,0:0:0:0:
327,71,74846,1,8,0:0:0:0:
256,88,75046,1,2,0:3:0:0:
185,71,75246,1,0,1:0:0:0:
61,42,75646,1,8,0:0:0:0:
32,167,76046,1,2,0:0:0:0:
156,196,76446,1,8,0:0:0:0:
256,292,76846,21,0,1:0:0:0:
144,352,77246,2,0,P|60:320|48:248,1,160,8|8,0:0|3:0,0:0:0:0:
52,132,78046,1,8,0:0:0:0:
92,72,78246,1,2,0:0:0:0:
136,16,78446,2,0,L|280:16,2,120,2|2|2,0:1|0:0|0:1,0:0:0:0:
92,72,79246,2,0,P|120:136|204:124,1,160,8|8,0:3|0:0,0:0:0:0:
328,112,80046,5,0,1:0:0:0:
428,192,80446,1,8,0:0:0:0:
428,320,80846,1,8,0:3:0:0:
292,320,81246,1,8,0:0:0:0:
220,332,81446,1,2,0:0:0:0:
148,320,81646,2,0,P|112:208|148:96,1,240,2|2,0:1|0:1,0:0:0:0:
196,152,82446,2,0,P|244:212|196:264,1,160,8|2,0:3|0:1,0:0:0:0:
72,320,83246,5,0,1:0:0:0:
84,188,83646,1,8,0:0:0:0:
132,132,83846,1,2,0:0:0:0:
180,76,84046,2,0,B|228:44|256:76|284:108|332:76,1,160,8|8,0:3|0:0,0:0:0:0:
396,40,84646,1,2,0:0:0:0:
440,96,84846,2,0,P|476:168|440:240,1,160,0|8,1:0|0:0,0:0:0:0:
388,280,85446,1,0,0:0:0:0:
328,320,85646,2,0,B|256:380|184:320,1,160,8|8,0:3|0:0,0:0:0:0:
156,196,86446,5,0,1:0:0:0:
32,167,86846,1,8,0:0:0:0:
61,42,87246,1,2,0:0:0:0:
185,71,87646,1,8,0:0:0:0:
256,88,87846,1,2,0:3:0:0:
327,71,88046,1,0,1:0:0:0:
451,42,88446,1,8,0:0:0:0:
480,167,88846,1,2,0:0:0:0:
356,196,89246,1,8,0:0:0:0:
368,324,89646,22,0,P|256:360|144:324,1,240,0|2,3:0|0:0,0:0:0:0:
128,256,90446,2,0,P|256:175|384:256,2,320,8|8|8,0:3|0:3|0:3,0:0:0:0:
104,32,92846,6,0,B|216:32|216:32|292:32|292:116,1,240,0|2,3:0|0:0,0:0:0:0:
220,116,93646,2,0,B|220:32|296:32|296:32|408:32,1,240,2|2,0:0|0:0,0:0:0:0:
384,100,94446,2,2,P|256:201|128:100,1,352.000010742188,2|8,0:0|0:3,0:0:0:0:
200,344,96046,6,0,B|124:368|124:368|84:364,2,120,2|2|8,0:0|0:0|0:3,0:0:0:0:
188,272,96846,2,0,P|256:191|324:272,1,240,8|2,0:3|0:0,0:0:0:0:
312,344,97646,2,0,B|388:368|388:368|428:364,2,120,2|2|8,0:0|0:0|0:3,0:0:0:0:
324,272,98446,1,8,0:3:0:0:
188,272,98846,1,2,0:0:0:0:
72,328,99246,5,8,0:3:0:0:
32,208,99646,1,2,0:3:0:0:
72,88,100046,1,8,0:3:0:0:
188,36,100446,1,2,0:3:0:0:
324,36,100846,1,8,0:3:0:0:
440,88,101246,1,2,0:3:0:0:
480,208,101646,1,8,0:3:0:0:
440,328,102046,1,2,0:3:0:0:
320,376,102446,22,0,P|288:304|320:232,1,160,6|8,1:0|0:1,0:0:0:0:
432,232,103246,1,0,1:0:0:0:
489,191,103446,1,0,1:0:0:0:
489,120,103646,1,8,0:1:0:0:
411,38,104046,2,0,L|171:38,1,240,8|2,0:3|0:0,0:0:0:0:
101,38,104846,1,0,1:0:0:0:
23,120,105246,1,8,0:1:0:0:
23,191,105446,1,8,0:3:0:0:
80,232,105646,1,8,0:3:0:0:
193,233,106046,6,0,P|223:305|192:376,1,160,8|0,0:1|1:0,0:0:0:0:
88,300,106846,2,0,P|57:228|89:157,1,160,8|8,0:1|0:3,0:0:0:0:
180,68,107646,2,0,B|228:36|256:68|284:100|332:68,2,160,8|0|8,0:1|1:0|0:1,0:0:0:0:
148,192,108846,5,8,0:3:0:0:
132,264,109046,1,8,0:3:0:0:
116,336,109246,1,8,0:1:0:0:
256,360,109646,1,8,0:3:0:0:
256,360,110046,1,8,0:1:0:0:
396,336,110446,5,8,0:3:0:0:
380,264,110646,1,8,0:3:0:0:
364,192,110846,1,8,0:1:0:0:
328,68,111246,2,0,B|256:8|184:68,1,160,8|8,0:3|0:1,0:0:0:0:
256,176,112046,1,4,1:1:0:0:
256,192,112246,12,6,115246,0:0:0:0:
