osu file format v14

[General]
AudioFilename: High Above the Land (short).mp3
AudioLeadIn: 1500
PreviewTime: 64046
Countdown: 0
SampleSet: Soft
StackLeniency: 0.5
Mode: 0
LetterboxInBreaks: 0
WidescreenStoryboard: 1

[Editor]
DistanceSpacing: 1.1
BeatDivisor: 8
GridSize: 4
TimelineZoom: 3.499999

[Metadata]
Title:High Above the Land
TitleUnicode:High Above the Land
Artist:Jake Kaufman
ArtistUnicode:Jake Kaufman
Creator:Krisom
Version:Exosphere
Source:Shovel Knight
Tags:Propeller The Flying Machine MoodyRPG Yatch Club Games VideoGame Video Game VGM Instrumental Electronic chiptune 8-bit 8bit
BeatmapID:455468
BeatmapSetID:191319

[Difficulty]
HPDrainRate:6.5
CircleSize:4.7
OverallDifficulty:7.9
ApproachRate:9
SliderMultiplier:2.5
SliderTickRate:2

[Events]
//Background and Video events
0,0,"Propeller Knight BG.png",0,0
//Break Periods
//Storyboard Layer 0 (Background)
//Storyboard Layer 1 (Fail)
//Storyboard Layer 2 (Pass)
//Storyboard Layer 3 (Foreground)
//Storyboard Layer 4 (Overlay)
//Storyboard Sound Samples

[TimingPoints]
46,400,4,2,0,30,1,0
846,-100,4,2,0,35,0,0
1646,-100,4,2,0,40,0,0
2446,-100,4,2,0,45,0,0
3246,-100,4,2,0,50,0,0
4046,-100,4,2,0,55,0,0
4846,-100,4,2,0,60,0,0
5646,-100,4,2,0,65,0,0
6246,-100,4,2,0,55,0,0
11246,-100,4,2,0,70,0,0
82746,-74.0740740740741,4,2,0,70,0,0
83312,-100,4,2,0,70,0,0
89696,-111.111111111111,4,2,0,70,0,0
102446,-100,4,2,0,70,0,0

[Colours]
Combo1 : 0,171,236
Combo2 : 63,150,33
Combo3 : 245,180,27
Combo4 : 126,171,78
Combo5 : 255,182,72

[HitObjects]
256,192,46,12,2,6046,0:0:0:0:
76,216,6446,6,0,P|128:280|217:251,1,187.5,2|0,0:0|3:0,0:0:0:0:
256,192,6846,1,0,3:0:0:0:
436,168,7046,6,0,P|384:104|295:133,1,187.5,2|0,0:0|3:0,0:0:0:0:
256,192,7446,1,0,3:0:0:0:
184,308,7646,1,2,0:0:0:0:
328,308,7846,1,0,3:0:0:0:
40,144,8046,6,0,B|72:176|116:168|124:144|132:120|176:112|208:144,1,187.5,2|0,0:0|3:0,0:0:0:0:
256,192,8446,1,0,3:0:0:0:
472,240,8646,6,0,B|440:208|396:216|388:240|380:264|336:272|304:240,1,187.5,2|0,0:0|3:0,0:0:0:0:
256,192,9046,1,0,3:0:0:0:
184,76,9246,1,2,0:0:0:0:
328,76,9446,1,0,3:0:0:0:
368,207,9646,21,0,0:0:0:0:
352,199,9746,1,0,0:0:0:0:
340,192,9846,2,0,B|308:160|264:168|256:192|248:216|204:224|172:192,1,187.5,2|0,0:0|3:0,0:0:0:0:
153,209,10246,1,0,0:0:0:0:
130,221,10346,1,0,0:0:0:0:
105,226,10446,2,0,P|177:174|153:86,1,187.5,2|0,0:0|0:0,0:0:0:0:
132,80,10846,1,0,0:0:0:0:
111,65,10946,1,0,0:0:0:0:
98,43,11046,1,2,0:0:0:0:
416,220,11346,53,0,1:0:0:0:
416,288,11446,1,2,0:1:0:0:
256,160,11646,1,0,1:0:0:0:
256,228,11746,1,8,0:1:0:0:
96,98,11946,1,0,1:0:0:0:
96,168,12046,1,2,0:1:0:0:
256,356,12446,1,4,1:3:0:0:
64,196,12846,22,0,B|104:236|104:236|172:244,1,125,4|2,1:2|0:0,0:0:0:0:
240,96,13246,2,0,B|200:56|200:56|132:48,1,125,8|0,0:1|0:0,0:0:0:0:
136,176,13646,1,2,0:0:0:0:
152,148,13746,1,2,0:0:0:0:
168,120,13846,1,0,0:0:0:0:
44,100,14046,5,8,0:1:0:0:
260,196,14246,1,0,0:0:0:0:
336,96,14446,6,0,L|320:228,1,125,2|0,0:1|0:1,0:1:0:0:
396,144,14746,2,0,L|380:268,1,125,2|0,0:1|0:1,0:1:0:0:
456,192,15046,2,2,L|440:316,1,125,2|2,0:1|0:0,0:1:0:0:
435,340,15346,1,2,0:0:0:0:
431,364,15446,1,0,3:0:0:0:
504,244,15646,21,8,0:1:0:0:
320,360,15846,1,2,0:0:0:0:
120,288,16046,6,0,B|160:240|160:240|228:252,1,125,2|2,0:1|0:0,0:0:0:0:
276,204,16346,2,0,B|297:262|297:262|253:315,1,125,2|2,0:1|0:0,0:0:0:0:
268,380,16646,2,0,B|206:369|206:369|182:304,1,125,2|2,0:1|0:0,0:0:0:0:
176,276,16946,1,2,0:0:0:0:
167,238,17046,1,0,3:0:0:0:
292,244,17246,5,8,0:1:0:0:
60,300,17446,1,2,0:0:0:0:
108,184,17646,6,0,L|232:156,1,125,2|0,0:1|3:0,0:0:0:0:
213,89,17946,2,0,P|257:117|321:93,1,125,2|0,3:0|3:0,0:0:0:0:
356,33,18246,1,2,0:1:0:0:
448,120,18446,21,2,0:0:0:0:
444,152,18546,1,2,0:0:0:0:
440,184,18646,1,0,3:0:0:0:
436,216,18746,1,2,0:0:0:0:
432,248,18846,1,8,0:1:0:0:
319,327,19046,5,8,0:1:0:0:
323,295,19146,1,8,0:1:0:0:
327,263,19246,1,4,0:3:0:0:
261,142,19446,1,0,3:0:0:0:
257,174,19546,1,0,3:0:0:0:
253,206,19646,5,2,0:1:0:0:
156,368,19846,1,0,3:0:0:0:
52,212,20046,2,0,P|104:204|132:136,1,125,2|0,0:1|3:0,0:0:0:0:
48,44,20346,2,0,P|28:93|73:151,1,125,2|0,0:1|3:0,0:0:0:0:
200,131,20646,1,2,1:0:0:0:
196,124,20846,6,0,P|163:82|90:92,1,125,2|0,0:1|3:0,0:0:0:0:
52,210,21146,2,0,P|104:202|132:133,1,125,2|0,0:1|3:0,0:0:0:0:
55,37,21446,1,2,1:0:0:0:
49,42,21646,2,0,P|29:91|74:149,1,125,2|0,0:1|3:0,0:0:0:0:
196,124,22046,1,8,0:1:0:0:
276,28,22246,21,0,3:0:0:0:
304,40,22346,1,0,3:0:0:0:
332,52,22446,1,2,0:1:0:0:
428,150,22646,1,0,3:0:0:0:
363,127,22746,2,0,B|303:99|303:155|243:127,1,125,2|0,0:1|0:0,0:0:0:0:
198,75,23046,2,0,P|174:131|206:191,1,125,2|2,0:1|0:0,0:0:0:0:
324,296,23446,2,0,P|348:256|320:184,1,125,0|8,3:0|0:1,0:0:0:0:
198,75,23846,1,0,0:0:0:0:
192,276,24046,6,0,B|213:198|213:198|248:168,1,125,2|0,0:1|3:0,0:0:0:0:
392,228,24346,2,0,B|316:248|316:248|270:233,1,125,2|0,0:1|3:0,0:0:0:0:
252,80,24646,2,0,B|307:135|307:135|317:182,1,125,2|0,0:1|3:0,0:0:0:0:
192,276,25046,5,2,0:0:0:0:
164,264,25146,1,2,0:0:0:0:
132,244,25246,1,2,0:0:0:0:
96,220,25346,1,2,0:0:0:0:
72,176,25446,1,2,0:0:0:0:
64,120,25546,1,2,0:0:0:0:
80,60,25646,5,0,1:0:0:0:
228,36,25846,1,2,0:0:0:0:
104,120,26046,1,8,0:1:0:0:
252,96,26246,1,8,0:3:0:0:
128,180,26446,2,0,P|180:220|244:196,1,125,2|0,0:0|3:0,0:0:0:0:
267,146,26746,2,0,B|270:200|270:200|292:213|292:213|297:263,1,125,8|8,0:1|0:1,0:0:0:0:
321,229,27046,1,0,3:0:0:0:
341,197,27146,1,2,0:0:0:0:
358,163,27246,22,0,P|402:203|462:187,1,125,2|0,0:1|3:0,0:0:0:0:
500,131,27546,2,0,P|512:72|468:28,1,125,2|0,0:1|3:0,0:0:0:0:
401,23,27846,2,0,P|344:41|328:101,1,125,2|2,0:1|2:0,0:0:0:0:
332,117,28146,1,2,0:0:0:0:
336,135,28246,1,0,3:0:0:0:
339,153,28346,1,2,0:0:0:0:
345,170,28446,1,8,0:1:0:0:
356,364,28646,5,2,0:0:0:0:
340,336,28746,1,2,0:0:0:0:
328,308,28846,2,0,B|312:272|312:272|288:264|288:264|264:200,1,125,2|0,0:1|3:0,0:0:0:0:
232,147,29146,2,0,P|188:187|124:179,1,125,2|0,0:1|3:0,0:0:0:0:
74,135,29446,1,2,0:1:0:0:
228,40,29646,5,2,0:0:0:0:
172,208,29846,1,0,3:1:0:0:
160,32,30046,1,8,0:1:0:0:
236,188,30246,1,2,0:0:0:0:
108,72,30446,5,2,0:1:0:0:
272,136,30646,1,0,3:0:0:0:
272,136,30746,1,2,0:1:0:0:
96,132,30946,1,0,3:0:0:0:
96,132,31046,1,2,0:1:0:0:
260,68,31246,21,2,0:0:0:0:
296,60,31346,1,2,0:0:0:0:
324,84,31446,1,0,3:0:0:0:
344,52,31546,1,2,0:0:0:0:
380,44,31646,1,8,0:1:0:0:
480,120,31846,5,2,0:0:0:0:
476,156,31946,1,2,0:0:0:0:
472,192,32046,1,0,1:0:0:0:
376,290,32246,1,0,3:0:0:0:
368,254,32346,1,0,3:0:0:0:
344,226,32446,5,2,0:1:0:0:
268,368,32646,1,0,3:0:0:0:
292,196,32846,2,0,P|240:188|212:120,1,125,2|0,0:1|3:0,0:0:0:0:
296,28,33146,2,0,P|316:77|271:135,1,125,2|0,0:1|3:0,0:0:0:0:
144,117,33446,1,2,1:0:0:0:
148,112,33646,6,0,P|181:70|254:80,1,125,2|0,0:1|3:0,0:0:0:0:
292,196,33946,2,0,P|240:188|212:119,1,125,2|0,0:1|3:0,0:0:0:0:
296,28,34246,2,0,P|316:77|271:135,1,125,2|0,0:1|3:0,0:0:0:0:
240,124,34546,1,2,0:0:0:0:
204,140,34646,1,0,3:0:0:0:
200,176,34746,1,2,0:0:0:0:
216,208,34846,1,8,0:1:0:0:
340,192,35046,1,2,0:0:0:0:
324,316,35246,22,0,B|350:365|350:365|419:368,1,125,2|2,0:1|0:0,0:0:0:0:
412,196,35546,2,0,B|357:192|357:192|321:251,1,125,2|0,0:1|3:0,0:0:0:0:
472,332,35845,2,0,B|502:286|502:286|468:224,1,125,2|2,0:1|0:0,0:0:0:0:
324,316,36246,1,0,3:0:0:0:
204,348,36446,1,8,0:1:0:0:
228,224,36646,1,2,0:0:0:0:
216,188,36746,1,2,0:0:0:0:
176,148,36846,5,0,3:0:0:0:
136,108,36946,1,0,3:0:0:0:
132,60,37046,1,0,3:0:0:0:
168,24,37146,5,2,0:0:0:0:
212,16,37246,1,2,0:0:0:0:
252,32,37346,1,2,0:0:0:0:
272,64,37446,5,0,3:0:0:0:
280,100,37546,1,0,3:0:0:0:
280,132,37646,21,0,3:0:0:0:
288,164,37746,1,0,0:0:0:0:
304,184,37846,1,2,0:0:0:0:
328,192,37946,1,2,0:0:0:0:
348,188,38046,5,8,0:1:0:0:
364,176,38146,1,8,0:1:0:0:
372,168,38246,5,8,0:3:0:0:
376,156,38346,1,8,0:3:0:0:
376,148,38446,1,4,1:2:0:0:
299,19,38646,5,2,0:0:0:0:
263,139,38846,2,0,P|223:187|163:179,1,125,8|0,0:1|0:0,0:0:0:0:
115,67,39246,2,0,P|159:19|215:27,1,125,8|2,0:3|0:0,0:0:0:0:
255,75,39546,1,8,0:1:0:0:
300,191,39746,1,8,0:1:0:0:
287,233,39846,1,0,3:0:0:0:
272,274,39946,1,2,0:0:0:0:
304,304,40046,22,0,B|360:328|360:328|384:304|424:312,1,125,0|2,1:0|0:0,0:0:0:0:
204,232,40446,2,0,B|260:256|260:256|284:232|324:240,1,125,8|0,0:1|3:0,0:0:0:0:
104,160,40846,2,0,B|160:184|160:184|184:160|224:168,1,125,8|2,0:3|0:0,0:0:0:0:
276,140,41146,1,8,0:1:0:0:
460,180,41346,5,8,0:1:0:0:
424,164,41446,1,0,3:0:0:0:
392,148,41546,1,2,0:0:0:0:
360,132,41646,2,0,P|316:168|252:156,1,125,0|2,1:1|0:0,0:0:0:0:
172,12,42046,2,0,P|234:40|246:93,1,125,8|0,0:1|3:0,0:0:0:0:
164,232,42446,2,0,P|151:180|196:127,1,125,8|2,0:3|0:0,0:0:0:0:
252,156,42746,2,0,P|257:221|220:261,1,125,8|8,0:1|0:1,0:0:0:0:
188,248,43046,1,0,3:0:0:0:
164,232,43146,1,2,0:0:0:0:
136,216,43246,6,0,P|112:160|136:104,1,125,0|2,1:0|0:0,0:0:0:0:
312,192,43646,2,0,P|336:248|312:304,1,125,8|0,0:1|3:0,0:0:0:0:
200,192,44046,2,0,P|176:136|200:80,1,125,0|2,1:1|0:0,0:0:0:0:
376,168,44446,1,8,0:1:0:0:
394,194,44546,1,8,0:0:0:0:
399,225,44646,1,0,0:0:0:0:
390,255,44746,1,2,0:0:0:0:
376,284,44846,6,0,B|300:316|300:316|256:300,1,125,2|0,0:1|3:0,0:0:0:0:
224,156,45146,2,0,B|289:205|289:205|297:251,1,125,2|0,0:1|3:0,0:0:0:0:
184,352,45446,2,0,B|194:270|194:270|230:240,1,125,2|2,0:1|0:0,0:0:0:0:
336,184,45846,1,0,3:0:0:0:
224,132,46046,1,8,0:1:0:0:
328,60,46246,1,2,0:0:0:0:
226,242,46446,22,0,B|302:274|302:274|346:258,1,125,2|0,0:1|3:0,0:0:0:0:
378,114,46746,2,0,B|313:163|313:163|305:209,1,125,2|0,0:1|3:0,0:0:0:0:
418,310,47046,2,0,B|408:228|408:228|372:198,1,125,2|2,0:1|0:0,0:0:0:0:
226,242,47446,1,0,3:0:0:0:
120,136,47646,5,8,0:1:0:0:
104,184,47746,1,8,0:1:0:0:
92,224,47846,1,8,0:3:0:0:
80,260,47946,1,8,0:3:0:0:
72,288,48046,2,0,P|132:304|192:288,1,125,2|2,0:1|0:0,0:0:0:0:
192,218,48346,2,0,B|228:202|252:214|252:222|276:234|312:218,1,125,2|2,0:1|0:0,0:0:0:0:
363,263,48646,2,0,L|339:135,1,125,2|0,0:1|3:0,0:0:0:0:
316,20,49046,1,2,0:0:0:0:
340,141,49246,6,0,B|356:184|304:228|256:204|256:176|208:156|160:200|172:244,1,250,8|0,0:1|1:0,0:0:0:0:
258,335,49846,5,2,0:0:0:0:
313,342,49946,1,2,0:0:0:0:
359,324,50046,1,0,0:0:0:0:
393,287,50146,1,0,0:0:0:0:
406,245,50246,21,0,0:0:0:0:
402,201,50346,1,0,0:0:0:0:
383,168,50446,1,0,0:0:0:0:
356,141,50546,1,0,0:0:0:0:
327,128,50646,5,2,0:0:0:0:
295,124,50746,1,2,0:0:0:0:
270,127,50846,1,8,0:3:0:0:
246,136,50946,1,8,0:3:0:0:
231,147,51046,5,8,0:1:0:0:
217,159,51146,1,8,0:1:0:0:
210,169,51246,1,4,1:2:0:0:
160,312,51446,5,2,0:0:0:0:
40,272,51646,2,0,B|70:235|70:235|95:205|66:165,1,125,8|0,0:1|3:0,0:0:0:0:
40,132,51946,1,0,0:0:0:0:
16,96,52046,2,0,L|144:64,1,125,2|0,0:0|3:0,0:0:0:0:
159,130,52346,2,0,L|283:98,1,125,8|8,0:1|0:1,0:0:0:0:
324,80,52646,1,0,3:0:0:0:
368,68,52746,1,0,0:0:0:0:
412,56,52846,21,2,0:1:0:0:
392,232,53046,1,0,0:0:0:0:
348,64,53246,1,8,0:1:0:0:
328,240,53446,1,0,3:0:0:0:
284,72,53646,2,0,L|268:200,1,125,0|0,3:0|3:0,0:0:0:0:
202,173,53946,2,0,L|186:301,1,125,8|0,0:1|0:1,0:0:0:0:
182,325,54246,1,0,3:0:0:0:
178,357,54346,1,0,3:0:0:0:
143,337,54446,5,2,0:1:0:0:
134,348,54846,1,8,0:1:0:0:
88,232,55046,2,0,P|144:208|204:236,1,125,0|8,3:0|3:0,0:0:0:0:
256,336,55446,1,2,0:0:0:0:
256,336,55546,1,8,0:1:0:0:
372,292,55746,1,8,0:1:0:0:
408,280,55846,1,0,3:1:0:0:
444,268,55946,1,2,0:0:0:0:
464,236,56046,5,0,0:0:0:0:
480,88,56246,1,2,0:0:0:0:
400,216,56446,1,8,0:1:0:0:
412,68,56646,1,2,0:0:0:0:
336,196,56846,1,0,0:0:0:0:
352,48,57046,1,2,0:0:0:0:
276,176,57246,5,8,0:1:0:0:
240,172,57346,1,8,0:1:0:0:
208,168,57446,1,8,0:0:0:0:
184,164,57546,1,8,0:0:0:0:
164,160,57646,2,0,B|84:152|84:152|52:184,1,125,2|2,0:0|0:0,0:0:0:0:
140,332,57946,2,0,B|186:266|186:266|175:223,1,125,2|2,0:0|0:0,0:0:0:0:
4,224,58246,2,0,B|37:297|37:297|80:308,1,125,2|2,0:0|0:0,0:0:0:0:
164,160,58646,21,0,3:0:0:0:
254,74,58846,1,8,0:1:0:0:
352,160,59046,1,2,0:0:0:0:
352,160,59246,2,0,B|432:152|432:152|464:184,1,125,2|2,0:0|0:0,0:0:0:0:
372,332,59546,2,0,B|325:266|325:266|336:223,1,125,2|2,0:0|0:0,0:0:0:0:
508,224,59846,2,0,B|474:297|474:297|431:308,1,125,2|2,0:0|0:0,0:0:0:0:
388,320,60146,1,0,0:0:0:0:
344,328,60246,1,2,0:0:0:0:
300,336,60346,1,2,0:0:0:0:
288,292,60446,5,8,0:1:0:0:
280,256,60546,1,0,0:0:0:0:
272,220,60646,1,2,0:0:0:0:
264,184,60746,1,2,0:0:0:0:
256,148,60846,1,0,1:0:0:0:
236,24,61046,5,2,0:0:0:0:
304,128,61246,2,0,P|360:164|416:148,1,125,8|2,0:1|0:0,0:0:0:0:
344,47,61646,2,0,P|296:11|236:23,1,125,8|2,0:3|0:0,0:0:0:0:
216,89,61946,2,0,P|264:125|324:113,1,125,8|8,0:1|0:1,0:0:0:0:
372,96,62246,1,0,0:0:0:0:
412,80,62346,1,0,0:0:0:0:
474,51,62446,5,4,0:1:0:0:
474,51,64046,21,2,0:0:0:0:
367,196,64246,1,0,3:0:0:0:
367,23,64446,1,0,1:0:0:0:
469,163,64646,1,0,0:0:0:0:
304,109,64846,1,8,0:0:0:0:
455,223,65046,1,0,3:0:0:0:
466,226,65146,1,8,0:0:0:0:
283,168,65346,1,0,3:0:0:0:
271,166,65446,1,8,0:0:0:0:
430,281,65646,6,0,P|389:326|331:317,1,125,2|2,0:1|0:0,0:0:0:0:
288,196,65946,2,0,P|347:209|368:263,1,125,2|2,0:1|0:0,0:0:0:0:
286,362,66246,5,0,0:0:0:0:
268,336,66346,1,0,0:0:0:0:
265,304,66446,1,8,0:0:0:0:
275,274,66546,1,8,0:0:0:0:
285,231,66646,5,2,0:0:0:0:
302,258,66746,1,2,0:0:0:0:
329,275,66846,1,0,3:0:0:0:
359,279,66946,1,0,3:0:0:0:
362,235,67046,21,0,0:0:0:0:
361,204,67146,1,0,0:0:0:0:
370,175,67246,1,8,0:3:0:0:
474,243,67446,1,2,0:0:0:0:
436,128,67646,2,0,B|385:89|385:89|325:106,1,125,0|0,1:0|3:0,0:0:0:0:
211,154,68046,1,8,0:0:0:0:
311,228,68246,1,0,0:0:0:0:
305,217,68346,1,8,0:0:0:0:
234,36,68546,1,0,0:0:0:0:
240,48,68646,1,8,0:0:0:0:
305,217,68846,6,0,P|282:292|184:284,2,187.5,2|2|2,0:1|0:1|0:1,0:0:0:0:
191,164,69646,1,2,0:0:0:0:
191,164,69946,1,2,0:0:0:0:
191,164,70446,5,8,0:3:0:0:
312,194,70646,1,0,3:0:0:0:
354,202,70746,1,0,3:0:0:0:
396,191,70846,2,0,P|376:249|394:308,1,125,0|0,1:0|3:0,0:0:0:0:
502,249,71246,1,8,0:0:0:0:
453,133,71446,1,0,0:0:0:0:
464,115,71546,1,8,0:0:0:0:
355,176,71746,1,0,0:0:0:0:
342,195,71846,1,8,0:0:0:0:
322,71,72046,6,0,B|241:63|241:63|212:96,1,125,2|2,0:1|0:0,0:0:0:0:
234,239,72346,2,0,B|281:172|281:172|267:131,1,125,2|2,0:1|0:0,0:0:0:0:
131,80,72646,2,0,B|164:154|164:154|207:162,1,125,2|2,0:1|0:0,0:0:0:0:
235,164,72946,1,0,0:0:0:0:
259,165,73046,1,0,0:0:0:0:
283,161,73146,1,2,0:0:0:0:
313,156,73246,1,2,0:3:0:0:
342,145,73346,1,8,0:0:0:0:
372,123,73446,1,2,0:3:0:0:
387,88,73546,1,2,0:3:0:0:
383,44,73646,1,8,0:3:0:0:
262,11,73846,21,2,0:0:0:0:
292,132,74046,2,0,P|230:161|179:143,1,125,0|0,1:0|3:0,0:0:0:0:
80,65,74446,1,8,0:0:0:0:
66,189,74646,1,0,0:0:0:0:
80,175,74746,1,8,0:0:0:0:
195,24,74946,1,0,0:0:0:0:
182,43,75046,1,8,0:0:0:0:
179,143,75246,5,8,0:3:0:0:
324,187,75446,1,2,0:0:0:0:
214,291,75646,1,0,1:0:0:0:
265,123,75846,1,0,0:0:0:0:
299,271,76046,1,8,3:0:0:0:
154,227,76246,1,2,0:0:0:0:
194,210,76346,1,2,0:0:0:0:
231,205,76446,1,8,0:0:0:0:
261,212,76546,1,8,0:0:0:0:
280,227,76646,1,8,0:3:0:0:
293,240,76746,1,2,0:3:0:0:
300,250,76846,1,8,0:3:0:0:
384,358,77046,5,0,3:0:0:0:
408,209,77246,1,0,1:1:0:0:
264,269,77446,1,0,0:0:0:0:
285,120,77646,1,8,0:0:0:0:
408,209,77846,1,0,0:0:0:0:
377,239,77946,1,0,0:0:0:0:
333,245,78046,1,0,0:0:0:0:
291,230,78146,1,8,0:3:0:0:
255,204,78246,1,8,0:3:0:0:
235,165,78346,1,2,0:0:0:0:
213,126,78446,6,0,L|154:248,1,125,2|0,0:0|3:0,0:0:0:0:
131,302,78746,2,0,L|266:292,1,125,2|0,0:0|3:0,0:0:0:0:
323,280,79046,2,0,L|283:224,1,62.5
270,200,79246,1,0,0:0:0:0:
255,165,79346,1,2,0:0:0:0:
248,121,79446,1,2,0:0:0:0:
254,68,79546,21,0,0:0:0:0:
217,76,79646,1,8,0:0:0:0:
187,85,79746,1,8,0:0:0:0:
157,96,79846,1,8,0:3:0:0:
133,103,79946,1,8,0:3:0:0:
109,110,80046,1,0,3:0:0:0:
0,146,80246,5,2,0:0:0:0:
140,172,80446,1,0,1:0:0:0:
8,212,80646,1,0,3:0:0:0:
148,236,80846,1,8,0:0:0:0:
16,280,81046,1,0,3:0:0:0:
40,340,81146,2,0,B|84:348|84:348|132:336|132:336|168:344,1,125,8|0,0:0|3:0,0:0:0:0:
224,360,81446,1,8,0:0:0:0:
336,308,81646,6,0,B|315:260|315:260|300:223|255:220,1,125,2|0,0:0|0:0,0:0:0:0:
84,267,82046,2,0,B|135:273|135:273|171:277|199:244,1,125,0|0,1:0|0:0,0:0:0:0:
243,69,82446,2,0,B|211:110|211:110|190:139|204:180,1,125,0|0,3:0|0:0,0:0:0:0:
336,308,82846,2,0,L|404:316,5,56.2500002145767,0|0|0|2|2|2,1:0|0:0|0:0|0:0|0:0|0:0,0:0:0:0:
456,324,83246,5,8,0:3:0:0:
456,200,83446,1,0,3:0:0:0:
388,185,83546,1,0,3:0:0:0:
320,172,83646,1,0,1:0:0:0:
457,136,83846,1,0,3:0:0:0:
321,108,84046,1,8,0:0:0:0:
458,74,84246,1,0,3:0:0:0:
458,74,84346,1,8,0:0:0:0:
323,42,84546,1,0,3:0:0:0:
323,42,84646,1,8,0:0:0:0:
456,136,84846,22,0,L|332:160,1,125,2|0,0:1|0:0,0:0:0:0:
368,219,85146,2,0,L|244:243,1,125,2|0,0:1|0:0,0:0:0:0:
273,306,85446,2,0,L|149:330,1,125,2|0,0:1|0:0,0:0:0:0:
125,334,85746,1,0,3:0:0:0:
93,334,85846,1,0,3:0:0:0:
58,318,85946,1,2,0:0:0:0:
25,295,86046,1,2,0:0:0:0:
9,255,86146,1,8,0:0:0:0:
22,212,86246,1,2,0:0:0:0:
51,173,86346,1,2,0:0:0:0:
101,166,86446,1,8,3:0:0:0:
204,152,86646,6,0,B|224:276,1,125,2|0,0:0|1:0,0:0:0:0:
308,368,87046,1,8,3:0:0:0:
300,324,87146,1,8,3:0:0:0:
292,280,87246,2,0,L|272:152,1,125,8|0,0:0|3:0,0:0:0:0:
356,269,87546,2,0,L|336:141,1,125,8|2,0:2|0:0,0:0:0:0:
420,260,87846,2,0,L|400:136,1,125,8|0,0:0|3:0,0:0:0:0:
380,12,88246,5,2,0:0:0:0:
256,36,88446,1,8,0:0:0:0:
201,50,88546,1,0,0:0:0:0:
152,62,88646,1,0,0:0:0:0:
104,77,88746,1,0,0:0:0:0:
139,102,88846,5,2,0:0:0:0:
176,124,88946,1,0,0:0:0:0:
209,140,89046,1,0,0:0:0:0:
242,156,89146,1,0,0:0:0:0:
242,187,89246,21,8,0:0:0:0:
215,204,89346,1,0,0:0:0:0:
192,214,89446,1,2,0:0:0:0:
170,226,89546,1,2,0:0:0:0:
178,242,89646,5,4,0:3:0:0:
178,242,90246,1,0,3:0:0:0:
200,352,90446,2,0,B|156:380|120:360|120:344|84:324|40:352,2,168.749994850159,0|2|0,3:0|0:0|3:0,0:0:0:0:
312,352,91246,2,0,B|356:380|392:360|392:344|428:324|472:352,2,168.749994850159,0|2|0,3:0|0:0|3:0,0:0:0:0:
180,288,92046,2,0,B|192:244|192:244|228:244|256:228|256:228|284:244|320:244|320:244|332:288,1,224.999993133545,8|2,3:0|0:0,0:0:0:0:
428,232,92646,5,0,3:0:0:0:
444,196,92746,1,0,3:0:0:0:
456,160,92846,2,0,P|424:68|324:101,1,224.999993133545,8|2,0:3|0:0,0:0:0:0:
256,140,93446,1,0,3:0:0:0:
196,192,93646,1,2,0:0:0:0:
256,292,93946,1,2,0:0:0:0:
316,192,94246,1,2,0:0:0:0:
188,101,94446,6,0,P|93:65|56:160,1,224.999993133545,8|2,0:3|0:0,0:0:0:0:
323,101,95246,2,0,P|418:65|456:160,1,224.999993133545,8|2,0:3|0:0,0:0:0:0:
184,264,96046,22,0,B|148:272|128:264|128:264|88:296|88:296|60:288|24:296,2,168.749994850159,2|2|2,0:0|0:0|0:0,0:0:0:0:
256,90,96846,5,8,0:3:0:0:
256,293,97046,1,2,0:0:0:0:
357,192,97246,1,8,0:0:0:0:
154,192,97446,1,2,0:0:0:0:
328,264,97646,6,0,B|364:272|384:264|384:264|424:296|424:296|452:288|488:296,2,168.749994850159,2|2|2,0:0|0:0|0:0,0:0:0:0:
256,90,98446,1,8,0:3:0:0:
256,293,98646,1,2,0:0:0:0:
154,192,98846,1,8,0:0:0:0:
357,192,99046,1,2,0:0:0:0:
88,280,99246,6,0,P|138:296|186:260,1,112.499996566773,8|0,0:3|0:0,0:0:0:0:
424,104,99646,2,0,P|384:88|328:120,1,112.499996566773,2|0,0:3|0:0,0:0:0:0:
344,360,100046,2,0,P|360:312|328:264,1,112.499996566773,8|0,0:3|0:0,0:0:0:0:
168,24,100446,2,0,P|152:72|184:120,1,112.499996566773,2|0,0:3|0:0,0:0:0:0:
344,360,100846,21,8,0:3:0:0:
359,354,100946,1,8,0:3:0:0:
377,341,101046,1,2,0:0:0:0:
390,323,101146,1,2,0:0:0:0:
398,296,101246,1,8,0:3:0:0:
394,268,101346,1,8,0:3:0:0:
379,237,101446,1,2,0:0:0:0:
356,211,101546,1,2,0:0:0:0:
320,193,101646,5,8,0:3:0:0:
280,193,101746,1,8,0:3:0:0:
237,208,101846,1,2,0:3:0:0:
192,201,101946,1,2,0:3:0:0:
159,162,102046,1,2,0:0:0:0:
154,111,102146,1,2,0:0:0:0:
185,64,102246,1,2,0:3:0:0:
235,40,102346,1,2,0:3:0:0:
303,49,102446,5,6,1:1:0:0:
437,20,102646,1,2,0:0:0:0:
319,114,102846,1,8,0:1:0:0:
470,79,103046,1,0,1:0:0:0:
350,170,103246,2,0,P|388:208|406:277,1,125,2|0,0:1|3:0,0:0:0:0:
301,209,103546,2,0,P|329:262|328:328,1,125,8|8,0:1|0:1,0:0:0:0:
245,238,103846,2,0,P|259:274|253:304,1,62.5,8|2,0:1|0:0,0:0:0:0:
196,277,104046,6,0,P|158:239|140:170,1,125,2|2,0:1|0:0,0:0:0:0:
245,238,104346,2,0,P|217:185|218:119,1,125,8|0,0:1|3:0,0:0:0:0:
301,209,104646,2,0,P|287:173|293:143,1,62.5,8|0,0:1|3:0,0:0:0:0:
325,98,104846,1,2,0:0:0:0:
373,58,104946,1,8,3:0:0:0:
432,37,105046,1,8,3:0:0:0:
427,161,105246,1,8,0:1:0:0:
432,37,105446,21,8,0:1:0:0:
373,58,105546,1,8,0:1:0:0:
325,98,105646,1,2,1:0:0:0:
325,98,106046,1,8,0:1:0:0:
255,216,106246,1,0,3:0:0:0:
180,331,106446,2,0,B|116:329|116:329|68:367,1,125,8|8,0:1|0:3,0:0:0:0:
17,319,106746,2,0,B|50:264|50:264|41:204,1,125,8|8,0:1|0:3,0:0:0:0:
108,188,107046,2,0,B|138:244|138:244|195:266,1,125,8|8,0:1|0:3,0:0:0:0:
332,308,107446,5,8,0:3:0:0:
423,206,107646,1,8,0:1:0:0:
222,72,107846,5,8,0:3:0:0:
265,186,108046,1,2,0:3:0:0:
492,106,108246,5,8,0:3:0:0:
357,90,108446,1,8,0:1:0:0:
298,112,108546,1,8,0:0:0:0:
269,160,108646,1,8,0:3:0:0:
262,209,108746,1,8,0:3:0:0:
270,251,108846,22,0,P|230:296|169:294,1,125,2|2,1:1|0:0,0:0:0:0:
80,161,109146,2,0,P|139:174|167:227,1,125,2|2,1:1|0:0,0:0:0:0:
97,371,109446,2,0,P|79:314|111:263,1,125,2|2,1:1|0:0,0:0:0:0:
270,251,109846,5,0,3:0:0:0:
97,371,110046,1,8,0:0:0:0:
80,161,110246,1,2,0:0:0:0:
105,196,110346,1,2,0:0:0:0:
132,229,110446,6,0,B|183:264|183:264|244:252,1,125,2|2,1:0|0:0,0:0:0:0:
364,113,110746,2,0,B|308:139|308:139|288:198,1,125,2|2,1:0|0:0,0:0:0:0:
345,372,111046,2,0,B|349:310|349:310|308:263,1,125,2|2,1:0|0:0,0:0:0:0:
132,229,111446,5,0,3:0:0:0:
345,372,111646,1,8,0:0:0:0:
364,113,111846,1,8,0:0:0:0:
303,128,111946,1,8,0:0:0:0:
242,142,112046,1,4,1:0:0:0:
256,192,112246,12,6,115246,0:0:0:0:
