osu file format v14

[General]
AudioFilename: audio.mp3
AudioLeadIn: 0
PreviewTime: 0
Countdown: 0
SampleSet: Soft
StackLeniency: 0.7
Mode: 0
LetterboxInBreaks: 0
WidescreenStoryboard: 0

[Editor]
DistanceSpacing: 0.5
BeatDivisor: 4
GridSize: 16
TimelineZoom: 2.4

[Metadata]
Title:Boss Battle
TitleUnicode:Boss Battle
Artist:Jake Kaufman
ArtistUnicode:Jake Kaufman
Creator:Hakura
Version:Extra
Source:Shantae Half Genie Hero
Tags:game ost official soundtrack fight
BeatmapID:1867698
BeatmapSetID:893720

[Difficulty]
HPDrainRate:6
CircleSize:4
OverallDifficulty:9.5
ApproachRate:9.8
SliderMultiplier:2
SliderTickRate:1

[Events]
//Background and Video events
0,0,"bga.png",0,0
//Break Periods
//Storyboard Layer 0 (Background)
//Storyboard Layer 1 (Fail)
//Storyboard Layer 2 (Pass)
//Storyboard Layer 3 (Foreground)
//Storyboard Sound Samples

[TimingPoints]
0,250,4,2,0,70,1,0

[HitObjects]
391,41,0,6,0,L|376:116,1,50
427,154,125,1,0,0:0:0:0:
430,175,250,1,0,0:0:0:0:
433,196,375,1,0,0:0:0:0:
436,217,500,1,0,0:0:0:0:
439,238,625,1,0,0:0:0:0:
272,7,750,6,0,L|257:82,1,50
308,120,875,1,0,0:0:0:0:
311,141,1000,1,0,0:0:0:0:
314,162,1125,1,0,0:0:0:0:
317,183,1250,1,0,0:0:0:0:
320,204,1375,1,0,0:0:0:0:
67,171,1500,6,0,L|142:186,1,50
180,135,1625,1,0,0:0:0:0:
201,132,1750,1,0,0:0:0:0:
222,129,1875,1,0,0:0:0:0:
164,378,2000,6,0,L|173:328,1,50
128,264,2125,1,0,0:0:0:0:
125,243,2250,1,0,0:0:0:0:
122,222,2375,1,0,0:0:0:0:
119,201,2500,1,0,0:0:0:0:
116,180,2625,1,0,0:0:0:0:
277,384,2750,6,0,L|286:334,1,50
241,270,2875,1,0,0:0:0:0:
238,249,3000,1,0,0:0:0:0:
235,228,3125,1,0,0:0:0:0:
232,207,3250,1,0,0:0:0:0:
229,186,3375,1,0,0:0:0:0:
480,219,3500,6,0,L|405:204,1,50
367,255,3625,1,0,0:0:0:0:
346,258,3750,1,0,0:0:0:0:
325,261,3875,1,0,0:0:0:0:
258,64,4000,6,0,P|335:135|434:84,1,200
212,0,4375,2,0,L|198:216,1,200
92,348,4750,5,0,0:0:0:0:
0,340,4875,1,0,0:0:0:0:
54,264,5000,1,0,0:0:0:0:
235,280,5125,5,0,0:0:0:0:
144,272,5250,1,0,0:0:0:0:
199,199,5375,1,0,0:0:0:0:
339,368,5500,6,0,P|321:312|340:265,1,100
489,138,5750,2,0,P|507:194|488:241,1,100
250,101,6000,6,0,P|306:180|403:192,1,200
254,0,6375,2,0,P|175:31|159:144,1,200
264,344,6750,1,0,0:0:0:0:
238,221,6875,1,0,0:0:0:0:
0,283,7000,5,0,0:0:0:0:
24,267,7083,1,0,0:0:0:0:
55,271,7166,1,0,0:0:0:0:
74,296,7250,2,0,L|186:298,1,100
417,374,7500,5,0,0:0:0:0:
381,309,7583,1,0,0:0:0:0:
419,245,7666,1,0,0:0:0:0:
455,310,7750,5,0,0:0:0:0:
493,246,7833,1,0,0:0:0:0:
457,181,7916,1,0,0:0:0:0:
495,117,8000,6,0,P|413:134|331:94,1,150
338,82,8250,2,0,L|228:72,1,100
9,107,8500,2,0,P|72:108|141:228,1,200
132,287,8875,1,0,0:0:0:0:
298,368,9000,6,0,P|260:303|276:225,1,150
303,215,9250,1,0,0:0:0:0:
512,289,9375,2,0,P|447:327|369:311,1,150
359,284,9625,1,0,0:0:0:0:
439,112,9750,2,0,L|429:212,1,100
65,52,10000,6,0,P|157:33|246:107,1,200
262,162,10375,1,0,0:0:0:0:
512,131,10500,6,0,P|420:112|331:186,1,200
286,233,10875,1,0,0:0:0:0:
441,377,11000,6,0,L|451:267,1,100
434,189,11250,1,0,0:0:0:0:
181,335,11375,2,0,L|171:225,1,100
188,147,11625,1,0,0:0:0:0:
464,384,11750,2,0,L|474:274,1,100
236,384,12000,6,0,P|130:349|59:377,1,150
58,379,12250,2,0,L|68:256,1,100
23,94,12500,2,0,P|91:147|220:111,1,200
248,69,12875,1,0,0:0:0:0:
505,19,13000,6,0,P|416:47|395:128,1,150
404,125,13250,1,0,0:0:0:0:
501,321,13375,2,0,P|521:229|461:171,1,150
459,180,13625,1,0,0:0:0:0:
292,218,13750,2,0,P|365:218|397:194,1,100
155,4,14000,6,0,L|129:213,1,200
93,288,14375,1,0,0:0:0:0:
366,288,14500,6,0,P|306:259|162:297,1,200
142,371,14875,1,0,0:0:0:0:
486,368,15000,6,0,L|507:250,1,100
480,172,15250,1,0,0:0:0:0:
266,372,15375,2,0,L|245:254,1,100
272,176,15625,1,0,0:0:0:0:
495,378,15750,2,0,L|516:260,1,100
410,36,16000,6,0,P|328:72|228:45,1,150
251,38,16250,2,0,L|147:34,1,100
19,32,16500,1,0,0:0:0:0:
32,257,16625,1,0,0:0:0:0:
4,9,16750,2,0,L|13:119,1,100
210,224,17000,6,0,P|152:207|83:227,1,100
43,342,17250,1,0,0:0:0:0:
232,205,17375,1,0,0:0:0:0:
235,182,17437,1,0,0:0:0:0:
239,161,17500,1,0,0:0:0:0:
144,325,17625,1,0,0:0:0:0:
276,197,17750,2,0,L|286:76,1,100
512,230,18000,6,0,P|402:224|332:273,1,200
311,360,18375,1,0,0:0:0:0:
42,238,18500,5,0,0:0:0:0:
76,223,18562,1,0,0:0:0:0:
113,216,18625,1,0,0:0:0:0:
150,219,18687,1,0,0:0:0:0:
186,229,18750,1,0,0:0:0:0:
246,296,18875,1,0,0:0:0:0:
15,358,19000,6,0,L|25:228,1,100
80,146,19250,1,0,0:0:0:0:
336,347,19375,2,0,L|326:217,1,100
271,135,19625,1,0,0:0:0:0:
0,375,19750,2,0,L|10:245,1,100
264,384,20000,6,0,P|311:360|433:370,1,150
432,377,20250,2,0,L|441:244,1,100
386,77,20500,1,0,0:0:0:0:
367,109,20562,1,0,0:0:0:0:
358,145,20625,1,0,0:0:0:0:
358,183,20687,1,0,0:0:0:0:
368,218,20750,1,0,0:0:0:0:
495,161,20875,1,0,0:0:0:0:
306,38,21000,6,0,L|169:30,1,100
86,99,21250,1,0,0:0:0:0:
332,53,21375,1,0,0:0:0:0:
332,37,21438,1,0,0:0:0:0:
336,19,21500,1,0,0:0:0:0:
307,243,21625,1,0,0:0:0:0:
369,5,21750,2,0,L|363:134,1,100
423,298,22000,6,0,P|269:278|213:322,1,200
162,375,22375,1,0,0:0:0:0:
71,235,22500,1,0,0:0:0:0:
75,207,22562,1,0,0:0:0:0:
79,179,22625,1,0,0:0:0:0:
83,151,22687,1,0,0:0:0:0:
87,123,22750,1,0,0:0:0:0:
192,34,22875,1,0,0:0:0:0:
430,111,23000,6,0,L|308:86,1,100
237,146,23250,1,0,0:0:0:0:
410,300,23375,2,0,L|288:325,1,100
217,265,23625,1,0,0:0:0:0:
449,96,23750,2,0,L|327:71,1,100
103,29,24000,5,0,0:0:0:0:
118,240,24125,1,0,0:0:0:0:
123,11,24250,1,0,0:0:0:0:
180,346,24375,5,0,0:0:0:0:
195,135,24500,1,0,0:0:0:0:
200,364,24625,1,0,0:0:0:0:
0,173,24750,5,0,0:0:0:0:
15,384,24875,1,0,0:0:0:0:
20,155,25000,1,0,0:0:0:0:
188,238,25125,5,0,0:0:0:0:
203,27,25250,1,0,0:0:0:0:
208,256,25375,1,0,0:0:0:0:
393,169,25500,5,0,0:0:0:0:
408,380,25625,1,0,0:0:0:0:
413,151,25750,1,0,0:0:0:0:
208,349,25875,5,0,0:0:0:0:
193,138,26000,1,0,0:0:0:0:
188,367,26125,1,0,0:0:0:0:
138,71,26250,5,0,0:0:0:0:
110,148,26375,1,0,0:0:0:0:
60,44,26500,1,0,0:0:0:0:
32,121,26625,1,0,0:0:0:0:
138,71,26750,1,0,0:0:0:0:
110,148,26875,1,0,0:0:0:0:
404,153,27000,5,0,0:0:0:0:
193,138,27125,1,0,0:0:0:0:
422,133,27250,1,0,0:0:0:0:
270,320,27375,5,0,0:0:0:0:
481,305,27500,1,0,0:0:0:0:
252,300,27625,1,0,0:0:0:0:
489,63,27750,5,0,0:0:0:0:
278,78,27875,1,0,0:0:0:0:
507,83,28000,1,0,0:0:0:0:
146,214,28125,5,0,0:0:0:0:
357,229,28250,1,0,0:0:0:0:
128,234,28375,1,0,0:0:0:0:
481,383,28500,5,0,0:0:0:0:
270,368,28625,1,0,0:0:0:0:
499,363,28750,1,0,0:0:0:0:
223,143,28875,5,0,0:0:0:0:
434,158,29000,1,0,0:0:0:0:
205,163,29125,1,0,0:0:0:0:
388,18,29250,5,0,0:0:0:0:
379,308,29375,1,0,0:0:0:0:
401,3,29500,1,0,0:0:0:0:
185,335,29625,5,0,0:0:0:0:
194,45,29750,1,0,0:0:0:0:
172,350,29875,1,0,0:0:0:0:
347,163,30000,5,0,0:0:0:0:
267,196,30125,1,0,0:0:0:0:
367,184,30250,2,0,L|481:179,1,100
197,77,30500,5,0,0:0:0:0:
277,110,30625,1,0,0:0:0:0:
177,98,30750,2,0,L|63:93,1,100
150,364,31000,5,0,0:0:0:0:
112,197,31125,1,0,0:0:0:0:
317,326,31250,5,0,0:0:0:0:
279,159,31375,1,0,0:0:0:0:
140,380,31500,5,0,0:0:0:0:
96,187,31625,1,0,0:0:0:0:
333,336,31750,5,0,0:0:0:0:
289,143,31875,1,0,0:0:0:0:
442,293,32000,5,0,0:0:0:0:
475,373,32125,1,0,0:0:0:0:
463,273,32250,2,0,L|458:159,1,100
260,99,32500,5,0,0:0:0:0:
293,19,32625,1,0,0:0:0:0:
281,119,32750,2,0,L|276:233,1,100
14,283,33000,6,0,B|67:272|67:272|140:281,1,100
377,360,33250,2,0,B|324:371|324:371|251:362,1,100
3,264,33500,6,0,B|56:253|56:253|129:262,1,100
363,342,33750,2,0,B|310:353|310:353|237:344,1,100
243,320,33937,1,0,0:0:0:0:
227,293,34000,5,0,0:0:0:0:
194,373,34125,1,0,0:0:0:0:
206,273,34250,2,0,L|211:159,1,100
88,99,34500,5,0,0:0:0:0:
55,19,34625,1,0,0:0:0:0:
67,119,34750,2,0,L|71:218,1,100
383,219,35000,5,0,0:0:0:0:
216,257,35125,1,0,0:0:0:0:
345,52,35250,5,0,0:0:0:0:
178,90,35375,1,0,0:0:0:0:
399,229,35500,5,0,0:0:0:0:
206,273,35625,1,0,0:0:0:0:
355,36,35750,5,0,0:0:0:0:
162,80,35875,1,0,0:0:0:0:
415,239,36000,5,0,0:0:0:0:
425,359,36125,1,0,0:0:0:0:
444,221,36250,2,0,L|455:99,1,100
432,247,36500,5,0,0:0:0:0:
442,367,36625,1,0,0:0:0:0:
461,229,36750,2,0,L|472:107,1,100
225,192,37000,5,0,0:0:0:0:
211,356,37125,1,0,0:0:0:0:
185,167,37250,2,0,L|172:21,1,100
213,384,37500,5,0,0:0:0:0:
295,103,37625,1,0,0:0:0:0:
395,284,37750,5,0,0:0:0:0:
113,202,37875,1,0,0:0:0:0:
381,6,38000,6,0,P|343:85|375:194,1,200
506,264,38375,2,0,P|397:263|320:368,1,200
132,310,38750,5,0,0:0:0:0:
110,215,38875,1,0,0:0:0:0:
88,121,39000,1,0,0:0:0:0:
212,383,39125,5,0,0:0:0:0:
233,288,39250,1,0,0:0:0:0:
255,194,39375,1,0,0:0:0:0:
54,49,39500,6,0,P|126:65|168:49,1,100
369,27,39750,2,0,P|297:11|255:27,1,100
333,274,40000,6,0,P|368:210|305:91,1,200
55,208,40375,2,0,L|258:193,1,200
44,109,40750,5,0,0:0:0:0:
22,203,40875,1,0,0:0:0:0:
0,298,41000,1,0,0:0:0:0:
0,298,41062,1,0,0:0:0:0:
0,298,41125,1,0,0:0:0:0:
137,163,41250,5,0,0:0:0:0:
159,257,41375,1,0,0:0:0:0:
384,329,41500,6,0,P|313:310|278:321,1,100
97,350,41750,2,0,P|168:369|203:358,1,100
273,0,42000,6,0,L|254:215,1,200
159,257,42375,2,0,P|250:227|377:270,1,200
459,384,42750,5,0,0:0:0:0:
480,289,42875,1,0,0:0:0:0:
502,195,43000,1,0,0:0:0:0:
502,195,43062,1,0,0:0:0:0:
502,195,43125,1,0,0:0:0:0:
349,384,43250,5,0,0:0:0:0:
328,289,43375,1,0,0:0:0:0:
431,138,43500,6,0,P|352:148|303:121,1,100
170,57,43750,2,0,P|249:47|298:74,1,100
45,22,44000,6,0,P|89:104|62:235,1,200
7,328,44375,2,0,P|108:283|227:323,1,200
287,383,44750,5,0,0:0:0:0:
268,281,44875,1,0,0:0:0:0:
409,45,45000,5,0,0:0:0:0:
361,147,45125,2,0,L|354:271,1,100
428,27,45375,1,0,0:0:0:0:
85,86,45500,5,0,0:0:0:0:
302,34,45625,1,0,0:0:0:0:
99,1,45750,5,0,0:0:0:0:
288,120,45875,1,0,0:0:0:0:
20,179,46000,5,0,0:0:0:0:
35,215,46083,1,0,0:0:0:0:
34,250,46166,1,0,0:0:0:0:
58,274,46250,5,0,0:0:0:0:
52,311,46333,1,0,0:0:0:0:
34,342,46416,1,0,0:0:0:0:
49,383,46500,5,0,0:0:0:0:
85,368,46583,1,0,0:0:0:0:
120,369,46666,1,0,0:0:0:0:
210,384,46750,5,0,0:0:0:0:
196,348,46833,1,0,0:0:0:0:
196,313,46916,1,0,0:0:0:0:
237,291,47000,5,0,0:0:0:0:
251,255,47083,1,0,0:0:0:0:
251,220,47166,1,0,0:0:0:0:
207,200,47250,5,0,0:0:0:0:
193,164,47333,1,0,0:0:0:0:
193,129,47416,1,0,0:0:0:0:
167,38,47500,5,0,0:0:0:0:
203,53,47583,1,0,0:0:0:0:
238,52,47666,1,0,0:0:0:0:
262,76,47750,5,0,0:0:0:0:
299,70,47833,1,0,0:0:0:0:
330,52,47916,1,0,0:0:0:0:
420,24,48000,5,0,0:0:0:0:
406,60,48083,1,0,0:0:0:0:
406,95,48166,1,0,0:0:0:0:
447,120,48250,5,0,0:0:0:0:
461,156,48333,1,0,0:0:0:0:
461,191,48416,1,0,0:0:0:0:
424,220,48500,5,0,0:0:0:0:
410,256,48583,1,0,0:0:0:0:
410,291,48666,1,0,0:0:0:0:
445,382,48750,5,0,0:0:0:0:
409,367,48833,1,0,0:0:0:0:
374,368,48916,1,0,0:0:0:0:
350,344,49000,5,0,0:0:0:0:
313,350,49083,1,0,0:0:0:0:
282,368,49166,1,0,0:0:0:0:
241,353,49250,5,0,0:0:0:0:
256,317,49333,1,0,0:0:0:0:
255,282,49416,1,0,0:0:0:0:
238,246,49500,6,0,L|228:173,1,50
93,24,49625,2,0,L|103:97,1,50
221,234,49750,2,0,L|211:161,1,50
76,12,49875,2,0,L|86:85,1,50
15,208,50000,6,0,P|71:181|150:198,1,100
131,200,50187,1,0,0:0:0:0:
228,384,50312,2,0,P|169:344|153:267,1,150
214,184,50625,1,0,0:0:0:0:
354,273,50750,2,0,L|250:282,1,100
480,373,51000,6,0,P|442:299|444:267,1,100
467,258,51187,2,0,L|479:89,1,150
503,11,51500,1,0,0:0:0:0:
358,184,51625,1,0,0:0:0:0:
512,34,51750,2,0,L|392:28,1,100
178,7,52000,6,0,P|198:52|178:148,1,150
41,171,52250,5,0,0:0:0:0:
72,161,52333,1,0,0:0:0:0:
104,167,52416,1,0,0:0:0:0:
147,167,52500,5,0,0:0:0:0:
171,188,52583,1,0,0:0:0:0:
181,219,52666,1,0,0:0:0:0:
214,242,52750,5,0,0:0:0:0:
207,273,52833,1,0,0:0:0:0:
185,297,52916,1,0,0:0:0:0:
116,360,53000,5,0,0:0:0:0:
165,331,53083,1,0,0:0:0:0:
215,349,53166,1,0,0:0:0:0:
254,335,53250,5,0,0:0:0:0:
303,364,53333,1,0,0:0:0:0:
353,346,53416,1,0,0:0:0:0:
391,375,53500,6,0,P|370:285|396:216,1,150
453,204,53750,2,0,P|389:195|333:125,1,150
350,58,54000,1,0,0:0:0:0:
350,58,54125,1,0,0:0:0:0:
100,82,54250,6,0,P|196:42|285:91,1,200
325,144,54625,1,0,0:0:0:0:
176,270,54750,2,0,L|187:171,1,100
436,61,55000,5,0,0:0:0:0:
431,93,55083,1,0,0:0:0:0:
435,125,55166,1,0,0:0:0:0:
414,157,55250,5,0,0:0:0:0:
420,188,55333,1,0,0:0:0:0:
434,217,55416,1,0,0:0:0:0:
425,250,55500,5,0,0:0:0:0:
441,277,55583,1,0,0:0:0:0:
464,299,55666,1,0,0:0:0:0:
473,340,55750,5,0,0:0:0:0:
335,222,55875,1,0,0:0:0:0:
241,362,56000,1,0,0:0:0:0:
340,197,56125,1,0,0:0:0:0:
232,384,56250,6,0,P|252:307|201:193,1,200
147,147,56625,1,0,0:0:0:0:
24,321,56750,2,0,L|123:303,1,100
133,68,57000,1,0,0:0:0:0:
136,226,57125,1,0,0:0:0:0:
120,82,57250,2,0,L|221:77,1,100
493,48,57500,5,0,0:0:0:0:
484,64,57562,1,0,0:0:0:0:
475,80,57625,1,0,0:0:0:0:
466,96,57687,1,0,0:0:0:0:
457,112,57750,2,0,L|356:107,1,100
63,10,58000,5,0,0:0:0:0:
65,34,58062,1,0,0:0:0:0:
67,58,58125,1,0,0:0:0:0:
69,82,58187,1,0,0:0:0:0:
108,108,58250,5,0,0:0:0:0:
106,132,58312,1,0,0:0:0:0:
104,156,58375,1,0,0:0:0:0:
102,180,58437,1,0,0:0:0:0:
74,209,58500,5,0,0:0:0:0:
76,233,58562,1,0,0:0:0:0:
78,257,58625,1,0,0:0:0:0:
80,281,58687,1,0,0:0:0:0:
119,307,58750,5,0,0:0:0:0:
117,331,58812,1,0,0:0:0:0:
115,355,58875,1,0,0:0:0:0:
113,379,58937,1,0,0:0:0:0:
147,374,59000,5,0,0:0:0:0:
173,365,59062,1,0,0:0:0:0:
200,363,59125,1,0,0:0:0:0:
223,368,59187,1,0,0:0:0:0:
265,351,59250,5,0,0:0:0:0:
291,360,59312,1,0,0:0:0:0:
318,362,59375,1,0,0:0:0:0:
341,357,59437,1,0,0:0:0:0:
349,314,59500,5,0,0:0:0:0:
298,149,59625,1,0,0:0:0:0:
440,376,59750,5,0,0:0:0:0:
491,211,59875,1,0,0:0:0:0:
337,328,60000,6,0,L|179:311,1,150
164,293,60250,1,0,0:0:0:0:
6,209,60375,2,0,P|38:282|11:383,1,150
7,370,60625,1,0,0:0:0:0:
110,174,60750,2,0,L|252:161,1,100
398,107,61000,5,0,0:0:0:0:
508,68,61125,1,0,0:0:0:0:
390,128,61250,2,0,L|248:115,1,100
140,57,61500,5,0,0:0:0:0:
173,260,61625,1,0,0:0:0:0:
130,74,61750,1,0,0:0:0:0:
163,277,61875,1,0,0:0:0:0:
153,294,61937,1,0,0:0:0:0:
142,311,62000,6,0,P|236:286|336:316,1,200
453,373,62375,2,0,P|420:307|471:177,1,200
508,92,62750,5,0,0:0:0:0:
409,38,62875,1,0,0:0:0:0:
355,137,63000,1,0,0:0:0:0:
256,83,63125,5,0,0:0:0:0:
202,182,63250,1,0,0:0:0:0:
301,236,63375,1,0,0:0:0:0:
130,384,63500,6,0,P|151:314|134:275,1,100
75,135,63750,2,0,P|54:205|71:244,1,100
369,143,64000,6,0,P|276:120|201:181,1,200
419,252,64375,2,0,P|486:182|470:87,1,200
280,28,64750,6,0,L|385:35,1,100
489,100,65000,1,0,0:0:0:0:
216,90,65125,2,0,L|111:97,1,100
7,162,65375,1,0,0:0:0:0:
302,115,65500,5,0,0:0:0:0:
280,348,65625,1,0,0:0:0:0:
407,243,65750,5,0,0:0:0:0:
174,221,65875,1,0,0:0:0:0:
484,375,66000,5,0,0:0:0:0:
460,346,66083,1,0,0:0:0:0:
466,313,66166,1,0,0:0:0:0:
486,290,66250,2,0,L|498:183,1,100
352,3,66500,5,0,0:0:0:0:
376,32,66583,1,0,0:0:0:0:
370,65,66666,1,0,0:0:0:0:
350,88,66750,2,0,L|338:195,1,100
40,140,67000,5,0,0:0:0:0:
69,116,67083,1,0,0:0:0:0:
102,122,67166,1,0,0:0:0:0:
125,142,67250,2,0,L|232:154,1,100
322,288,67500,5,0,0:0:0:0:
322,288,67562,1,0,0:0:0:0:
322,288,67625,1,0,0:0:0:0:
422,169,67750,1,0,0:0:0:0:
389,369,67875,1,0,0:0:0:0:
225,243,68000,5,0,0:0:0:0:
200,250,68083,1,0,0:0:0:0:
183,267,68166,1,0,0:0:0:0:
152,262,68250,5,0,0:0:0:0:
133,280,68333,1,0,0:0:0:0:
127,303,68416,1,0,0:0:0:0:
146,340,68500,5,0,0:0:0:0:
146,340,68562,1,0,0:0:0:0:
146,340,68625,1,0,0:0:0:0:
168,174,68750,1,0,0:0:0:0:
233,354,68875,1,0,0:0:0:0:
43,98,69000,6,0,L|174:90,1,100
212,28,69250,1,0,0:0:0:0:
35,112,69375,2,0,L|166:104,1,100
204,42,69625,1,0,0:0:0:0:
27,126,69750,2,0,L|158:118,1,100
367,19,70000,5,0,0:0:0:0:
357,46,70083,1,0,0:0:0:0:
361,76,70166,1,0,0:0:0:0:
399,88,70250,5,0,0:0:0:0:
403,116,70333,1,0,0:0:0:0:
422,140,70416,1,0,0:0:0:0:
468,138,70500,5,0,0:0:0:0:
468,138,70562,1,0,0:0:0:0:
468,138,70625,1,0,0:0:0:0:
326,164,70750,1,0,0:0:0:0:
477,21,70875,1,0,0:0:0:0:
508,281,71000,5,0,0:0:0:0:
476,279,71083,1,0,0:0:0:0:
444,277,71166,1,0,0:0:0:0:
414,304,71250,5,0,0:0:0:0:
382,306,71333,1,0,0:0:0:0:
350,308,71416,1,0,0:0:0:0:
320,280,71500,5,0,0:0:0:0:
320,280,71562,1,0,0:0:0:0:
320,280,71625,1,0,0:0:0:0:
420,164,71750,1,0,0:0:0:0:
460,374,71875,1,0,0:0:0:0:
176,352,72000,5,0,0:0:0:0:
186,319,72083,1,0,0:0:0:0:
182,285,72166,1,0,0:0:0:0:
133,286,72250,5,0,0:0:0:0:
123,253,72333,1,0,0:0:0:0:
127,219,72416,1,0,0:0:0:0:
162,192,72500,5,0,0:0:0:0:
162,192,72562,1,0,0:0:0:0:
162,192,72625,1,0,0:0:0:0:
98,373,72750,1,0,0:0:0:0:
275,214,72875,1,0,0:0:0:0:
45,96,73000,6,0,L|153:87,1,100
248,23,73250,1,0,0:0:0:0:
1,247,73375,2,0,L|109:256,1,100
204,320,73625,1,0,0:0:0:0:
33,82,73750,2,0,L|141:73,1,100
364,34,74000,6,0,L|358:107,1,66.6666666666667
416,213,74166,2,0,L|421:146,1,66.6666666666667
356,24,74333,2,0,L|350:97,1,66.6666666666667
435,235,74500,5,0,0:0:0:0:
435,235,74562,1,0,0:0:0:0:
435,235,74625,1,0,0:0:0:0:
432,67,74750,1,0,0:0:0:0:
312,239,74875,1,0,0:0:0:0:
66,94,75000,6,0,L|139:88,1,66.6666666666667
245,146,75166,2,0,L|178:151,1,66.6666666666667
56,86,75333,2,0,L|129:80,1,66.6666666666667
267,165,75500,5,0,0:0:0:0:
267,165,75562,1,0,0:0:0:0:
267,165,75625,1,0,0:0:0:0:
99,162,75750,1,0,0:0:0:0:
271,42,75875,1,0,0:0:0:0:
178,291,76000,6,0,L|184:218,1,66.6666666666667
56,318,76166,2,0,L|50:384,1,66.6666666666667
189,284,76333,2,0,L|195:211,1,66.6666666666667
36,334,76500,5,0,0:0:0:0:
36,334,76562,1,0,0:0:0:0:
36,334,76625,1,0,0:0:0:0:
215,208,76750,1,0,0:0:0:0:
138,383,76875,1,0,0:0:0:0:
121,198,77000,6,0,L|111:91,1,100
46,31,77250,1,0,0:0:0:0:
133,207,77375,2,0,L|123:100,1,100
58,40,77625,1,0,0:0:0:0:
145,216,77750,2,0,L|135:109,1,100
292,168,78000,6,0,L|365:162,1,66.6666666666667
491,89,78166,2,0,L|424:94,1,66.6666666666667
284,184,78333,2,0,L|357:178,1,66.6666666666667
512,74,78500,5,0,0:0:0:0:
512,74,78562,1,0,0:0:0:0:
512,74,78625,1,0,0:0:0:0:
344,199,78750,1,0,0:0:0:0:
410,19,78875,1,0,0:0:0:0:
481,159,79000,6,0,L|475:232,1,66.6666666666667
402,358,79166,2,0,L|407:291,1,66.6666666666667
497,151,79333,2,0,L|491:224,1,66.6666666666667
387,379,79500,5,0,0:0:0:0:
387,379,79562,1,0,0:0:0:0:
387,379,79625,1,0,0:0:0:0:
512,211,79750,1,0,0:0:0:0:
512,384,79875,1,0,0:0:0:0:
238,229,80000,6,0,L|143:235,1,66.6666666666667
19,298,80166,2,0,L|85:293,1,66.6666666666667
250,213,80333,2,0,L|155:219,1,66.6666666666667
17,327,80500,5,0,0:0:0:0:
17,327,80562,1,0,0:0:0:0:
17,327,80625,1,0,0:0:0:0:
195,201,80750,1,0,0:0:0:0:
158,381,80875,1,0,0:0:0:0:
58,99,81000,5,0,0:0:0:0:
81,83,81083,1,0,0:0:0:0:
109,82,81166,1,0,0:0:0:0:
151,104,81250,5,0,0:0:0:0:
174,120,81333,1,0,0:0:0:0:
202,121,81416,1,0,0:0:0:0:
298,77,81500,5,0,0:0:0:0:
282,100,81583,1,0,0:0:0:0:
281,128,81666,1,0,0:0:0:0:
303,170,81750,5,0,0:0:0:0:
319,193,81833,1,0,0:0:0:0:
320,221,81916,1,0,0:0:0:0:
288,258,82000,5,0,0:0:0:0:
273,47,82125,1,0,0:0:0:0:
268,276,82250,1,0,0:0:0:0:
95,110,82375,5,0,0:0:0:0:
110,321,82500,1,0,0:0:0:0:
115,92,82625,1,0,0:0:0:0:
245,365,82750,5,0,0:0:0:0:
260,154,82875,1,0,0:0:0:0:
265,383,83000,1,0,0:0:0:0:
415,45,83125,5,0,0:0:0:0:
400,256,83250,1,0,0:0:0:0:
395,27,83375,1,0,0:0:0:0:
134,220,83500,5,0,0:0:0:0:
149,9,83625,1,0,0:0:0:0:
154,238,83750,1,0,0:0:0:0:
409,148,83875,5,0,0:0:0:0:
394,359,84000,1,0,0:0:0:0:
389,130,84125,1,0,0:0:0:0:
309,371,84250,5,0,0:0:0:0:
341,291,84375,1,0,0:0:0:0:
229,339,84500,1,0,0:0:0:0:
261,259,84625,1,0,0:0:0:0:
309,371,84750,1,0,0:0:0:0:
341,291,84875,1,0,0:0:0:0:
118,186,85000,5,0,0:0:0:0:
329,201,85125,1,0,0:0:0:0:
100,206,85250,1,0,0:0:0:0:
389,34,85375,5,0,0:0:0:0:
178,49,85500,1,0,0:0:0:0:
407,54,85625,1,0,0:0:0:0:
207,324,85750,5,0,0:0:0:0:
418,309,85875,1,0,0:0:0:0:
189,304,86000,1,0,0:0:0:0:
492,130,86125,5,0,0:0:0:0:
281,145,86250,1,0,0:0:0:0:
510,150,86375,1,0,0:0:0:0:
118,353,86500,5,0,0:0:0:0:
329,338,86625,1,0,0:0:0:0:
100,333,86750,1,0,0:0:0:0:
363,140,86875,5,0,0:0:0:0:
152,155,87000,1,0,0:0:0:0:
381,160,87125,1,0,0:0:0:0:
125,52,87250,5,0,0:0:0:0:
134,342,87375,1,0,0:0:0:0:
112,37,87500,1,0,0:0:0:0:
328,369,87625,5,0,0:0:0:0:
319,79,87750,1,0,0:0:0:0:
341,384,87875,1,0,0:0:0:0:
121,191,88000,5,0,0:0:0:0:
205,155,88125,1,0,0:0:0:0:
107,209,88250,2,0,L|-1:202,1,100
355,250,88500,5,0,0:0:0:0:
271,214,88625,1,0,0:0:0:0:
369,268,88750,2,0,L|477:261,1,100
297,357,89000,5,0,0:0:0:0:
339,169,89125,1,0,0:0:0:0:
109,313,89250,5,0,0:0:0:0:
151,125,89375,1,0,0:0:0:0:
307,374,89500,5,0,0:0:0:0:
357,157,89625,1,0,0:0:0:0:
91,325,89750,5,0,0:0:0:0:
140,107,89875,1,0,0:0:0:0:
431,295,90000,5,0,0:0:0:0:
395,379,90125,1,0,0:0:0:0:
449,281,90250,2,0,L|442:173,1,100
284,84,90500,5,0,0:0:0:0:
320,1,90625,1,0,0:0:0:0:
266,99,90750,2,0,L|273:207,1,100
2,218,91000,6,0,B|49:199|49:199|108:208,1,100
353,352,91250,2,0,B|306:371|306:371|247:362,1,100
0,198,91500,6,0,B|47:179|47:179|106:188,1,100
351,332,91750,2,0,B|304:351|304:351|245:342,1,100
233,321,91937,1,0,0:0:0:0:
212,300,92000,5,0,0:0:0:0:
161,384,92125,1,0,0:0:0:0:
194,286,92250,2,0,L|200:186,1,100
60,84,92500,5,0,0:0:0:0:
9,0,92625,1,0,0:0:0:0:
42,98,92750,2,0,L|48:197,1,100
338,56,93000,5,0,0:0:0:0:
150,98,93125,1,0,0:0:0:0:
382,244,93250,5,0,0:0:0:0:
194,286,93375,1,0,0:0:0:0:
350,38,93500,5,0,0:0:0:0:
133,88,93625,1,0,0:0:0:0:
400,255,93750,5,0,0:0:0:0:
182,304,93875,1,0,0:0:0:0:
444,145,94000,5,0,0:0:0:0:
473,43,94125,1,0,0:0:0:0:
468,173,94250,2,0,L|480:301,1,100
453,130,94500,5,0,0:0:0:0:
482,28,94625,1,0,0:0:0:0:
477,158,94750,2,0,L|489:286,1,100
221,169,95000,5,0,0:0:0:0:
184,41,95125,1,0,0:0:0:0:
191,204,95250,2,0,L|177:347,1,100
186,18,95500,5,0,0:0:0:0:
285,259,95625,1,0,0:0:0:0:
355,89,95750,5,0,0:0:0:0:
115,187,95875,1,0,0:0:0:0:
447,18,96000,6,0,P|400:110|419:204,1,200
512,283,96375,2,0,P|395:304|352:382,1,200
204,368,96750,5,0,0:0:0:0:
268,261,96875,1,0,0:0:0:0:
207,152,97000,1,0,0:0:0:0:
211,379,97125,5,0,0:0:0:0:
281,261,97250,1,0,0:0:0:0:
214,141,97375,1,0,0:0:0:0:
31,254,97500,6,0,P|75:270|134:256,1,100
134,119,97750,2,0,P|90:103|31:117,1,100
288,2,98000,6,0,P|257:88|309:176,1,200
512,186,98375,2,0,P|404:211|378:295,1,200
176,292,98750,5,0,0:0:0:0:
283,356,98875,1,0,0:0:0:0:
396,305,99000,1,0,0:0:0:0:
396,305,99062,1,0,0:0:0:0:
396,305,99125,1,0,0:0:0:0:
165,299,99250,5,0,0:0:0:0:
283,369,99375,1,0,0:0:0:0:
4,278,99500,6,0,P|-11:319|5:381,1,100
176,384,99750,2,0,P|192:338|181:290,1,100
111,23,100000,6,0,L|92:241,1,200
0,291,100375,2,0,P|83:256|202:289,1,200
409,287,100750,5,0,0:0:0:0:
302,351,100875,1,0,0:0:0:0:
189,300,101000,1,0,0:0:0:0:
189,300,101062,1,0,0:0:0:0:
189,300,101125,1,0,0:0:0:0:
420,294,101250,5,0,0:0:0:0:
302,364,101375,1,0,0:0:0:0:
502,246,101500,6,0,P|513:315|494:358,1,100
421,197,101750,2,0,P|410:128|429:85,1,100
512,4,102000,6,0,P|445:49|290:31,1,200
184,7,102375,2,0,P|240:64|234:192,1,200
234,373,102750,5,0,0:0:0:0:
170,266,102875,1,0,0:0:0:0:
221,153,103000,1,0,0:0:0:0:
221,153,103062,1,0,0:0:0:0:
221,153,103125,1,0,0:0:0:0:
227,384,103250,5,0,0:0:0:0:
157,266,103375,1,0,0:0:0:0:
419,100,103500,5,0,0:0:0:0:
319,296,103625,1,0,0:0:0:0:
324,88,103750,5,0,0:0:0:0:
414,308,103875,1,0,0:0:0:0:
98,384,104000,6,0,L|113:309,1,50
62,271,104125,1,0,0:0:0:0:
59,250,104250,1,0,0:0:0:0:
56,229,104375,1,0,0:0:0:0:
53,208,104500,1,0,0:0:0:0:
50,187,104625,1,0,0:0:0:0:
184,372,104750,6,0,L|199:297,1,50
148,259,104875,1,0,0:0:0:0:
145,238,105000,1,0,0:0:0:0:
142,217,105125,1,0,0:0:0:0:
139,196,105250,1,0,0:0:0:0:
136,175,105375,1,0,0:0:0:0:
270,360,105500,6,0,L|285:285,1,50
234,247,105625,1,0,0:0:0:0:
231,226,105750,1,0,0:0:0:0:
228,205,105875,1,0,0:0:0:0:
414,0,106000,6,0,L|399:75,1,50
450,113,106125,1,0,0:0:0:0:
453,134,106250,1,0,0:0:0:0:
456,155,106375,1,0,0:0:0:0:
459,176,106500,1,0,0:0:0:0:
462,197,106625,1,0,0:0:0:0:
328,12,106750,6,0,L|313:87,1,50
364,125,106875,1,0,0:0:0:0:
367,146,107000,1,0,0:0:0:0:
370,167,107125,1,0,0:0:0:0:
373,188,107250,1,0,0:0:0:0:
376,209,107375,1,0,0:0:0:0:
242,24,107500,5,0,0:0:0:0:
209,245,107625,1,0,0:0:0:0:
258,19,107750,5,0,0:0:0:0:
225,240,107875,1,0,0:0:0:0:
121,41,108000,6,0,L|136:116,1,50
85,154,108125,1,0,0:0:0:0:
82,175,108250,1,0,0:0:0:0:
79,196,108375,1,0,0:0:0:0:
76,217,108500,1,0,0:0:0:0:
73,238,108625,1,0,0:0:0:0:
240,7,108750,6,0,L|255:82,1,50
204,120,108875,1,0,0:0:0:0:
201,141,109000,1,0,0:0:0:0:
198,162,109125,1,0,0:0:0:0:
195,183,109250,1,0,0:0:0:0:
192,204,109375,1,0,0:0:0:0:
445,171,109500,6,0,L|370:186,1,50
332,135,109625,1,0,0:0:0:0:
311,132,109750,1,0,0:0:0:0:
290,129,109875,1,0,0:0:0:0:
348,378,110000,6,0,L|339:328,1,50
384,264,110125,1,0,0:0:0:0:
387,243,110250,1,0,0:0:0:0:
390,222,110375,1,0,0:0:0:0:
393,201,110500,1,0,0:0:0:0:
396,180,110625,1,0,0:0:0:0:
235,384,110750,6,0,L|226:334,1,50
271,270,110875,1,0,0:0:0:0:
274,249,111000,1,0,0:0:0:0:
277,228,111125,1,0,0:0:0:0:
280,207,111250,1,0,0:0:0:0:
283,186,111375,1,0,0:0:0:0:
32,219,111500,6,0,L|107:204,1,50
145,255,111625,1,0,0:0:0:0:
166,258,111750,1,0,0:0:0:0:
187,261,111875,1,0,0:0:0:0:
254,64,112000,6,0,P|177:135|78:84,1,200
300,0,112375,2,0,L|314:216,1,200
420,348,112750,5,0,0:0:0:0:
512,340,112875,1,0,0:0:0:0:
458,264,113000,1,0,0:0:0:0:
277,280,113125,5,0,0:0:0:0:
368,272,113250,1,0,0:0:0:0:
313,199,113375,1,0,0:0:0:0:
173,368,113500,6,0,P|191:312|172:265,1,100
23,138,113750,2,0,P|5:194|24:241,1,100
262,101,114000,6,0,P|206:180|109:192,1,200
258,0,114375,2,0,P|337:31|353:144,1,200
248,344,114750,1,0,0:0:0:0:
274,221,114875,1,0,0:0:0:0:
512,283,115000,5,0,0:0:0:0:
488,267,115083,1,0,0:0:0:0:
457,271,115166,1,0,0:0:0:0:
438,296,115250,2,0,L|326:298,1,100
95,374,115500,5,0,0:0:0:0:
131,309,115583,1,0,0:0:0:0:
93,245,115666,1,0,0:0:0:0:
57,310,115750,5,0,0:0:0:0:
19,246,115833,1,0,0:0:0:0:
55,181,115916,1,0,0:0:0:0:
17,117,116000,5,0,0:0:0:0:
