osu file format v14

[General]
AudioFilename: Jake Kaufman - Boss Battle.mp3
AudioLeadIn: 0
PreviewTime: 22945
Countdown: 0
SampleSet: Normal
StackLeniency: 0.3
Mode: 0
LetterboxInBreaks: 0
WidescreenStoryboard: 1

[Editor]
DistanceSpacing: 1.2
BeatDivisor: 4
GridSize: 4
TimelineZoom: 1

[Metadata]
Title:Boss Battle
TitleUnicode:Boss Battle
Artist:Jake Kaufman
ArtistUnicode:Jake Kaufman
Creator:Azulae
Version:Second Boss Battle
Source:Shantae and the Pirates Curse
Tags:nintendo fight instrumental electronic game music
BeatmapID:824161
BeatmapSetID:333169

[Difficulty]
HPDrainRate:3.5
CircleSize:3.5
OverallDifficulty:2.5
ApproachRate:5.5
SliderMultiplier:1.2
SliderTickRate:2

[Events]
//Background and Video events
0,0,"BOSS BATTLE.png",0,0
//Break Periods
//Storyboard Layer 0 (Background)
//Storyboard Layer 1 (Fail)
//Storyboard Layer 2 (Pass)
//Storyboard Layer 3 (Foreground)
//Storyboard Sound Samples
Sample,9615,0,"normal-hitclap.wav",65
Sample,15615,0,"normal-hitclap.wav",65
Sample,18342,0,"normal-hitclap.wav",65
Sample,48342,0,"normal-hitclap.wav",65

[TimingPoints]
70,272.727272727273,4,1,1,65,1,0
70,-100,4,1,1,65,0,1
4433,-100,4,1,1,65,0,0
12342,-100,4,1,4,65,0,0
12479,-100,4,1,1,65,0,0
14388,-100,4,1,3,65,0,0
14524,-100,4,1,1,65,0,0
14797,-100,4,1,3,65,0,0
14933,-100,4,1,1,65,0,0
15206,-100,4,1,3,65,0,0
15342,-100,4,1,1,65,0,0
15615,-100,4,1,3,65,0,0
15751,-100,4,1,1,65,0,0
21070,-100,4,1,4,65,0,0
21206,-100,4,1,1,65,0,0
22160,-100,4,1,4,65,0,0
22297,-100,4,1,1,65,0,0
22979,-100,4,1,1,65,0,1
24342,-100,4,1,4,65,0,1
24479,-100,4,1,1,65,0,1
26251,-100,4,1,1,65,0,0
40706,-100,4,1,4,65,0,0
40842,-100,4,1,1,65,0,0
42888,-100,4,1,4,65,0,0
43024,-100,4,1,1,65,0,0
45070,-100,4,1,4,65,0,0
45206,-100,4,1,1,65,0,0
47251,-100,4,1,4,65,0,0
47388,-100,4,1,1,65,0,0
64433,-100,4,1,2,75,0,1
66888,-100,4,1,4,75,0,1
67024,-100,4,1,2,75,0,1
70160,-100,4,1,4,75,0,1
70297,-100,4,1,2,75,0,1
73433,-100,4,1,4,75,0,1
73570,-100,4,1,2,75,0,1
76979,-100,4,1,3,75,0,1
77115,-100,4,1,2,75,0,1
77524,-100,4,1,2,75,0,0
77592,-100,4,2,0,30,0,0

[Colours]
Combo1 : 0,0,138
Combo2 : 0,191,191
Combo3 : 0,64,128
Combo4 : 60,55,115

[HitObjects]
320,192,70,6,2,P|256:139|192:192,1,180,6|6,0:0|0:0,0:0:0:0:
342,93,888,2,2,P|256:63|170:93,1,180,6|6,0:0|0:0,0:0:0:0:
320,192,1706,2,2,P|336:257|376:295,1,120,6|6,0:0|0:0,0:0:0:0:
438,194,2251,2,2,P|417:122|326:72,1,180,6|6,0:0|0:0,0:0:0:0:
192,192,3070,2,2,P|256:245|320:192,1,180,6|6,0:0|0:0,0:0:0:0:
159,281,3888,2,2,P|129:245|116:170,1,120,6|6,0:0|0:0,0:0:0:0:
159,68,4433,6,0,L|280:76,1,120,4|0,0:0|0:0,0:0:0:0:
398,56,4979,1,0,0:0:0:0:
354,168,5251,1,0,0:0:0:0:
235,185,5524,2,0,L|114:177,1,120
168,284,6070,2,0,P|226:306|292:291,1,120
351,198,6615,2,0,P|343:136|300:84,1,120
189,79,7160,2,0,P|139:115|116:179,1,120,0|0,0:0|0:0,0:0:0:0:
235,185,7706,6,0,L|282:297,1,120,4|8,0:0|0:0,0:0:0:0:
304,351,8115,2,0,P|390:321|476:351,1,180,0|8,0:0|0:0,0:0:0:0:
471,227,8797,2,0,L|424:115,1,120,0|8,0:0|0:0,0:0:0:0:
402,61,9206,2,0,P|346:43|290:61,1,120
256,192,9751,12,0,10979,0:0:0:0:
289,61,12070,6,0,P|345:119|402:62,2,180,4|0|8,0:0|0:0|0:0,0:0:0:0:
184,116,13160,2,0,P|216:174|281:217,1,120,4|8,0:0|0:0,0:0:0:0:
303,247,13570,2,0,P|236:245|167:280,1,120
130,284,13979,1,12,0:0:0:0:
45,199,14251,6,0,L|80:84,1,120,0|12,0:0|0:0,0:0:0:0:
96,26,14660,2,0,L|178:113,1,120,0|4,0:0|0:0,0:0:0:0:
217,156,15070,2,0,L|182:271,1,120,8|4,0:0|0:0,0:0:0:0:
164,328,15479,2,0,L|81:240,1,120
45,199,15888,1,4,0:0:0:0:
79,84,16160,1,8,0:0:0:0:
161,170,16433,6,0,P|191:119|193:54,1,120,4|8,0:0|0:0,0:0:0:0:
252,75,16842,2,0,P|303:105|368:107,1,120
331,159,17251,2,0,L|301:210,1,60,8|0,0:0|0:0,0:0:0:0:
270,262,17524,2,0,P|210:258|159:228,1,120,0|8,0:0|0:0,0:0:0:0:
161,170,17933,2,0,P|164:110|194:59,1,120
256,192,18479,12,0,19706,0:0:0:0:
194,59,20524,5,8,0:0:0:0:
153,172,20797,2,0,P|233:173|304:106,2,180,4|4|8,0:0|0:0|0:0,0:0:0:0:
75,79,21888,2,0,P|34:147|56:242,2,180,4|4|12,0:0|0:0|0:0,0:0:0:0:
194,59,22979,6,0,P|236:100|304:100,1,120,6|8,0:0|0:0,0:0:0:0:
361,133,23388,2,0,P|319:175|316:233,1,120,6|0,0:0|0:0,0:0:0:0:
287,300,23797,2,0,P|244:258|186:255,1,120,14|0,0:0|0:0,0:0:0:0:
120,226,24206,2,0,P|161:183|164:125,1,120,6|0,0:0|0:0,0:0:0:0:
194,59,24615,1,6,0:0:0:0:
338,69,24888,1,14,0:0:0:0:
257,188,25160,6,0,L|352:268,1,120,6|8,0:0|0:0,0:0:0:0:
405,312,25570,2,0,L|288:354,1,120,6|0,0:0|0:0,0:0:0:0:
223,378,25979,2,0,L|244:255,1,120,14|6,0:0|0:0,0:0:0:0:
257,188,27342,6,0,P|321:135|385:188,1,180,12|8,0:0|0:0,0:0:0:0:
235,89,28160,2,0,P|321:59|407:89,1,180,12|8,0:0|0:0,0:0:0:0:
257,188,28979,2,0,P|241:253|201:291,1,120,12|8,0:0|0:0,0:0:0:0:
139,190,29524,2,0,P|160:118|251:68,1,180,12|8,0:0|0:0,0:0:0:0:
385,188,30342,2,0,P|321:318|257:188,1,360,12|0,0:0|0:0,0:0:0:0:
85,130,31706,6,0,P|153:166|164:90,1,180,4|4,0:0|0:0,0:0:0:0:
53,232,32524,2,0,P|126:259|230:217,2,180,4|4|4,0:0|0:0|0:0,0:0:0:0:
256,104,33888,6,0,P|313:140|344:248,1,180,4|4,0:0|0:0,0:0:0:0:
344,63,34706,2,0,P|399:129|424:234,2,180,4|4|4,0:0|0:0|0:0,0:0:0:0:
139,191,36070,6,0,P|216:202|180:270,1,180,4|4,0:0|0:0,0:0:0:0:
277,135,36888,2,0,P|309:217|283:305,2,180,4|4|4,0:0|0:0|0:0,0:0:0:0:
56,228,38251,6,0,B|104:194|104:194|117:135|117:135|167:102,1,180,4|4,0:0|0:0,0:0:0:0:
167,282,39070,2,0,B|224:296|224:296|277:265|277:265|335:280,2,180,4|4|0,0:0|0:0|0:0,0:0:0:0:
344,102,40433,6,0,P|276:96|232:188,1,180,4|0,0:0|0:0,0:0:0:0:
388,278,41251,2,0,P|308:250|305:166,1,180,8|0,0:0|0:0,0:0:0:0:
364,177,41797,2,0,P|420:91|326:26,1,240,8|12,0:0|0:0,0:0:0:0:
206,25,42615,6,0,B|257:104|257:104|359:102,1,180,4|0,0:0|0:0,0:0:0:0:
164,110,43433,2,0,B|219:182|219:182|315:180,1,180,8|0,0:0|0:0,0:0:0:0:
368,178,43979,1,8,0:0:0:0:
128,182,44524,1,12,0:0:0:0:
223,255,44797,6,0,P|217:323|309:367,1,180,4|0,0:0|0:0,0:0:0:0:
399,210,45615,2,0,P|371:290|287:293,1,180,8|0,0:0|0:0,0:0:0:0:
297,233,46160,2,0,P|211:177|145:271,1,240,8|12,0:0|0:0,0:0:0:0:
24,270,46979,6,0,P|42:167|92:96,1,180,4|4,0:0|0:0,0:0:0:0:
262,105,47797,2,4,P|308:181|320:269,1,180,12|4,0:0|0:0,0:0:0:0:
171,368,48615,1,0,0:0:0:0:
171,128,49160,6,0,P|181:59|281:12,1,180,4|0,0:0|0:0,0:0:0:0:
415,120,49979,2,0,P|335:151|262:105,1,180
85,138,50797,2,0,P|128:204|228:194,1,180
256,192,51615,12,4,53524,0:0:0:0:
85,138,54342,6,0,P|153:158|161:62,1,180
113,241,55160,2,0,P|173:236|236:193,1,120
265,93,55706,2,0,P|315:129|344:203,1,120
256,192,56115,12,4,57888,0:0:0:0:
340,180,58706,6,0,P|272:160|264:256,1,180
312,77,59524,2,0,P|252:82|189:125,1,120
80,111,60070,2,0,L|52:288,1,180
228,288,60888,2,0,L|201:111,1,180
380,110,61706,2,0,L|361:228,1,120
342,347,62251,5,6,0:0:0:0:
220,211,62660,1,6,0:0:0:0:
42,249,63070,1,6,0:0:0:0:
164,384,63479,1,6,0:0:0:0:
342,347,63888,2,2,L|354:271,1,60,6|6,0:0|0:0,0:0:0:0:
380,110,64433,6,0,L|261:91,1,120,4|10,0:0|0:0,0:0:0:0:
238,233,64979,2,0,L|219:352,1,120,2|8,0:0|0:0,0:0:0:0:
162,305,65388,2,0,L|68:229,1,120,2|0,0:0|0:0,0:0:0:0:
136,203,65797,2,0,L|248:159,1,120,10|0,0:0|0:0,0:0:0:0:
381,106,66342,1,10,0:0:0:0:
360,247,66615,2,0,P|292:296|196:293,2,180,2|2|10,0:0|0:0|0:0,0:0:0:0:
248,159,67706,5,4,0:0:0:0:
381,106,67979,1,10,0:0:0:0:
268,17,68251,2,0,P|216:48|156:48,1,120,2|8,0:0|0:0,0:0:0:0:
129,115,68660,2,0,P|181:144|211:196,1,120,2|0,0:0|0:0,0:0:0:0:
284,187,69070,2,0,P|283:126|313:74,1,120,10|0,0:0|0:0,0:0:0:0:
428,162,69615,1,10,0:0:0:0:
410,305,69888,2,0,P|329:359|245:354,2,180,2|2|10,0:0|0:0|0:0,0:0:0:0:
295,217,70979,6,0,L|251:104,1,120,4|10,0:0|0:0,0:0:0:0:
116,154,71524,2,0,L|3:197,1,120,2|8,0:0|0:0,0:0:0:0:
16,124,71933,2,0,L|34:4,1,120,2|0,0:0|0:0,0:0:0:0:
91,51,72343,2,0,L|185:125,1,120,10|0,0:0|0:0,0:0:0:0:
298,214,72888,1,10,0:0:0:0:
165,266,73161,2,0,P|88:231|43:146,2,180,2|2|10,0:0|0:0|0:0,0:0:0:0:
298,214,74251,5,4,0:0:0:0:
185,125,74524,1,10,0:0:0:0:
319,72,74797,2,0,B|378:75|378:75|411:125,1,120,2|8,0:0|0:0,0:0:0:0:
450,186,75206,2,0,B|417:235|417:235|357:239,1,120,2|0,0:0|0:0,0:0:0:0:
285,242,75615,2,0,B|258:188|258:188|284:135,1,120,10|0,0:0|0:0,0:0:0:0:
203,14,76160,1,10,0:0:0:0:
139,143,76433,2,0,P|104:236|110:248,1,120,2|8,0:0|0:0,0:0:0:0:
157,300,76842,2,0,P|255:283|262:272,1,120,2|0,0:0|0:0,0:0:0:0:
284,206,77251,2,0,P|220:129|207:128,1,120,10|4,0:0|0:0,0:0:0:0:
256,192,77592,12,0,78615,0:0:0:0:
