osu file format v14

[General]
AudioFilename: frostbite.mp3
AudioLeadIn: 0
PreviewTime: 83345
Countdown: 0
SampleSet: Normal
StackLeniency: 0.7
Mode: 0
LetterboxInBreaks: 0
WidescreenStoryboard: 0

[Editor]
Bookmarks: 55907,98774,143657,165621
DistanceSpacing: 1.2
BeatDivisor: 4
GridSize: 4
TimelineZoom: 1

[Metadata]
Title:Arctic Justice (Frostbite Island)
TitleUnicode:Arctic Justice (Frostbite Island)
Artist:Jake Kaufman
ArtistUnicode:Jake Kaufman
Creator:Pereira006
Version:Normal
Source:Shantae and the Pirate's Curse
Tags:WayForward Nintendo 3DS Wii U PC yuii-
BeatmapID:818377
BeatmapSetID:373347

[Difficulty]
HPDrainRate:3
CircleSize:3.5
OverallDifficulty:3
ApproachRate:4
SliderMultiplier:1.3
SliderTickRate:1

[Events]
//Background and Video events
0,0,"bg.jpg",0,0
//Break Periods
//Storyboard Layer 0 (Background)
//Storyboard Layer 1 (Fail)
//Storyboard Layer 2 (Pass)
//Storyboard Layer 3 (Foreground)
//Storyboard Sound Samples

[TimingPoints]
1060,428.571428571429,4,1,0,40,1,0
14774,-100,4,2,0,50,0,0
42202,-100,4,1,0,50,0,0
83345,-100,4,1,0,50,0,1
96952,-100,4,1,0,50,0,0
97060,-100,4,1,0,50,0,1
110774,-100,4,1,0,50,0,0
124488,-100,4,2,0,50,0,0
151917,-100,4,1,0,50,0,0
193060,-100,4,1,0,50,0,1
206667,-100,4,1,0,50,0,0
206774,-100,4,1,0,50,0,1
220488,-100,4,1,0,50,0,0

[Colours]
Combo1 : 0,0,230
Combo2 : 0,213,0
Combo3 : 176,88,0

[HitObjects]
48,72,1060,6,0,P|112:72|168:104,1,130,0|8,0:0|0:0,0:0:0:0:
204,172,1702,1,0,0:0:0:0:
248,236,1917,2,0,P|303:267|368:268,1,130,2|8,2:0|0:0,0:0:0:0:
504,192,2774,2,0,P|480:132|428:96,1,130,2|8,2:0|0:0,0:0:0:0:
368,148,3417,1,0,0:0:0:0:
308,96,3631,2,0,P|255:132|231:192,1,130,2|8,2:0|0:0,0:0:0:0:
256,340,4488,6,0,P|192:344|132:320,1,130,2|8,2:0|0:0,0:0:0:0:
64,284,5131,1,0,0:0:0:0:
36,212,5345,2,0,P|32:148|56:88,1,130,2|8,2:0|0:0,0:0:0:0:
204,144,6202,2,0,P|228:124|240:92,1,65,2|0,2:0|0:0,0:0:0:0:
272,24,6631,2,0,P|304:20|336:24,1,65,8|0,0:0|0:0,0:0:0:0:
412,48,7060,2,0,P|436:72|440:104,1,65,2|0,2:0|0:0,0:0:0:0:
440,176,7488,1,8,0:0:0:0:
340,296,7917,6,0,P|308:352|248:368,1,130,4|8,2:0|0:0,0:0:0:0:
184,324,8560,1,0,0:0:0:0:
120,367,8774,2,0,P|59:351|28:296,1,130,2|8,2:0|0:0,0:0:0:0:
68,144,9631,2,0,P|128:120|192:128,1,130,2|8,2:0|0:0,0:0:0:0:
224,200,10274,1,0,0:0:0:0:
264,268,10488,2,0,P|327:275|387:251,1,130,2|8,2:0|0:0,0:0:0:0:
488,132,11345,6,0,P|448:80|388:64,1,130,2|8,2:0|0:0,0:0:0:0:
324,112,11988,1,0,0:0:0:0:
260,68,12202,2,0,P|198:85|159:135,1,130,2|8,2:0|0:0,0:0:0:0:
144,292,13060,2,0,P|80:276|36:228,2,130,2|2|8,2:0|2:0|0:0,0:0:0:0:
388,100,14774,6,0,P|432:148|440:212,1,130,4|2,2:0|0:0,0:0:0:0:
412,364,15631,2,0,P|352:372|316:348,2,97.5,8|0|0,1:0|0:0|0:0,0:0:0:0:
372,296,16488,2,0,P|292:200|168:232,1,260,2|8,0:0|1:0,0:0:0:0:
64,336,17774,1,2,0:0:0:0:
84,180,18202,6,0,P|132:132|196:124,1,130,2|2,0:0|0:0,0:0:0:0:
320,204,19060,2,0,P|376:184|408:160,2,97.5,8|0|0,1:0|0:0|0:0,0:0:0:0:
260,156,19917,2,0,P|184:216|264:332,1,260,2|8,0:0|1:0,0:0:0:0:
416,328,21202,1,2,0:0:0:0:
492,192,21631,6,0,P|476:128|428:88,1,130,2|2,0:0|0:0,0:0:0:0:
276,56,22488,2,0,P|224:40|180:40,2,97.5,8|0|0,1:0|0:0|0:0,0:0:0:0:
340,100,23345,2,0,P|376:156|360:216,1,130,2|2,0:0|0:0,0:0:0:0:
304,268,23988,2,0,P|212:300|120:276,1,195,0|2,0:0|0:0,0:0:0:0:
136,120,25060,6,0,P|192:100|236:100,2,97.5,2|0|0,0:0|0:0|0:0,0:0:0:0:
84,180,25917,2,0,P|68:244|92:300,1,130,8|2,1:0|0:0,0:0:0:0:
236,364,26774,2,0,P|288:368|336:344,2,97.5,2|0|0,0:0|0:0|0:0,0:0:0:0:
184,304,27631,2,0,P|156:244|164:180,1,130,8|2,1:0|0:0,0:0:0:0:
260,60,28488,6,0,P|320:76|372:124,1,130,4|2,2:0|0:0,0:0:0:0:
428,268,29345,2,0,P|412:320|368:348,2,97.5,8|0|0,1:0|0:0|0:0,0:0:0:0:
348,268,30202,2,0,P|264:200|144:272,1,260,2|8,0:0|1:0,0:0:0:0:
20,360,31488,1,2,0:0:0:0:
28,204,31917,6,0,P|64:148|120:116,1,130,2|2,0:0|0:0,0:0:0:0:
272,124,32774,2,0,P|336:152|368:208,1,130,8|2,1:0|0:0,0:0:0:0:
324,268,33417,1,0,0:0:0:0:
342,345,33631,2,0,P|385:317|402:270,2,97.5,2|0|0,0:0|0:0|0:0,0:0:0:0:
269,323,34488,2,0,P|245:267|289:203,1,130,8|2,1:0|0:0,0:0:0:0:
316,52,35345,6,0,P|226:21|135:53,1,195,2|0,0:0|0:0,0:0:0:0:
112,129,36202,2,0,P|69:96|59:45,2,97.5,8|0|0,1:0|0:0|0:0,0:0:0:0:
192,144,37060,2,0,P|220:208|212:272,1,130,2|2,0:0|0:0,0:0:0:0:
228,344,37702,2,0,P|336:352|408:308,1,195,0|2,0:0|0:0,0:0:0:0:
448,156,38774,6,0,P|404:108|340:100,1,130,2|2,0:0|0:0,0:0:0:0:
256,228,39631,1,8,1:0:0:0:
169,99,40060,2,0,P|106:108|64:156,1,130,2|2,0:0|0:0,0:0:0:0:
64,232,40702,2,0,P|144:320|344:320,1,325
464,228,42202,6,0,P|464:160|432:108,1,130,4|8,2:0|0:0,0:0:0:0:
356,100,42845,1,0,0:0:0:0:
304,40,43060,2,0,P|240:28|176:40,1,130,2|8,2:0|0:0,0:0:0:0:
128,188,43917,2,0,P|196:208|252:192,1,130,2|8,2:0|0:0,0:0:0:0:
320,152,44560,1,0,0:0:0:0:
392,184,44774,2,0,P|408:248|384:304,1,130,2|8,2:0|0:0,0:0:0:0:
232,344,45631,6,0,P|168:344|112:312,1,130,2|8,2:0|0:0,0:0:0:0:
80,240,46274,1,0,0:0:0:0:
16,192,46488,2,0,P|12:124|48:76,1,130,2|8,2:0|0:0,0:0:0:0:
204,72,47345,2,0,P|240:68|264:52,1,65,2|0,2:0|0:0,0:0:0:0:
340,32,47774,2,0,P|376:32|404:48,1,65,8|0,0:0|0:0,0:0:0:0:
464,92,48202,2,0,P|480:120|476:156,1,65,2|0,2:0|0:0,0:0:0:0:
468,228,48631,1,8,0:0:0:0:
364,344,49060,6,0,P|304:369|238:365,1,130,4|8,2:0|0:0,0:0:0:0:
168,336,49702,1,0,0:0:0:0:
152,260,49917,2,0,P|213:236|274:249,1,130,2|8,2:0|0:0,0:0:0:0:
320,100,50774,2,0,P|268:60|204:60,1,130,2|8,2:0|0:0,0:0:0:0:
132,68,51417,1,0,0:0:0:0:
64,108,51631,2,0,P|60:172|80:236,1,130,2|8,2:0|0:0,0:0:0:0:
196,336,52488,6,0,P|260:352|320:336,1,130,0|8,2:0|0:0,0:0:0:0:
352,264,53131,1,0,0:0:0:0:
348,188,53345,2,0,P|293:153|229:149,1,130,0|8,2:0|0:0,0:0:0:0:
76,176,54202,2,0,P|28:224|12:288,2,130,2|0|8,2:0|0:0|0:0,0:0:0:0:
229,148,55488,1,8,0:0:0:0:
380,96,55917,6,0,P|328:56|264:40,1,130,4|8,2:0|0:0,0:0:0:0:
112,64,56774,2,0,P|64:88|44:128,2,97.5,2|0|0,2:0|0:0|0:0,0:0:0:0:
120,140,57631,2,0,P|156:232|304:272,1,260,2|2,2:0|2:0,0:0:0:0:
340,120,58917,1,8,0:0:0:0:
496,100,59345,6,0,P|496:164|460:220,1,130,2|8,2:0|0:0,0:0:0:0:
320,284,60202,2,0,P|272:296|224:288,2,97.5,2|0|0,2:0|0:0|0:0,0:0:0:0:
340,208,61060,2,0,P|336:76|232:68,1,260,2|2,2:0|2:0,0:0:0:0:
96,144,62345,1,8,0:0:0:0:
32,288,62774,6,0,P|68:344|128:356,1,130,2|8,2:0|0:0,0:0:0:0:
264,280,63631,2,0,P|308:272|360:276,2,97.5,2|0|0,2:0|0:0|0:0,0:0:0:0:
192,308,64488,2,0,P|148:256|144:196,1,130,2|8,2:0|0:0,0:0:0:0:
148,120,65131,2,0,P|208:60|320:48,1,195,0|8,0:0|0:0,0:0:0:0:
456,112,66202,6,0,P|476:64|466:20,2,97.5,2|0|0,2:0|0:0|2:0,0:0:0:0:
380,132,67060,2,0,P|324:156|312:220,1,130,2|8,2:0|0:0,0:0:0:0:
392,352,67917,2,0,P|438:353|481:331,2,97.5,2|0|0,2:0|0:0|2:0,0:0:0:0:
320,320,68774,2,0,P|268:292|200:304,1,130,2|8,2:0|0:0,0:0:0:0:
44,348,69631,6,0,P|16:289|36:230,1,130,4|8,2:0|0:0,0:0:0:0:
156,124,70488,2,0,P|112:88|72:80,2,97.5,2|0|0,2:0|0:0|0:0,0:0:0:0:
164,204,71345,2,0,P|296:192|288:92,1,260,2|2,2:0|2:0,0:0:0:0:
144,36,72631,1,8,0:0:0:0:
4,108,73060,6,0,P|4:172|48:216,1,130,2|8,2:0|0:0,0:0:0:0:
192,156,73917,2,0,P|236:200|236:264,1,130,2|8,2:0|0:0,0:0:0:0:
248,340,74560,1,0,0:0:0:0:
324,360,74774,2,0,P|372:364|416:336,2,97.5,2|0|0,2:0|0:0|0:0,0:0:0:0:
356,288,75631,2,0,P|368:224|336:168,1,130,2|8,2:0|0:0,0:0:0:0:
224,64,76488,6,0,P|160:60|96:88,1,130,2|8,2:0|0:0,0:0:0:0:
88,164,77131,1,0,0:0:0:0:
72,240,77345,2,0,P|28:216|12:160,2,97.5,2|0|0,2:0|0:0|0:0,0:0:0:0:
148,224,78202,2,0,P|204:256|216:316,1,130,2|8,2:0|0:0,0:0:0:0:
288,344,78845,2,0,P|384:320|396:236,1,195,0|8,0:0|0:0,0:0:0:0:
396,80,79917,6,0,P|340:112|340:172,1,130,2|8,2:0|0:0,0:0:0:0:
256,304,80774,1,2,2:0:0:0:
108,356,81202,1,8,0:0:0:0:
8,236,81631,2,0,P|28:152|120:92,1,195,8|0,0:0|0:0,0:0:0:0:
192,76,82488,1,8,0:0:0:0:
348,84,82917,1,8,0:0:0:0:
480,164,83345,6,0,P|480:232|448:288,1,130,4|8,0:0|0:0,0:0:0:0:
372,288,83988,1,0,0:0:0:0:
308,332,84202,2,0,P|244:340|180:320,1,130,2|8,2:0|0:0,0:0:0:0:
128,264,84845,1,0,0:0:0:0:
96,192,85060,1,2,2:0:0:0:
104,116,85274,1,0,0:0:0:0:
156,60,85488,2,0,P|288:56|352:156,1,260,8|8,0:0|0:0,0:0:0:0:
264,280,86774,5,2,2:0:0:0:
324,328,86988,1,0,0:0:0:0:
400,320,87202,2,0,P|488:248|444:124,1,260,8|8,0:0|0:0,0:0:0:0:
308,48,88488,2,0,P|272:40|240:40,1,65,2|0,2:0|0:0,0:0:0:0:
168,52,88917,2,0,P|128:60|100:76,1,65,8|0,0:0|0:0,0:0:0:0:
68,136,89345,2,0,P|56:168|56:204,1,65,2|0,2:0|0:0,0:0:0:0:
60,276,89774,1,8,0:0:0:0:
216,276,90202,6,0,P|224:224|208:184,2,97.5,2|0|0,2:0|0:0|0:0,0:0:0:0:
272,332,91060,2,0,P|336:348|396:324,1,130,2|8,2:0|0:0,0:0:0:0:
420,252,91702,1,0,0:0:0:0:
468,188,91917,2,0,P|476:136|460:96,2,97.5,2|0|0,2:0|0:0|0:0,0:0:0:0:
400,148,92774,2,0,P|336:128|296:80,1,130,2|8,2:0|0:0,0:0:0:0:
144,52,93631,6,0,P|52:92|16:184,2,195,2|0|8,2:0|0:0|0:0,0:0:0:0:
240,176,95345,2,0,P|232:216|232:248,1,65,2|0,2:0|0:0,0:0:0:0:
304,268,95774,2,0,P|336:272|368:288,1,65,8|0,0:0|0:0,0:0:0:0:
432,328,96202,2,0,P|460:308|476:280,1,65,2|0,2:0|0:0,0:0:0:0:
460,204,96631,1,8,0:0:0:0:
424,52,97060,6,0,P|360:40|308:72,1,130,4|8,0:0|0:0,0:0:0:0:
256,132,97702,1,0,0:0:0:0:
205,72,97917,2,0,P|150:38|88:51,1,130,2|8,2:0|0:0,0:0:0:0:
36,108,98560,1,0,0:0:0:0:
24,184,98774,1,2,2:0:0:0:
40,260,98988,1,0,0:0:0:0:
84,324,99202,2,0,P|204:336|296:244,1,260,8|8,0:0|0:0,0:0:0:0:
248,96,100488,5,2,2:0:0:0:
304,40,100702,1,0,0:0:0:0:
384,40,100917,2,0,P|460:108|464:260,1,260,8|8,0:0|0:0,0:0:0:0:
332,340,102202,2,0,P|292:352|264:352,1,65,2|0,2:0|0:0,0:0:0:0:
208,300,102631,2,0,P|176:300|144:308,1,65,8|0,0:0|0:0,0:0:0:0:
72,336,103060,2,0,P|48:312|40:280,1,65,2|0,2:0|0:0,0:0:0:0:
52,204,103488,1,8,0:0:0:0:
140,76,103917,6,0,P|92:48|52:44,2,97.5,2|0|0,2:0|0:0|0:0,0:0:0:0:
172,148,104774,2,0,P|232:176|288:152,1,130,2|8,2:0|0:0,0:0:0:0:
340,96,105417,1,0,0:0:0:0:
408,60,105631,2,0,P|452:56|500:80,2,97.5,2|0|0,2:0|0:0|0:0,0:0:0:0:
440,132,106488,1,2,2:0:0:0:
408,284,106917,1,8,0:0:0:0:
256,192,107345,12,2,109917,2:0:0:0:
456,52,110774,6,0,P|392:52|344:96,1,130,4|8,2:0|1:0,0:0:0:0:
372,168,111417,1,0,0:0:0:0:
400,240,111631,2,0,P|400:304|352:348,1,130,2|8,2:0|1:0,0:0:0:0:
200,340,112488,2,0,P|200:276|248:232,1,130,2|8,2:0|1:0,0:0:0:0:
304,180,113131,1,0,0:0:0:0:
264,116,113345,2,0,P|208:76|148:72,1,130,2|8,2:0|0:0,0:0:0:0:
4,136,114202,6,0,P|-12:200|4:264,1,130,2|8,2:0|0:0,0:0:0:0:
48,324,114845,1,0,0:0:0:0:
116,360,115060,2,0,P|180:376|240:360,1,130,2|8,2:0|0:0,0:0:0:0:
272,208,115917,2,0,P|304:224|324:244,1,65,2|0,2:0|0:0,0:0:0:0:
356,316,116345,2,0,P|392:324|428:308,1,65,8|0,0:0|0:0,0:0:0:0:
468,256,116774,2,0,P|484:224|488:196,1,65,2|0,2:0|0:0,0:0:0:0:
472,120,117202,1,8,0:0:0:0:
324,80,117631,6,0,P|264:56|200:56,1,130,4|8,2:0|0:0,0:0:0:0:
124,80,118274,1,0,0:0:0:0:
60,124,118488,2,0,P|32:184|52:244,1,130,2|8,2:0|0:0,0:0:0:0:
176,336,119345,2,0,P|212:280|200:220,1,130,2|8,2:0|0:0,0:0:0:0:
180,144,119988,1,0,0:0:0:0:
196,68,120202,2,0,P|253:44|328:48,1,130,2|8,2:0|0:0,0:0:0:0:
312,200,121060,6,0,P|296:264|320:320,1,130,2|8,2:0|0:0,0:0:0:0:
392,348,121702,1,0,0:0:0:0:
464,316,121917,2,0,P|480:252|456:196,1,130,2|8,2:0|0:0,0:0:0:0:
380,60,122774,2,0,P|316:28|260:32,2,130,2|2|8,2:0|2:0|0:0,0:0:0:0:
268,360,124488,6,0,P|204:360|152:324,1,130,4|2,2:0|0:0,0:0:0:0:
76,188,125345,2,0,P|28:208|4:248,2,97.5,8|0|0,1:0|1:0|0:0,0:0:0:0:
80,268,126202,2,0,P|180:240|180:100,1,260,2|8,0:0|1:0,0:0:0:0:
40,40,127488,1,2,0:0:0:0:
196,24,127917,6,0,P|260:24|324:48,1,130,2|2,0:0|0:0,0:0:0:0:
432,156,128774,2,0,P|476:128|492:88,2,97.5,8|0|0,1:0|0:0|0:0,0:0:0:0:
352,160,129631,2,0,P|240:184|188:308,1,260,2|8,0:0|1:0,0:0:0:0:
336,360,130917,1,2,0:0:0:0:
472,280,131345,6,0,P|496:216|472:160,1,130,2|2,0:0|0:0,0:0:0:0:
316,152,132202,2,0,P|264:156|220:140,2,97.5,8|0|0,1:0|0:0|0:0,0:0:0:0:
364,92,133060,2,0,P|320:44|256:36,1,130,2|2,0:0|0:0,0:0:0:0:
180,48,133702,2,0,P|96:100|92:188,1,195,0|2,0:0|0:0,0:0:0:0:
152,332,134774,6,0,P|108:344|56:336,2,97.5,2|0|0,0:0|0:0|0:0,0:0:0:0:
228,352,135631,2,0,P|288:324|300:252,1,130,8|2,0:0|0:0,0:0:0:0:
192,156,136488,2,0,P|148:180|120:224,2,97.5,2|0|0,0:0|0:0|0:0,0:0:0:0:
268,144,137345,2,0,P|332:128|360:72,1,130,8|2,1:0|0:0,0:0:0:0:
492,160,138202,6,0,P|478:220|419:242,1,130,2|2,0:0|0:0,0:0:0:0:
268,280,139060,2,0,P|292:324|336:336,2,97.5,8|0|0,1:0|0:0|0:0,0:0:0:0:
292,200,139917,2,0,P|252:112|100:88,1,260,2|8,0:0|1:0,0:0:0:0:
8,208,141202,1,2,0:0:0:0:
100,336,141631,6,0,P|144:284|152:224,1,130,2|2,0:0|0:0,0:0:0:0:
308,228,142488,2,0,P|317:291|360:339,1,130,8|2,1:0|0:0,0:0:0:0:
436,324,143131,1,0,0:0:0:0:
492,268,143345,2,0,P|508:224|496:172,2,97.5,2|0|0,0:0|0:0|0:0,0:0:0:0:
428,216,144202,2,0,P|396:164|396:96,1,130,8|2,1:0|0:0,0:0:0:0:
255,31,145060,6,0,P|163:31|119:113,1,195,2|0,0:0|0:0,0:0:0:0:
144,188,145917,2,0,P|88:188|56:160,2,97.5,8|0|0,1:0|0:0|0:0,0:0:0:0:
208,140,146774,2,0,P|260:180|272:240,1,130,2|2,0:0|0:0,0:0:0:0:
232,308,147417,2,0,P|160:320|52:272,1,195,0|2,0:0|0:0,0:0:0:0:
56,116,148488,6,0,P|108:76|172:80,1,130,2|2,0:0|0:0,0:0:0:0:
248,216,149345,1,8,1:0:0:0:
360,324,149774,2,0,P|423:326|473:287,1,130,2|2,0:0|0:0,0:0:0:0:
500,212,150417,2,0,P|464:88|292:92,1,325,0|2,0:0|0:0,0:0:0:0:
300,248,151917,6,0,P|272:308|212:312,1,130,4|8,2:0|0:0,0:0:0:0:
152,268,152560,1,0,0:0:0:0:
92,316,152774,2,0,P|30:308|6:250,1,130,2|8,2:0|0:0,0:0:0:0:
36,96,153631,2,0,P|96:68|156:80,1,130,2|8,2:0|0:0,0:0:0:0:
204,144,154274,1,0,0:0:0:0:
228,220,154488,2,0,P|252:284|308:308,1,130,2|8,2:0|0:0,0:0:0:0:
444,240,155345,6,0,P|476:184|452:128,1,130,2|8,2:0|0:0,0:0:0:0:
376,112,155988,1,0,0:0:0:0:
332,48,156202,2,0,P|268:40|212:72,1,130,2|8,2:0|0:0,0:0:0:0:
252,224,157060,2,0,P|256:260|248:288,1,65,2|0,2:0|0:0,0:0:0:0:
192,344,157488,2,0,P|164:360|132:360,1,65,8|0,0:0|0:0,0:0:0:0:
56,348,157917,2,0,P|24:332|8:304,1,65,2|0,2:0|0:0,0:0:0:0:
16,232,158345,1,8,0:0:0:0:
48,80,158774,6,0,P|94:31|152:19,1,130,2|8,2:0|0:0,0:0:0:0:
205,76,159417,1,0,0:0:0:0:
282,83,159631,2,0,P|310:139|299:202,1,130,2|8,2:0|0:0,0:0:0:0:
236,344,160488,2,0,P|300:360|360:340,1,130,2|8,2:0|0:0,0:0:0:0:
396,272,161131,1,0,0:0:0:0:
428,200,161345,2,0,P|440:140|400:84,1,130,2|8,2:0|0:0,0:0:0:0:
268,160,162202,6,0,P|248:224|196:256,1,130,2|8,2:0|0:0,0:0:0:0:
120,248,162845,1,0,0:0:0:0:
52,208,163060,2,0,P|40:144|72:92,1,130,2|8,2:0|0:0,0:0:0:0:
224,60,163917,2,0,P|296:52|352:68,2,130,2|0|8,2:0|0:0|0:0,0:0:0:0:
156,200,165202,1,8,0:0:0:0:
220,344,165631,6,0,P|288:360|352:348,1,130,4|8,2:0|0:0,0:0:0:0:
432,220,166488,2,0,P|464:176|464:132,2,97.5,2|0|0,2:0|0:0|0:0,0:0:0:0:
356,240,167345,2,0,P|312:152|176:64,1,260,2|2,2:0|2:0,0:0:0:0:
28,100,168631,1,8,0:0:0:0:
32,256,169060,6,0,P|68:312|128:328,1,130,2|8,2:0|0:0,0:0:0:0:
268,268,169917,2,0,P|312:288|344:328,2,97.5,2|0|0,2:0|0:0|0:0,0:0:0:0:
192,256,170774,2,0,P|136:176|228:68,1,260,2|8,2:0|0:0,0:0:0:0:
384,68,172060,1,2,2:0:0:0:
496,180,172488,6,0,P|496:244|452:288,1,130,2|8,2:0|0:0,0:0:0:0:
320,204,173345,2,0,P|304:164|320:112,2,97.5,2|0|0,2:0|0:0|0:0,0:0:0:0:
364,268,174202,2,0,P|316:320|256:324,1,130,2|8,2:0|0:0,0:0:0:0:
184,316,174845,2,0,P|96:272|80:184,1,195,0|8,0:0|0:0,0:0:0:0:
196,80,175917,6,0,P|144:56|104:52,2,97.5,2|0|0,2:0|0:0|0:0,0:0:0:0:
248,140,176774,2,0,P|248:204|204:248,1,130,2|8,2:0|0:0,0:0:0:0:
100,368,177631,2,0,P|56:360|12:324,2,97.5,2|0|0,2:0|0:0|0:0,0:0:0:0:
176,352,178488,2,0,P|224:320|296:324,1,130,2|8,2:0|0:0,0:0:0:0:
448,340,179345,6,0,P|488:288|472:228,1,130,2|8,2:0|0:0,0:0:0:0:
396,92,180202,2,0,P|416:52|464:28,2,97.5,2|0|0,2:0|0:0|0:0,0:0:0:0:
372,168,181060,2,0,P|284:208|172:112,1,260,4|2,2:0|2:0,0:0:0:0:
28,56,182345,1,8,0:0:0:0:
8,212,182774,6,0,P|16:276|64:316,1,130,2|8,2:0|0:0,0:0:0:0:
216,280,183631,2,0,P|208:216|160:176,1,130,2|8,2:0|0:0,0:0:0:0:
88,140,184274,1,0,0:0:0:0:
128,72,184488,2,0,P|80:60|36:80,2,97.5,2|0|0,2:0|0:0|0:0,0:0:0:0:
200,100,185345,2,0,P|264:116|324:96,1,130,2|8,2:0|0:0,0:0:0:0:
476,72,186202,6,0,P|500:136|488:196,1,130,2|8,2:0|0:0,0:0:0:0:
420,232,186845,1,0,0:0:0:0:
352,272,187060,2,0,P|388:304|440:308,2,97.5,2|0|0,2:0|0:0|0:0,0:0:0:0:
288,224,187917,2,0,P|224:216|172:256,1,130,2|8,2:0|0:0,0:0:0:0:
152,328,188560,2,0,P|60:292|52:204,1,195,0|8,0:0|0:0,0:0:0:0:
128,72,189631,6,0,P|184:104|200:164,1,130,2|8,2:0|0:0,0:0:0:0:
204,320,190488,1,2,2:0:0:0:
356,352,190917,1,8,0:0:0:0:
496,280,191345,2,0,P|504:188|448:104,1,195,2|0,2:0|0:0,0:0:0:0:
372,120,192202,1,8,0:0:0:0:
232,184,192631,1,8,0:0:0:0:
188,332,193060,6,0,P|120:328|72:292,1,130,4|8,2:0|0:0,0:0:0:0:
36,224,193702,1,0,0:0:0:0:
56,148,193917,2,0,P|107:110|172:107,1,130,2|8,2:0|0:0,0:0:0:0:
220,168,194560,1,0,0:0:0:0:
296,168,194774,1,2,2:0:0:0:
344,108,194988,1,0,0:0:0:0:
396,48,195202,2,0,P|472:112|488:264,1,260,8|8,0:0|0:0,0:0:0:0:
348,332,196488,5,2,2:0:0:0:
292,280,196702,1,0,0:0:0:0:
312,204,196917,2,0,P|280:76|168:68,1,260,8|8,0:0|0:0,0:0:0:0:
52,172,198202,2,0,P|40:208|40:240,1,65,2|0,2:0|0:0,0:0:0:0:
108,272,198631,2,0,P|140:280|164:308,1,65,8|0,0:0|0:0,0:0:0:0:
208,364,199060,2,0,P|240:368|272:360,1,65,2|0,2:0|0:0,0:0:0:0:
312,292,199488,1,8,0:0:0:0:
292,136,199917,6,0,P|240:140|196:156,2,97.5,2|0|0,2:0|0:0|0:0,0:0:0:0:
368,148,200774,2,0,P|432:168|456:224,1,130,2|8,2:0|0:0,0:0:0:0:
436,296,201417,1,0,0:0:0:0:
372,340,201631,2,0,P|324:352|276:344,2,97.5,2|0|0,2:0|0:0|0:0,0:0:0:0:
368,260,202488,2,0,P|308:228|248:232,1,130,2|8,2:0|0:0,0:0:0:0:
124,328,203345,6,0,P|40:276|48:184,2,195,2|0|8,2:0|0:0|0:0,0:0:0:0:
160,176,205060,2,0,P|160:140|176:112,1,65,2|0,2:0|0:0,0:0:0:0:
236,68,205488,2,0,P|276:64|308:68,1,65,8|0,0:0|0:0,0:0:0:0:
368,108,205917,2,0,P|392:132|396:164,1,65,2|0,2:0|0:0,0:0:0:0:
384,240,206345,1,8,0:0:0:0:
280,356,206774,6,0,P|228:316|240:256,1,130,4|8,2:0|0:0,0:0:0:0:
276,192,207417,1,0,0:0:0:0:
264,116,207631,2,0,P|208:76|148:72,1,130,2|8,2:0|0:0,0:0:0:0:
80,112,208274,1,0,0:0:0:0:
32,172,208488,1,2,2:0:0:0:
16,248,208702,1,0,0:0:0:0:
52,316,208917,2,0,P|152:340|296:280,1,260,8|8,0:0|0:0,0:0:0:0:
352,140,210202,5,2,2:0:0:0:
332,64,210417,1,0,0:0:0:0:
264,24,210631,2,0,P|144:80|160:188,1,260,8|8,0:0|0:0,0:0:0:0:
284,280,211917,2,0,P|316:292|344:308,1,65,2|0,2:0|0:0,0:0:0:0:
400,360,212345,2,0,P|440:356|464:344,1,65,8|0,0:0|0:0,0:0:0:0:
476,268,212774,2,0,P|480:232|476:204,1,65,2|0,2:0|0:0,0:0:0:0:
420,148,213202,1,8,0:0:0:0:
292,60,213631,6,0,P|248:44|192:40,2,97.5,2|0|0,2:0|0:0|0:0,0:0:0:0:
316,136,214488,2,0,P|328:200|296:252,1,130,2|8,2:0|0:0,0:0:0:0:
220,268,215131,1,0,0:0:0:0:
144,288,215345,2,0,P|92:284|56:252,2,97.5,2|0|0,2:0|0:0|0:0,0:0:0:0:
124,212,216202,1,2,2:0:0:0:
212,80,216631,1,8,0:0:0:0:
256,192,217060,12,0,219631,2:0:0:0:
360,96,220488,5,4,2:0:0:0:
