osu file format v14

[General]
AudioFilename: audio.mp3
AudioLeadIn: 0
PreviewTime: 90320
Countdown: 1
SampleSet: None
StackLeniency: 0.3
Mode: 0
LetterboxInBreaks: 0
WidescreenStoryboard: 0

[Editor]
DistanceSpacing: 1.5
BeatDivisor: 4
GridSize: 8
TimelineZoom: 2.200006

[Metadata]
Title:PewDiePie Songs 1 + 2
TitleUnicode:PewDiePie Songs 1 + 2
Artist:Jake Hill/SumDude
ArtistUnicode:Jake Hill/SumDude
Creator:-BlastTheKidd-
Version:PewPieDie
Source:
Tags:lowla meme Touchscreen hoe
BeatmapID:1325634
BeatmapSetID:628810

[Difficulty]
HPDrainRate:6
CircleSize:4
OverallDifficulty:8
ApproachRate:9
SliderMultiplier:1.4
SliderTickRate:3

[Events]
//Background and Video events
0,0,"SemiSerious.jpg",0,0
//Break Periods
//Storyboard Layer 0 (Background)
//Storyboard Layer 1 (Fail)
//Storyboard Layer 2 (Pass)
//Storyboard Layer 3 (Foreground)
//Storyboard Sound Samples

[TimingPoints]
102,437.956204379562,4,1,0,100,1,0
102,-100,4,2,0,15,0,0
977,-133.333333333333,4,2,0,15,0,0
2729,-100,4,2,0,15,0,0
3605,-133.333333333333,4,2,0,15,0,0
7109,-86.9565217391303,4,2,0,15,0,0
13021,6,4,1,0,100,1,0
13240,437.956204379562,4,1,0,100,1,0
14115,-83.3333333333333,4,3,0,80,0,0
28130,-133.333333333333,4,2,0,60,0,0
29006,-66.6666666666667,4,3,0,70,0,0
35575,-62.5,4,3,0,49,0,0
50247,-80,4,3,0,49,0,0
50466,-66.6666666666667,4,3,0,49,0,0
58568,-25,4,3,0,49,0,0
58787,-66.6666666666667,4,3,0,49,0,0

[HitObjects]
155,98,102,6,2,L|275:170,1,140
275,170,539,2,2,L|152:264,1,140
163,255,977,2,2,L|168:128,1,105.000004005432
167,150,1415,2,2,L|271:216,1,105.000004005432
352,264,2291,5,2,0:0:0:0:
155,98,2729,6,2,L|275:170,1,140
275,170,3166,6,2,L|152:96,1,140
155,97,3604,6,2,L|155:237,1,140
155,237,4042,6,2,L|252:295,2,105.000004005432
245,290,5357,2,2,L|144:232,2,105.000004005432
245,290,6233,2,2,L|144:232,1,105.000004005432
320,192,7109,6,0,P|280:160|216:144,1,80.5000015354157,8|10,0:0|0:0,0:0:0:0:
176,136,7547,1,8,0:0:0:0:
168,144,7766,2,8,L|136:176,3,26.8333338451386,8|8|8|10,0:0|0:0|0:0|0:0,0:0:0:0:
224,96,8204,6,0,P|264:72|296:72,1,80.5000015354157,8|10,0:0|0:0,0:0:0:0:
365,93,8642,2,0,L|384:112,3,26.8333338451386,8|8|8|10,0:0|0:0|0:0|0:0,0:0:0:0:
440,168,9080,1,8,0:0:0:0:
480,256,9299,2,8,L|480:280,6,13.4166669225693
352,192,9737,5,2,0:0:0:0:
264,272,9956,5,2,0:0:0:0:
168,192,10612,6,8,B|96:208|96:208|80:224,1,80.5000015354157
40,280,11050,1,10,0:0:0:0:
120,328,11269,2,8,L|152:320,3,26.8333338451386
208,272,11707,5,10,0:0:0:0:
168,200,11926,1,10,0:0:0:0:
120,120,12145,2,8,L|104:96,3,26.8333338451386
248,160,12583,1,2,0:0:0:0:
248,160,12802,2,8,L|264:176,6,13.4166669225693
408,128,14334,6,0,B|376:160|376:160,2,41.9999987182618,4|0|8,0:0|0:0|0:0,0:0:0:0:
464,56,14772,2,0,B|448:16|448:16|392:0,1,83.9999974365235
320,8,15210,2,0,L|264:24,5,41.9999987182618,8|0|8|8|8|0,0:0|0:0|0:0|0:0|0:0|0:0,0:0:0:0:
216,80,15867,1,0,0:0:0:0:
240,168,16086,2,0,B|256:192|256:192|232:224,3,41.9999987182618,0|8|8|8,0:0|0:0|0:0|0:0,0:0:0:0:
192,272,16524,2,0,B|160:304|160:304|96:264,1,83.9999974365235,10|4,3:0|3:0,0:0:0:0:
248,202,16962,5,12,3:0:0:0:
424,160,17619,6,0,L|456:208,2,55.9999982910157,12|0|0,3:0|0:0|0:0,0:0:0:0:
384,104,18057,2,0,L|352:56,2,55.9999982910157,12|0|0,3:0|0:0|0:0,0:0:0:0:
352,168,18495,2,0,L|304:200,2,55.9999982910157,12|0|0,3:0|0:0|0:0,0:0:0:0:
432,56,18933,2,0,L|480:24,2,55.9999982910157,12|0|0,3:0|0:0|0:0,0:0:0:0:
384,104,19371,6,0,P|392:160|384:176,5,55.9999982910157,2|2|10|2|2|2,0:0|0:0|0:0|0:0|0:0|0:0,0:0:0:0:
392,157,20247,2,0,L|448:208,2,55.9999982910157,12|0|0,3:0|0:0|0:0,0:0:0:0:
336,200,20685,2,0,B|296:240|296:240|264:232,1,83.9999974365235,4|0,0:0|0:0,0:0:0:0:
176,192,21123,6,0,L|209:105,1,83.9999974365235
205,113,21342,2,0,P|126:77|118:77,1,83.9999974365235
64,120,21780,2,0,L|24:136,6,41.9999987182618
72,192,22656,2,0,L|120:216,6,41.9999987182618
40,264,23531,2,0,L|56:304,5,41.9999987182618
55,302,24188,2,0,P|104:336|120:328,3,83.9999974365235
192,280,25064,6,0,P|248:264|280:272,1,83.9999974365235
240,336,25502,1,0,0:0:0:0:
336,320,25721,2,0,P|360:320|376:328,2,41.9999987182618
448,336,26159,1,0,0:0:0:0:
448,336,26378,1,0,0:0:0:0:
456,256,26597,6,0,P|456:216|432:192,1,41.9999987182618
440,176,26816,1,0,0:0:0:0:
400,120,27035,2,0,L|432:88,6,41.9999987182618
256,160,28130,6,0,L|256:216,1,52.5000020027161
152,224,28568,2,0,L|152:280,1,52.5000020027161
380,157,29006,1,0,0:0:0:0:
380,157,29225,6,0,L|324:253,1,105.000004005432
256,240,29663,2,0,B|224:288,2,52.5000020027161
160,264,30101,2,0,L|128:312,6,52.5000020027161
288,176,30977,2,0,L|240:152,2,52.5000020027161
352,200,31415,6,0,P|360:192|352:224,1,105.000004005432
296,256,31853,2,0,P|240:272|200:256,1,52.5000020027161
247,272,32072,2,0,P|288:312|352:320,1,105.000004005432
400,304,32510,1,0,0:0:0:0:
440,136,32948,6,0,P|448:80|424:48,2,52.5000020027161
408,176,33385,2,0,P|376:200|296:192,1,105.000004005432
304,160,33823,6,0,L|320:104,1,52.5000020027161
368,120,34042,2,0,L|344:72,1,52.5000020027161
341,69,34261,2,0,P|336:8|392:0,1,105.000004005432
424,0,34590,1,0,0:0:0:0:
472,32,34699,2,0,L|480:88,1,52.5000020027161
432,128,34918,1,0,0:0:0:0:
368,192,35137,6,0,P|328:256|352:296,1,105.000004005432
256,280,35575,6,0,P|264:184|304:160,1,112
256,88,36013,6,0,P|184:64|176:56,4,56
136,64,36670,1,0,0:0:0:0:
128,152,36889,6,0,L|160:216,1,56
104,200,37108,2,0,L|136:256,1,56
80,240,37327,2,0,L|112:304,3,56
64,288,37765,2,0,P|96:360|104:368,2,56
24,328,38094,2,0,P|40:384|48:392,4,56
104,368,38641,6,0,P|176:384|200:376,3,56
168,344,39079,2,0,P|240:360|248:368,1,56
208,384,39298,2,0,P|248:392|280:376,1,56
264,344,39517,2,0,L|320:328,7,56
296,272,40393,6,0,P|368:264|392:280,1,56
376,320,40612,2,0,P|424:280|424:256,1,56
400,224,40831,2,0,L|384:160,3,56
456,152,41269,6,0,P|432:88|400:96,1,112
304,112,41707,6,0,L|216:136,1,56
200,136,41926,2,0,L|144:152,3,56
104,168,42364,2,0,L|40:192,1,56
24,232,42583,6,0,P|80:256|88:216,1,112
24,136,43021,6,0,P|40:88|72:128,1,112
160,192,43458,6,0,L|232:160,1,56
224,192,43677,2,0,L|280:168,1,56
248,152,43896,2,0,L|304:128,1,56
296,96,44115,2,0,L|352:72,4,56
272,64,44663,2,0,L|208:88,2,56
256,120,44991,2,0,L|200:144,1,56
264,216,45210,6,0,L|344:224,1,56
264,216,45429,2,0,L|336:200,1,56
384,184,45648,2,0,L|392:128,2,56
376,224,45977,2,0,L|336:280,2,56
416,208,46305,2,0,L|416:280,1,56
384,296,46524,2,0,L|344:344,1,56
296,336,46743,2,0,L|232:336,1,56
208,304,46962,2,0,L|168:264,1,56
232,232,47181,5,0,0:0:0:0:
296,264,47400,6,0,P|328:208|320:168,3,56
344,256,47838,2,0,P|368:200|368:192,3,56
408,232,48276,2,0,P|424:192|424:176,3,56
472,160,48714,1,0,0:0:0:0:
280,144,49152,5,0,0:0:0:0:
280,144,49261,1,0,0:0:0:0:
280,144,49371,1,0,0:0:0:0:
280,144,49480,1,0,0:0:0:0:
318,241,49699,6,0,L|246:273,1,56
176,216,49918,1,0,0:0:0:0:
176,216,50028,2,0,L|232:184,1,56
224,188,50247,2,0,L|272:272,1,87.5
232,192,50685,1,0,0:0:0:0:
232,192,50831,2,0,P|288:176|280:128,1,105.000004005432
248,72,51232,5,0,0:0:0:0:
184,64,51342,2,0,L|144:120,3,52.5000020027161
96,96,51780,2,0,P|32:128|80:192,1,157.500006008148
136,168,52327,1,0,0:0:0:0:
200,192,52546,2,0,B|184:224|184:224|184:240|200:248|200:248|216:248,3,52.5000020027161
216,248,53094,6,0,P|240:240|264:160,1,105.000004005432
240,152,53422,1,0,0:0:0:0:
208,144,53531,2,0,P|248:96|328:96,1,105.000004005432
328,112,53860,1,0,0:0:0:0:
352,144,53969,2,0,L|344:224,2,52.5000020027161
384,120,54298,1,0,0:0:0:0:
424,136,54407,2,0,L|472:240,1,105.000004005432
448,264,54736,1,0,0:0:0:0:
432,304,54845,2,0,P|456:368|448:384,3,52.5000020027161
424,368,55283,2,0,L|360:360,1,52.5000020027161
336,304,55502,2,0,P|312:280|288:336,2,105.000004005432
168,168,56159,6,0,B|128:264|128:264|136:240|120:264,2,105.000004005432
64,360,57035,6,0,P|136:368|152:368,1,52.5000020027161
120,336,57254,2,0,L|192:368,1,52.5000020027161
176,384,57473,2,0,L|224:408,3,52.5000020027161
247,376,57911,2,0,L|283:421,3,52.5000020027161
288,360,58349,1,0,0:0:0:0:
296,368,58458,1,0,0:0:0:0:
304,376,58568,2,0,L|312:384,16,8.75
360,376,58787,6,0,L|408:336,3,52.5000020027161
448,296,59225,2,0,L|512:240,1,52.5000020027161
416,328,59444,1,0,0:0:0:0:
416,328,59553,2,0,L|352:272,2,52.5000020027161
416,256,59882,2,0,L|360:208,1,52.5000020027161
344,176,60101,2,0,P|320:160|336:200,1,105.000004005432
440,64,60539,6,0,L|376:80,3,52.5000020027161
320,64,60977,2,0,L|272:24,5,52.5000020027161
