osu file format v14

[General]
AudioFilename: mmm.mp3
AudioLeadIn: 0
PreviewTime: 89285
Countdown: 0
SampleSet: Normal
StackLeniency: 0.7
Mode: 0
LetterboxInBreaks: 0
WidescreenStoryboard: 1

[Editor]
DistanceSpacing: 2
BeatDivisor: 4
GridSize: 4
TimelineZoom: 1.8

[Metadata]
Title:INSOMNIA
TitleUnicode:INSOMNIA
Artist:Jakarta Funk Brothers
ArtistUnicode:ジャカルタファンクブラザーズ
Creator:RikiH_
Version:Easy
Source:beatmania IIDX 21 SPADA
Tags:konami bemani funkot Naoyuki Sato Yoshihiro Tagawa REFLEC BEAT groovin'!! Upper walter85 pandahero panda hero kittyadventure kitty adventure
BeatmapID:1410980
BeatmapSetID:659648

[Difficulty]
HPDrainRate:2
CircleSize:2
OverallDifficulty:1
ApproachRate:3
SliderMultiplier:0.5
SliderTickRate:1

[Events]
//Background and Video events
0,0,"bgbgbg.png",0,0
//Break Periods
2,69792,77999
//Storyboard Layer 0 (Background)
//Storyboard Layer 1 (Fail)
//Storyboard Layer 2 (Pass)
//Storyboard Layer 3 (Foreground)
//Storyboard Sound Samples

[TimingPoints]
670,307.692307692308,4,2,0,45,1,0
10516,-100,4,1,1,50,0,0
91746,-86.9565217391304,4,1,1,50,0,1
111439,-100,4,1,1,50,0,0
116054,-100,4,1,1,50,0,1
116362,-100,4,2,1,5,0,0

[Colours]
Combo1 : 57,198,92
Combo2 : 91,91,255
Combo3 : 57,175,215
Combo4 : 147,13,166

[HitObjects]
256,192,670,12,0,4362,0:0:0:0:
140,54,5593,6,0,P|123:97|75:132,1,99.9999999999999
22,210,6516,1,0,0:0:0:0:
121,220,6823,2,0,L|224:216,1,99.9999999999999
293,284,7746,1,0,0:0:0:0:
387,252,8054,6,0,P|432:269|484:263,1,99.9999999999999
445,171,8977,1,0,0:0:0:0:
345,161,9285,6,0,B|295:166|295:166|207:114,1,150
176,20,10516,6,0,B|136:35|107:60|89:120|113:171|131:186|131:186|114:228|120:289|174:332|224:323|224:323|255:286|300:261|371:279|407:317,1,600
488,262,14516,5,0,0:0:0:0:
297,30,15439,6,0,L|194:35,1,100
117,95,16362,1,0,0:0:0:0:
208,135,16670,2,0,B|185:233|185:233|207:279,1,150
282,342,17900,6,0,P|309:358|330:362,2,50
339,260,18823,1,0,0:0:0:0:
411,190,19131,6,0,P|426:217|442:231,2,50
501,147,20054,1,0,0:0:0:0:
416,93,20362,6,0,P|393:65|332:58,1,100
251,116,21285,1,0,0:0:0:0:
192,197,21593,2,0,P|169:219|58:216,1,150
115,134,22823,6,0,P|135:103|136:37,1,100
40,68,23746,1,0,0:0:0:0:
291,231,24670,6,0,L|346:228,1,50
420,289,25285,6,0,P|438:254|432:187,1,100
359,129,26208,1,0,0:0:0:0:
260,146,26516,2,0,P|213:161|129:115,1,150
212,59,27746,6,0,P|265:47|318:62,1,100
358,144,28670,1,0,0:0:0:0:
325,238,28977,2,0,B|278:253|278:253|230:238|230:238|183:255,1,150
100,197,30208,6,0,P|89:219|90:300,1,100
165,356,31131,1,0,0:0:0:0:
260,325,31439,2,0,P|302:310|407:339,1,150
473,264,32670,6,0,L|464:162,1,100
502,72,33593,1,0,0:0:0:0:
403,87,33900,2,0,P|349:101|276:41,1,150
184,83,35131,6,0,P|157:118|98:129,1,100
20,75,36054,1,0,0:0:0:0:
14,174,36362,2,0,B|4:273|4:273|42:307,1,150
131,350,37593,6,0,P|181:341|240:338,1,100
328,355,38516,1,0,0:0:0:0:
291,262,38823,2,0,B|284:211|284:211|310:171|310:171|304:118,1,150
479,24,40362,6,0,L|489:128,1,100
448,215,41285,2,0,P|411:235|314:193,1,150
251,122,42516,6,0,P|219:101|159:86,1,100
80,147,43439,1,0,0:0:0:0:
79,246,43746,2,0,P|129:286|216:294,1,150
293,235,44977,5,0,0:0:0:0:
492,253,45593,1,0,0:0:0:0:
509,53,46208,1,0,0:0:0:0:
310,35,46824,1,0,0:0:0:0:
293,235,47439,6,0,B|308:283|356:311|356:311|393:272|442:268|442:268|450:216|422:171,1,300
279,32,49900,6,0,P|259:55|251:77,1,50
151,70,50516,2,0,P|153:100|163:121,1,50
90,188,51131,2,0,P|113:207|135:216,1,50
129,315,51746,2,0,P|159:312|180:302,1,50
246,377,52362,2,0,P|266:354|274:332,1,50
372,332,52977,2,0,P|369:301|359:280,1,50
434,214,53593,2,0,P|411:193|389:185,1,50
389,87,54208,5,0,0:0:0:0:
195,37,54823,6,0,P|172:42|137:42,1,50
77,116,55439,2,0,P|82:139|82:174,1,50
158,231,56054,2,0,P|181:226|216:226,1,50
276,152,56670,2,0,P|271:129|271:94,1,50
334,25,57285,6,0,P|357:20|392:20,1,50
458,84,57900,2,0,P|463:107|463:142,1,50
403,213,58516,2,0,P|370:198|300:211,1,100
221,255,59439,1,0,0:0:0:0:
167,339,59746,6,0,P|145:361|122:372,1,50
84,279,60362,2,0,P|52:279|28:270,1,50
67,178,60977,2,0,P|45:156|33:133,1,50
129,101,61593,2,0,P|129:69|137:45,1,50
227,88,62208,2,0,P|249:66|272:55,1,50
310,148,62824,2,0,P|341:148|365:156,1,50
327,249,63439,2,0,P|349:271|360:294,1,50
265,326,64054,5,0,0:0:0:0:
79,251,64670,6,0,L|75:199,1,50
134,120,65285,2,0,L|130:68,1,50
230,64,65900,2,0,L|233:113,1,50
308,180,66516,2,0,L|311:229,1,50
378,304,67131,6,0,P|399:309|430:302,1,50
471,213,67746,2,0,P|465:188|470:164,1,50
404,88,68362,2,0,B|356:75|356:75|308:88|308:88|258:76|258:76|222:33,1,200
256,192,79439,12,0,83131,0:0:0:0:
256,192,84362,12,0,89285,0:0:0:0:
394,39,90516,6,0,B|401:88|401:88|378:134|378:134|384:184,1,150
357,294,91746,6,0,P|319:311|291:310,1,57.5000010967255
217,234,92362,2,0,P|221:192|236:168,1,57.5000010967255
342,146,92977,2,0,P|375:170|388:195,1,57.5000010967255
357,294,93593,1,0,0:0:0:0:
251,339,93900,1,0,0:0:0:0:
139,309,94208,6,0,P|115:296|81:288,1,57.5000010967255
128,181,94823,2,0,P|155:187|181:201,1,57.5000010967255
261,283,95439,2,0,P|308:274|371:168,1,172.500003290176
302,82,96670,6,0,P|284:74|257:41,1,57.5000010967255
146,66,97285,2,0,P|148:85|132:125,1,57.5000010967255
212,207,97900,2,0,P|227:195|270:188,1,57.5000010967255
302,82,98516,1,0,0:0:0:0:
412,52,98823,1,0,0:0:0:0:
385,164,99131,6,0,P|375:200|417:326,1,172.500003290176
302,348,100362,2,0,P|269:330|134:328,1,172.500003290176
48,252,101593,6,0,L|42:193,1,57.5000010967255
148,149,102208,2,0,L|172:94,1,57.5000010967255
285,115,102823,2,0,L|333:80,1,57.5000010967255
431,138,103439,1,0,0:0:0:0:
497,231,103746,1,0,0:0:0:0:
383,246,104054,6,0,P|353:252|319:252,1,57.5000010967255
233,184,104670,1,0,0:0:0:0:
218,297,104977,6,0,P|191:319|157:326,1,57.5000010967255
64,277,105593,2,0,L|50:162,1,115.000002193451
115,68,106516,6,0,P|144:52|174:49,1,57.5000010967255
274,91,107131,2,0,P|307:91|334:104,1,57.5000010967255
384,201,107746,2,0,P|412:218|429:242,1,57.5000010967255
333,304,108362,1,0,0:0:0:0:
273,205,108670,1,0,0:0:0:0:
162,236,108977,6,0,P|106:261|-2:219,1,172.500003290176
89,142,110208,5,0,0:0:0:0:
171,61,110516,1,0,0:0:0:0:
271,116,110823,1,0,0:0:0:0:
254,229,111131,1,0,0:0:0:0:
140,249,111439,5,0,0:0:0:0:
158,49,112054,1,0,0:0:0:0:
356,72,112670,1,0,0:0:0:0:
338,272,113285,1,0,0:0:0:0:
140,249,113900,6,0,P|70:254|11:201,1,150
100,156,115131,2,0,P|135:132|161:76,1,100
62,60,116054,6,0,B|39:67|39:67|13:60,1,50
