osu file format v14

[General]
AudioFilename: mmm.mp3
AudioLeadIn: 0
PreviewTime: 89285
Countdown: 0
SampleSet: Normal
StackLeniency: 0.7
Mode: 0
LetterboxInBreaks: 0
WidescreenStoryboard: 1

[Editor]
DistanceSpacing: 0.5
BeatDivisor: 4
GridSize: 4
TimelineZoom: 1.8

[Metadata]
Title:INSOMNIA
TitleUnicode:INSOMNIA
Artist:Jakarta Funk Brothers
ArtistUnicode:ジャカルタファンクブラザーズ
Creator:RikiH_
Version:C8H10N4O2
Source:beatmania IIDX 21 SPADA
Tags:konami bemani funkot Naoyuki Sato Yoshihiro Tagawa REFLEC BEAT groovin'!! Upper walter85 pandahero panda hero kittyadventure kitty adventure
BeatmapID:1397493
BeatmapSetID:659648

[Difficulty]
HPDrainRate:7
CircleSize:4
OverallDifficulty:8
ApproachRate:9.4
SliderMultiplier:1.8
SliderTickRate:1

[Events]
//Background and Video events
0,0,"bgbgbg.png",0,0
//Break Periods
//Storyboard Layer 0 (Background)
//Storyboard Layer 1 (Fail)
//Storyboard Layer 2 (Pass)
//Storyboard Layer 3 (Foreground)
//Storyboard Sound Samples

[TimingPoints]
670,307.692307692308,4,2,0,45,1,0
670,-400,4,2,2,10,0,0
3131,-400,4,2,2,20,0,0
4363,-200,4,2,2,30,0,0
4978,-100,4,2,2,40,0,0
5286,-66.6666666666667,4,2,0,50,0,0
5593,-100,4,1,1,50,0,0
9286,-80,4,1,1,50,0,0
9593,-66.6666666666667,4,1,1,50,0,0
9901,-80,4,1,1,50,0,0
10209,-66.6666666666667,4,1,1,50,0,0
10516,-100,4,1,1,50,0,0
12978,-80,4,1,1,50,0,0
14516,-66.6666666666667,4,1,2,50,0,0
14823,-66.6666666666667,4,1,0,25,0,0
15132,-100,4,1,1,25,0,0
15440,-80,4,1,1,50,0,0
16670,-50,4,2,1,35,0,0
17286,-66.6666666666667,4,1,1,50,0,0
17516,-50,4,2,1,5,0,0
17593,-66.6666666666667,4,1,1,50,0,0
17823,-50,4,2,1,5,0,0
17901,-80,4,1,1,50,0,0
20978,-66.6666666666667,4,1,1,50,0,0
21208,-50,4,2,1,5,0,0
21285,-66.6666666666667,4,1,1,50,0,0
21516,-50,4,2,1,5,0,0
21593,-50,4,2,1,35,0,0
22209,-80,4,1,1,50,0,0
24978,-66.6666666666667,4,1,1,50,0,0
25286,-80,4,1,1,50,0,0
29286,-66.6666666666667,4,1,1,50,0,0
29516,-400,4,2,1,5,0,0
29593,-62.5,4,1,1,50,0,0
29824,-400,4,2,1,5,0,0
29901,-58.8235294117647,4,1,1,50,0,0
30132,-400,4,2,1,5,0,0
30209,-80,4,1,1,50,0,0
38824,-66.6666666666667,4,1,1,50,0,0
39132,-57.1428571428571,4,1,1,50,0,0
39440,-66.6666666666667,4,1,1,50,0,0
39747,-57.1428571428571,4,1,1,50,0,0
40055,-80,4,1,1,50,0,0
43132,-66.6666666666667,4,1,1,50,0,0
43440,-57.1428571428571,4,1,1,50,0,0
43747,-80,4,1,1,50,0,0
47132,-400,4,1,1,50,0,0
47440,-80,4,1,1,50,0,0
49593,-66.6666666666667,4,1,1,50,0,0
49901,-80,4,1,1,50,0,0
54209,-66.6666666666667,4,1,1,50,0,0
54516,-57.1428571428571,4,1,1,50,0,0
54824,-80,4,1,1,50,0,0
58516,-66.6666666666667,4,1,1,50,0,0
59132,-57.1428571428571,4,1,1,50,0,0
59747,-80,4,1,1,50,0,0
64055,-66.6666666666667,4,1,1,50,0,0
64363,-57.1428571428571,4,1,1,50,0,0
64670,-80,4,1,1,50,0,0
68363,-66.6666666666667,4,1,1,50,0,0
68670,-57.1428571428571,4,1,1,50,0,0
69593,-400,4,1,1,50,0,0
70670,-400,4,2,1,5,0,0
70824,-400,4,1,1,50,0,0
71901,-400,4,2,1,5,0,0
72055,-400,4,1,1,50,0,0
72516,-400,4,2,1,5,0,0
72670,-400,4,1,1,50,0,0
73747,-400,4,2,1,5,0,0
73901,-400,4,1,1,50,0,0
74363,-400,4,2,1,5,0,0
74516,-400,4,1,1,50,0,0
75593,-400,4,2,1,5,0,0
75747,-400,4,1,1,50,0,0
76824,-400,4,2,1,5,0,0
76978,-400,4,1,1,50,0,0
77440,-400,4,2,1,5,0,0
77593,-400,4,1,1,50,0,0
78670,-400,4,2,1,5,0,0
78824,-400,4,1,1,50,0,0
79286,-400,4,2,1,5,0,0
79440,-100,4,1,1,50,0,0
84363,-80,4,1,1,50,0,0
85593,-66.6666666666667,4,1,1,50,0,0
86824,-57.1428571428571,4,1,1,50,0,0
88055,-50,4,1,1,50,0,0
89285,-50,4,2,1,50,0,0
91131,-50,4,1,1,50,0,0
91746,-66.6666666666667,4,1,1,50,0,1
106516,-50,4,1,1,50,0,1
111439,-80,4,1,1,50,0,0
111747,-66.6666666666667,4,1,1,50,0,0
113593,-400,4,1,1,50,0,0
113901,-66.6666666666667,4,1,1,50,0,0
116054,-50,4,1,2,50,0,1
116362,-80,4,2,1,5,0,0

[Colours]
Combo1 : 57,198,92
Combo2 : 91,91,255
Combo3 : 57,175,215
Combo4 : 147,13,166

[HitObjects]
43,234,670,6,0,B|87:229|87:229|110:220|128:203|128:203|155:224|188:226|207:212,1,168.75
177,142,1901,6,0,L|175:126,15,11.25
195,58,3132,6,0,P|222:39|273:32,1,78.75,4|0,0:0|0:0,0:0:0:0:
328,85,3747,2,0,P|301:104|250:111,1,78.75,4|0,0:0|0:0,0:0:0:0:
195,58,4363,6,0,L|115:55,1,67.5,4|0,0:0|0:0,0:0:0:0:
184,77,4670,2,0,L|104:74,1,67.5,4|0,0:0|0:0,0:0:0:0:
193,151,4978,6,0,L|238:148,1,45,4|0,0:0|0:0,0:0:0:0:
185,174,5132,2,0,L|230:171,1,45
138,239,5286,6,0,B|106:276|106:276|77:239|77:239|118:239,1,135.000005149842,4|0,0:0|0:0,0:0:0:0:
138,239,5593,6,0,B|170:270|170:270|314:270,1,180,4|0,0:2|0:0,0:0:0:0:
467,190,6209,2,0,P|481:138|469:98,1,90,8|0,0:0|0:0,0:0:0:0:
446,190,6516,2,0,P|460:138|448:98,1,90,8|0,0:0|0:0,0:0:0:0:
381,45,6824,6,0,B|338:29|338:29|288:46,1,90
213,79,7132,6,0,L|205:176,1,90,2|0,0:2|0:0,0:0:0:0:
184,350,7440,1,8,0:0:0:0:
190,64,7593,6,0,L|182:161,1,90,2|8,0:2|0:0,0:0:0:0:
161,335,7901,1,0,0:0:0:0:
167,49,8055,6,0,B|160:138|160:138|128:167|128:167|123:226,1,180,4|0,0:2|0:0,0:0:0:0:
238,353,8670,2,0,P|287:365|330:359,1,90,8|0,0:0|0:0,0:0:0:0:
248,329,8978,2,0,P|297:341|340:335,1,90,8|0,0:0|0:0,0:0:0:0:
409,283,9286,6,0,B|417:254|417:254|408:222,1,56.25,2|0,0:0|0:0,0:0:0:0:
373,35,9440,2,0,B|365:64|365:64|374:96,1,56.25
434,147,9593,6,2,B|445:128|445:128|291:159|291:159|313:135,1,202.500007724762,2|0,3:0|3:0,3:0:0:0:
325,239,9901,6,0,B|272:250|272:250|253:276,2,75,2|0|0,0:0|0:0|0:0,0:0:0:0:
306,142,10209,6,2,B|273:136|273:136|266:141|266:141|228:135|228:135|223:123|223:123|197:150|197:150|191:136|191:136|165:148|125:130,1,202.500007724762,2|2,3:0|3:0,3:0:0:0:
166,62,10516,6,0,L|171:16,1,45,8|0,0:1|0:0,0:0:0:0:
64,98,10670,2,0,L|59:52,1,45
131,179,10824,2,0,L|136:133,1,45,8|0,0:0|0:0,0:0:0:0:
29,215,10978,2,0,L|24:169,1,45
109,284,11132,6,0,L|153:295,1,45,8|8,0:0|0:0,0:0:0:0:
236,224,11286,2,0,L|284:218,1,45
261,346,11440,2,0,L|310:351,1,45,8|0,0:0|0:0,0:0:0:0:
409,271,11593,2,0,L|455:262,1,45,8|0,0:0|0:0,0:0:0:0:
381,141,11747,6,0,P|363:122|332:109,2,60,8|0|0,0:0|0:0|0:0,0:0:0:0:
408,52,12055,2,0,P|433:45|460:25,2,60,8|0|0,0:0|0:0|0:0,0:0:0:0:
469,119,12363,2,0,P|461:144|465:177,2,60,8|0|0,0:0|0:0|0:0,0:0:0:0:
381,141,12670,2,0,L|333:145,1,45,8|0,0:0|0:0,0:0:0:0:
217,154,12824,1,8,0:0:0:0:
217,154,12901,1,0,0:0:0:0:
217,154,12978,6,0,P|189:132|144:115,2,75,8|0|0,0:0|0:0|0:0,0:0:0:0:
230,61,13286,2,0,P|262:47|299:17,2,75,8|0|0,0:0|0:0|0:0,0:0:0:0:
308,120,13593,2,0,P|303:154|310:201,2,75,8|0|0,0:0|0:0|0:0,0:0:0:0:
217,154,13901,2,0,L|155:179,1,56.25,8|0,0:0|0:0,0:0:0:0:
36,162,14055,2,0,L|88:140,1,56.25,8|0,0:0|0:0,0:0:0:0:
308,120,14209,5,4,0:2:0:0:
308,120,14516,6,0,B|447:135|447:135|455:135|463:133|466:131|468:129|470:124|470:119|469:116|466:112|462:111|455:111|450:112|447:113|443:118|443:124|506:134,1,202.500007724762,4|0,0:2|0:0,0:0:0:0:
501,200,14824,5,0,0:0:0:0:
376,358,14978,1,0,0:0:0:0:
376,358,15055,1,0,0:0:0:0:
376,358,15132,6,0,L|323:348,1,45,4|0,0:1|0:0,0:0:0:0:
284,288,15286,2,0,L|231:278,1,45
190,222,15440,6,0,P|143:208|75:221,1,112.5,4|0,0:2|0:0,0:0:0:0:
144,124,15747,2,0,P|191:110|259:123,1,112.5,8|0,0:0|0:0,0:0:0:0:
332,199,16055,2,0,L|349:88,1,112.5
430,7,16363,2,0,L|447:118,1,112.5,8|0,0:0|0:0,0:0:0:0:
466,229,16670,6,2,P|463:250|465:279,3,45
391,254,16824,2,2,P|377:270|365:296,3,45
316,232,16978,2,2,P|296:239|272:256,3,45
261,177,17132,2,2,P|239:174|210:176,3,45
244,99,17286,6,0,B|277:39|277:39|419:24,1,202.500007724762,2|0,3:0|3:0,3:0:0:0:
77,24,17593,6,0,B|110:84|110:84|252:99,1,202.500007724762,2|0,3:0|3:0,3:0:0:0:
321,124,17901,6,0,P|358:184|293:314,1,225,4|8,0:2|0:0,0:0:0:0:
250,211,18363,1,0,0:0:0:0:
442,306,18516,2,0,B|498:317|498:317|511:259,1,112.5
498,150,18824,2,0,B|442:139|442:139|429:197,1,112.5,8|0,0:0|0:0,0:0:0:0:
442,306,19132,6,0,P|385:345|280:247,1,225,4|8,0:2|0:0,0:0:0:0:
317,154,19593,1,0,0:0:0:0:
249,64,19747,2,0,L|130:56,1,112.5
93,174,20055,2,0,L|212:166,1,112.5,8|0,0:0|0:0,0:0:0:0:
317,154,20363,6,0,P|360:104|366:46,1,112.5
445,140,20670,2,0,P|457:194|495:234,1,112.5,8|0,0:0|0:0,0:0:0:0:
374,247,20978,6,2,B|306:259|306:259|265:312|265:312|197:322,1,202.500007724762,2|0,3:0|3:0,3:0:0:0:
198,249,21286,6,2,B|266:261|266:261|307:314|307:314|373:324,1,202.500007724762,10|0,3:0|3:0,3:0:0:0:
440,290,21593,6,2,P|468:277|481:274,3,45
432,211,21747,2,2,P|449:185|459:176,3,45
385,148,21901,2,2,P|387:117|391:104,3,45
313,118,22055,2,2,P|299:90|296:77,3,45
231,120,22209,5,0,0:0:0:0:
153,201,22363,1,0,0:0:0:0:
73,121,22516,1,8,0:0:0:0:
151,40,22670,1,0,0:0:0:0:
231,120,22824,6,0,L|248:292,1,168.75,4|0,0:2|0:0,0:0:0:0:
323,308,23132,2,0,L|306:140,1,168.75,4|0,0:2|0:0,0:0:0:0:
231,120,23440,6,0,P|298:143|272:41,1,225,4|8,0:2|0:0,0:0:0:0:
392,149,23901,1,0,0:0:0:0:
390,173,24055,6,0,P|456:191|500:173,1,112.5
388,194,24363,2,0,P|454:212|498:194,1,112.5
387,215,24670,2,0,P|357:220|324:215,1,56.25
383,236,24824,2,0,P|353:241|320:236,1,56.25
378,257,24978,6,2,B|342:266|301:251|301:251|265:269|211:251|200:218|198:201,1,202.500007724762,2|0,0:0|0:0,0:0:0:0:
268,182,25286,5,4,0:2:0:0:
364,57,25440,2,0,P|388:44|425:39,1,56.25
414,116,25593,1,8,0:0:0:0:
353,364,25747,1,0,0:0:0:0:
257,127,25901,1,0,0:0:0:0:
473,262,26055,1,0,0:0:0:0:
219,280,26209,1,8,0:0:0:0:
414,116,26363,2,0,P|431:95|442:66,1,56.25
364,57,26516,6,0,B|310:51|310:51|301:46|301:46|245:40,1,112.5
95,21,26824,1,8,0:0:0:0:
95,21,26978,1,0,0:0:0:0:
138,301,27132,6,0,B|144:247|144:247|149:238|149:238|155:181,1,112.5
174,32,27440,1,8,0:0:0:0:
174,32,27594,1,0,0:0:0:0:
154,190,27747,6,0,P|114:223|53:220,1,112.5
329,222,28055,2,0,P|274:224|230:190,1,112.5,8|0,0:0|0:0,0:0:0:0:
324,62,28363,5,0,0:0:0:0:
288,314,28516,1,0,0:0:0:0:
169,89,28670,1,8,0:0:0:0:
398,201,28824,1,0,0:0:0:0:
147,245,28978,2,0,B|95:268|95:268|35:254,1,112.5
267,289,29286,6,0,B|192:270|192:270|72:326,1,202.500007724762,8|0,0:0|0:0,0:0:0:0:
376,237,29593,6,0,B|237:200|237:200|209:126,1,216,8|0,0:0|0:0,0:0:0:0:
359,350,29901,6,0,B|405:204|405:204|484:174,1,229.500004377365,8|0,0:0|0:0,0:0:0:0:
472,273,30209,5,4,0:2:0:0:
344,366,30363,2,0,P|325:349|313:317,1,56.25
336,245,30516,1,8,0:0:0:0:
376,92,30670,2,0,P|370:116|349:143,1,56.25
275,159,30823,1,0,0:0:0:0:
121,200,30978,2,0,P|145:192|178:197,1,56.25
229,253,31131,1,8,0:0:0:0:
344,366,31286,2,0,P|325:349|313:317,1,56.25
336,245,31440,6,0,L|455:231,1,112.5
320,139,31747,1,8,0:0:0:0:
320,139,31901,1,0,0:0:0:0:
130,217,32055,6,0,L|249:203,1,112.5
114,111,32362,1,8,0:0:0:0:
157,329,32516,2,0,L|218:323,1,56.25
290,313,32670,6,0,B|323:339|323:339|402:329,1,112.5
494,206,32978,2,0,B|461:232|461:232|382:222,1,112.5,8|0,0:0|0:0,0:0:0:0:
277,113,33286,5,0,0:0:0:0:
54,237,33440,1,0,0:0:0:0:
161,6,33593,1,8,0:0:0:0:
210,256,33747,1,0,0:0:0:0:
24,82,33901,6,0,P|39:104|41:135,1,56.25,4|0,0:2|0:0,0:0:0:0:
54,237,34055,2,0,P|39:215|37:184,1,56.25
128,47,34209,6,0,P|129:73|116:101,1,56.25,8|0,0:0|0:0,0:0:0:0:
105,245,34363,2,0,P|103:218|116:190,1,56.25
239,57,34516,6,0,P|227:80|201:98,1,56.25,4|0,0:2|0:0,0:0:0:0:
144,279,34670,2,0,P|155:255|181:237,1,56.25
333,119,34824,6,0,P|311:134|280:136,1,56.25,8|0,0:0|0:0,0:0:0:0:
170,326,34978,2,0,P|191:311|223:309,1,56.25
409,218,35132,5,4,0:2:0:0:
474,361,35286,2,0,L|488:304,1,56.25
508,229,35440,1,8,0:0:0:0:
416,101,35593,2,0,L|410:70,3,28.125
402,34,35747,6,0,B|366:26|366:26|330:37|330:37|284:29,1,112.5
136,1,36055,1,8,0:0:0:0:
186,150,36209,2,0,P|194:182|194:215,1,56.25
157,275,36363,6,0,P|97:298|51:285,1,112.5
92,133,36670,1,8,0:0:0:0:
92,133,36824,1,0,0:0:0:0:
299,215,36978,6,0,P|239:192|193:205,1,112.5
234,357,37285,1,8,0:0:0:0:
234,357,37439,1,0,0:0:0:0:
473,258,37593,6,0,P|413:281|367:268,1,112.5
500,113,37901,2,0,P|459:162|413:174,1,112.5,8|0,0:0|0:0,0:0:0:0:
276,98,38209,1,0,0:0:0:0:
384,329,38363,1,0,0:0:0:0:
161,205,38516,1,8,0:0:0:0:
414,174,38670,1,0,0:0:0:0:
227,348,38824,6,0,B|183:362|183:362|153:353,1,67.5000025749208,2|0,0:0|0:0,0:0:0:0:
21,289,38978,2,0,B|65:275|65:275|95:284,1,67.5000025749208
244,344,39132,6,0,B|219:285|219:285|221:279|221:279|204:232|204:232|198:230|198:230|184:192|184:192|228:176|228:176|241:204,1,236.250002253056,2|0,3:0|3:0,3:0:0:0:
299,250,39440,6,0,B|317:291|317:291|362:308,2,90.0000034332277,2|0|0,0:0|0:0|0:0,0:0:0:0:
311,169,39747,6,0,B|350:180|350:180|353:184|353:184|388:193|388:193|393:191|393:191|464:210|464:210|467:135,1,236.250002253056,2|0,3:0|3:0,3:0:0:0:
471,57,40055,5,0,0:0:0:0:
468,45,40132,1,0,0:0:0:0:
463,36,40209,1,0,0:0:0:0:
455,29,40286,1,0,0:0:0:0:
447,24,40363,5,12,0:1:0:0:
298,72,40516,2,0,P|284:90|270:123,1,56.25
291,197,40670,1,0,0:0:0:0:
466,303,40824,2,0,P|457:281|435:253,1,56.25
362,235,40978,1,8,0:0:0:0:
184,332,41132,2,0,P|206:335|242:330,1,56.25
294,275,41286,6,0,P|285:319|330:380,1,112.5
211,252,41593,1,8,0:0:0:0:
211,252,41747,1,0,0:0:0:0:
294,95,41901,6,0,P|303:139|258:200,1,112.5
377,72,42208,1,8,0:0:0:0:
221,52,42363,2,0,L|157:49,1,56.25
89,26,42516,5,4,0:2:0:0:
76,64,42593,1,0,0:0:0:0:
64,107,42670,5,0,0:0:0:0:
51,145,42747,1,0,0:0:0:0:
37,184,42824,6,0,B|42:195|42:196|42:196|27:242,1,56.25,8|0,0:0|0:0,0:0:0:0:
73,364,42978,2,0,B|68:353|68:352|68:352|83:306,1,56.25,8|0,0:0|0:0,0:0:0:0:
112,240,43132,6,0,B|122:211|122:211|132:204|132:204|147:141|147:141|183:148|225:132|238:104,1,202.500007724762,8|2,3:0|3:0,3:0:0:0:
164,49,43440,6,0,B|138:117|138:117|174:189|174:189|282:207,1,236.250002253056,8|2,3:0|3:0,3:0:0:0:
318,140,43747,5,12,0:0:0:0:
384,197,43901,1,0,0:0:0:0:
322,260,44055,1,8,0:0:0:0:
255,202,44209,1,0,0:0:0:0:
401,113,44363,5,8,0:0:0:0:
406,281,44516,1,8,0:0:0:0:
240,287,44670,1,8,0:0:0:0:
235,119,44823,1,8,0:0:0:0:
401,113,44978,5,4,0:2:0:0:
218,30,45286,2,0,L|281:38,1,56.25,2|0,0:0|0:0,0:0:0:0:
293,51,45440,2,0,L|356:59,1,56.25,2|0,0:0|0:0,0:0:0:0:
401,113,45593,5,4,0:2:0:0:
172,196,45901,2,0,P|198:181|231:174,1,56.25,2|0,0:0|0:0,0:0:0:0:
250,185,46055,2,0,P|276:170|309:163,1,56.25,2|0,0:0|0:0,0:0:0:0:
401,113,46209,5,4,0:2:0:0:
451,381,46516,6,0,B|435:358|435:358|436:327,1,56.25,2|0,0:0|0:0,0:0:0:0:
417,312,46670,2,0,B|401:289|401:289|402:258,1,56.25,2|0,0:0|0:0,0:0:0:0:
401,113,46824,5,4,0:2:0:0:
441,49,47132,6,0,P|454:44|476:42,1,33.75,2|2,3:0|3:0,3:0:0:0:
401,113,47440,5,8,0:1:0:0:
326,124,47747,5,8,0:0:0:0:
251,138,48055,5,8,0:0:0:0:
176,149,48362,5,8,0:0:0:0:
409,135,48670,5,8,0:0:0:0:
334,146,48824,5,8,0:0:0:0:
259,160,48978,5,8,0:0:0:0:
184,171,49132,5,8,0:0:0:0:
419,161,49286,5,8,0:0:0:0:
344,172,49363,5,8,0:0:0:0:
269,186,49440,5,8,0:0:0:0:
194,197,49516,5,8,0:0:0:0:
116,211,49593,6,2,P|65:255|161:309,1,202.500007724762,6|0,2:0|0:0,0:0:0:0:
210,280,49901,5,4,0:2:0:0:
224,271,49978,1,0,0:0:0:0:
240,268,50055,1,0,0:0:0:0:
256,272,50132,1,0,0:0:0:0:
293,313,50209,5,8,0:0:0:0:
339,344,50286,1,0,0:0:0:0:
394,352,50363,1,0,0:0:0:0:
444,327,50440,1,0,0:0:0:0:
474,280,50516,5,0,0:0:0:0:
477,263,50593,1,0,0:0:0:0:
475,246,50670,1,0,0:0:0:0:
468,230,50747,1,0,0:0:0:0:
432,185,50824,5,8,0:0:0:0:
381,160,50901,1,0,0:0:0:0:
324,161,50978,1,0,0:0:0:0:
282,198,51055,1,0,0:0:0:0:
264,251,51132,5,0,0:0:0:0:
253,264,51209,1,0,0:0:0:0:
238,273,51286,1,0,0:0:0:0:
222,279,51363,1,0,0:0:0:0:
166,272,51440,5,8,0:0:0:0:
119,241,51516,1,0,0:0:0:0:
99,188,51593,1,0,0:0:0:0:
100,131,51670,1,0,0:0:0:0:
133,85,51747,5,0,0:0:0:0:
148,78,51824,1,0,0:0:0:0:
164,75,51901,1,0,0:0:0:0:
180,76,51978,1,0,0:0:0:0:
220,114,52055,5,8,0:0:0:0:
246,163,52132,1,0,0:0:0:0:
292,194,52209,1,0,0:0:0:0:
347,201,52286,1,0,0:0:0:0:
396,173,52363,5,0,0:0:0:0:
405,159,52440,1,0,0:0:0:0:
410,143,52516,1,0,0:0:0:0:
411,126,52593,1,0,0:0:0:0:
396,71,52670,5,8,0:0:0:0:
354,33,52747,1,0,0:0:0:0:
297,30,52824,1,0,0:0:0:0:
248,58,52901,1,0,0:0:0:0:
224,109,52978,5,0,0:0:0:0:
222,125,53055,1,0,0:0:0:0:
224,141,53132,1,0,0:0:0:0:
229,156,53209,1,0,0:0:0:0:
265,198,53286,5,8,0:0:0:0:
317,219,53363,1,0,0:0:0:0:
368,195,53440,1,0,0:0:0:0:
421,178,53516,1,0,0:0:0:0:
474,194,53593,5,0,0:0:0:0:
482,208,53670,1,0,0:0:0:0:
486,224,53747,1,0,0:0:0:0:
487,240,53824,1,0,0:0:0:0:
464,291,53901,5,8,0:0:0:0:
418,324,53978,1,0,0:0:0:0:
362,333,54055,1,0,0:0:0:0:
307,319,54132,1,0,0:0:0:0:
268,277,54209,6,0,B|261:265|261:265|268:208,1,67.5000025749208,2|0,0:0|0:0,0:0:0:0:
357,33,54363,2,0,B|364:45|364:45|357:102,1,67.5000025749208,2|0,0:0|0:0,0:0:0:0:
250,299,54516,6,0,B|267:157|267:157|242:154|242:154|216:158|216:158|170:152,1,236.250002253056,2|2,3:0|3:0,3:0:0:0:
108,117,54824,5,4,0:2:0:0:
100,101,54901,1,0,0:0:0:0:
96,84,54978,1,0,0:0:0:0:
96,67,55055,1,0,0:0:0:0:
132,24,55132,5,8,0:0:0:0:
187,16,55209,1,0,0:0:0:0:
235,43,55286,1,0,0:0:0:0:
256,95,55363,1,0,0:0:0:0:
242,149,55440,5,0,0:0:0:0:
230,161,55516,1,0,0:0:0:0:
221,175,55593,1,0,0:0:0:0:
216,191,55670,1,0,0:0:0:0:
224,246,55747,5,8,0:0:0:0:
256,292,55824,1,0,0:0:0:0:
306,316,55901,1,0,0:0:0:0:
362,311,55978,1,0,0:0:0:0:
407,277,56055,5,0,0:0:0:0:
415,262,56132,1,0,0:0:0:0:
419,245,56209,1,0,0:0:0:0:
420,228,56286,1,0,0:0:0:0:
406,173,56363,5,8,0:0:0:0:
371,128,56440,1,0,0:0:0:0:
317,112,56516,1,0,0:0:0:0:
261,120,56593,1,0,0:0:0:0:
215,153,56670,5,0,0:0:0:0:
207,168,56747,1,0,0:0:0:0:
202,184,56824,1,0,0:0:0:0:
198,200,56901,1,0,0:0:0:0:
219,252,56978,5,8,0:0:0:0:
227,307,57055,1,0,0:0:0:0:
193,352,57132,1,0,0:0:0:0:
138,367,57209,1,0,0:0:0:0:
87,343,57286,5,0,0:0:0:0:
60,313,57363,1,0,0:0:0:0:
45,276,57440,1,0,0:0:0:0:
47,237,57516,1,0,0:0:0:0:
65,202,57593,1,8,0:0:0:0:
98,180,57670,1,0,0:0:0:0:
136,174,57747,1,0,0:0:0:0:
173,186,57824,1,0,0:0:0:0:
202,212,57901,2,0,P|234:222|265:222,3,56.25
287,197,58209,2,0,P|319:187|350:187,3,56.25,8|0|0|0,0:0|0:0|0:0|0:0,0:0:0:0:
383,205,58516,6,0,B|446:213|446:213|512:175|512:175|437:168,1,202.500007724762
367,227,58824,6,0,B|437:236|437:236|480:289|480:289|401:280,1,202.500007724762,8|0,0:0|0:0,0:0:0:0:
342,186,59132,6,0,B|290:175|290:175|273:153|273:153|205:180|205:180|196:158|196:158|135:142,1,236.250002253056,10|2,3:0|3:0,3:0:0:0:
26,44,59440,6,0,B|78:55|78:55|95:77|95:77|163:50|163:50|172:72|172:72|233:88,1,236.250002253056,10|2,3:0|3:0,3:0:0:0:
303,109,59747,5,4,0:2:0:0:
311,102,59824,1,0,0:0:0:0:
321,97,59901,1,0,0:0:0:0:
331,94,59978,1,0,0:0:0:0:
392,94,60055,5,8,0:0:0:0:
441,131,60132,1,0,0:0:0:0:
454,191,60209,1,0,0:0:0:0:
429,247,60286,1,0,0:0:0:0:
374,277,60363,5,0,0:0:0:0:
363,280,60440,1,0,0:0:0:0:
351,280,60516,1,0,0:0:0:0:
339,279,60593,1,0,0:0:0:0:
287,245,60670,5,8,0:0:0:0:
235,210,60747,1,0,0:0:0:0:
173,200,60824,1,0,0:0:0:0:
115,221,60901,1,0,0:0:0:0:
83,274,60978,5,0,0:0:0:0:
79,284,61055,1,0,0:0:0:0:
78,295,61132,1,0,0:0:0:0:
78,306,61209,1,0,0:0:0:0:
110,358,61286,5,8,0:0:0:0:
170,370,61363,1,0,0:0:0:0:
226,345,61440,1,0,0:0:0:0:
250,288,61516,1,0,0:0:0:0:
239,226,61593,5,0,0:0:0:0:
234,215,61670,1,0,0:0:0:0:
230,204,61747,1,0,0:0:0:0:
228,192,61824,1,0,0:0:0:0:
232,130,61901,5,8,0:0:0:0:
271,82,61978,1,0,0:0:0:0:
325,53,62055,1,0,0:0:0:0:
386,49,62132,1,0,0:0:0:0:
445,65,62209,5,0,0:0:0:0:
451,74,62286,1,0,0:0:0:0:
454,84,62363,1,0,0:0:0:0:
456,95,62440,1,0,0:0:0:0:
445,155,62516,5,8,0:0:0:0:
402,200,62593,1,0,0:0:0:0:
341,212,62670,1,0,0:0:0:0:
280,196,62747,1,0,0:0:0:0:
240,148,62824,5,0,0:0:0:0:
237,137,62901,1,0,0:0:0:0:
236,125,62978,1,0,0:0:0:0:
237,113,63055,1,0,0:0:0:0:
279,68,63132,5,8,0:0:0:0:
340,63,63209,1,0,0:0:0:0:
386,103,63286,1,0,0:0:0:0:
395,164,63363,1,0,0:0:0:0:
368,219,63440,5,0,0:0:0:0:
360,227,63516,1,0,0:0:0:0:
351,234,63593,1,0,0:0:0:0:
340,239,63670,1,0,0:0:0:0:
281,219,63747,5,8,0:0:0:0:
223,196,63824,1,0,0:0:0:0:
161,196,63901,1,0,0:0:0:0:
105,222,63978,1,0,0:0:0:0:
73,275,64055,6,0,B|68:293|68:293|89:344,1,67.5000025749208,2|0,0:0|0:0,0:0:0:0:
155,110,64209,2,0,B|160:92|160:92|139:41,1,67.5000025749208,2|0,0:0|0:0,0:0:0:0:
254,275,64363,6,0,B|277:281|305:300|305:300|338:286|387:291|387:291|403:287|403:287|421:269|421:269|443:288|478:293,1,236.250002253056,2|2,3:0|3:0,3:0:0:0:
473,213,64670,5,4,0:2:0:0:
478,202,64747,1,0,0:0:0:0:
481,191,64824,1,0,0:0:0:0:
483,179,64901,1,0,0:0:0:0:
469,118,64978,5,8,0:0:0:0:
423,75,65055,1,0,0:0:0:0:
362,60,65132,1,0,0:0:0:0:
301,73,65209,1,0,0:0:0:0:
258,117,65286,5,0,0:0:0:0:
254,127,65363,1,0,0:0:0:0:
252,138,65440,1,0,0:0:0:0:
252,149,65516,1,0,0:0:0:0:
273,207,65593,5,8,0:0:0:0:
307,258,65670,1,0,0:0:0:0:
301,319,65747,1,0,0:0:0:0:
256,361,65824,1,0,0:0:0:0:
194,364,65901,5,0,0:0:0:0:
185,356,65978,1,0,0:0:0:0:
177,347,66055,1,0,0:0:0:0:
170,337,66132,1,0,0:0:0:0:
145,279,66209,5,8,0:0:0:0:
147,217,66286,1,0,0:0:0:0:
181,165,66363,1,0,0:0:0:0:
239,145,66440,1,0,0:0:0:0:
297,161,66516,5,0,0:0:0:0:
306,167,66593,1,0,0:0:0:0:
313,175,66670,1,0,0:0:0:0:
318,184,66747,1,0,0:0:0:0:
321,245,66824,5,8,0:0:0:0:
345,302,66901,1,0,0:0:0:0:
398,333,66978,1,0,0:0:0:0:
459,335,67055,1,0,0:0:0:0:
506,295,67132,5,0,0:0:0:0:
507,249,67209,1,0,0:0:0:0:
497,205,67286,1,0,0:0:0:0:
472,167,67363,1,0,0:0:0:0:
433,144,67440,1,8,0:0:0:0:
389,134,67516,1,0,0:0:0:0:
344,142,67593,1,0,0:0:0:0:
299,135,67670,1,0,0:0:0:0:
264,106,67747,2,0,P|252:85|248:49,3,56.25
214,22,68055,2,0,P|186:40|158:48,3,56.25,8|0|0|0,0:0|0:0|0:0|0:0,0:0:0:0:
113,26,68363,6,0,B|95:96|95:96|127:153|127:153|106:233,1,202.500007724762,2|2,3:0|3:0,3:0:0:0:
55,266,68670,6,0,P|30:300|27:351,1,78.7500007510185,8|0,0:0|0:0,0:0:0:0:
159,273,68824,2,0,P|176:308|175:347,1,78.7500007510185,8|0,0:0|0:0,0:0:0:0:
32,155,68978,6,0,P|20:192|28:230,1,78.7500007510185,8|0,0:0|0:0,0:0:0:0:
167,151,69132,2,0,P|178:188|170:226,1,78.7500007510185,8|0,0:0|0:0,0:0:0:0:
43,41,69286,6,0,P|58:73|53:121,1,78.7500007510185,8|0,0:0|0:0,0:0:0:0:
156,37,69440,2,0,P|141:69|146:117,1,78.7500007510185,8|0,0:0|0:0,0:0:0:0:
319,213,69593,6,0,B|343:223|382:224|410:208|410:208|387:189|349:188,1,157.5,4|4,0:2|0:2,0:0:0:0:
285,238,70824,2,0,B|264:253|243:287|243:319|243:319|271:308|291:276,1,157.5,4|4,0:2|0:2,0:0:0:0:
279,160,72055,6,0,P|256:144|215:128,1,67.5,4|0,0:2|0:0,0:0:0:0:
208,48,72670,2,0,B|206:138|206:138|148:175,1,157.5,4|0,0:2|0:0,0:0:0:0:
76,146,73901,2,0,P|71:163|81:216,1,67.5
143,254,74516,6,0,B|171:272|207:277|232:272|232:272|234:267|234:267|238:270|238:270|240:266|240:266|243:269|243:269|245:264|245:264|249:268|249:268|251:264|251:264|254:266|254:266|256:262|256:262|260:266|260:266|262:261|262:261|274:262,1,157.5,4|0,0:2|0:0,0:0:0:0:
346,284,75747,6,0,B|366:289|393:291|393:291|412:282|430:270|430:270|430:262|438:262|438:262|439:254|446:254|446:254|448:244|455:244|455:244|455:238|461:238|461:238|462:231|468:231|468:231|473:224,1,157.5,4|0,0:2|0:0,0:0:0:0:
500,150,76978,6,0,P|478:145|434:155,1,67.5,4|0,0:2|0:0,0:0:0:0:
373,103,77593,2,0,P|348:115|237:63,1,157.5,4|0,0:2|0:0,0:0:0:0:
173,28,78824,2,0,P|163:58|168:96,1,67.5
211,156,79440,6,0,P|225:203|203:257,1,90,12|0,0:0|0:0,0:0:0:0:
313,352,79747,2,0,P|265:340|229:294,1,90,8|0,0:0|0:0,0:0:0:0:
93,342,80055,2,0,P|126:306|184:298,1,90,8|0,0:0|0:0,0:0:0:0:
380,291,80363,2,0,L|430:297,1,45,8|0,0:0|0:0,0:0:0:0:
395,268,80516,2,0,L|445:274,1,45,8|0,0:0|0:0,0:0:0:0:
410,246,80670,6,0,B|434:206|434:206|426:155,1,90,8|0,0:0|0:0,0:0:0:0:
356,39,80978,2,0,B|332:79|332:79|340:130,1,90,8|0,0:0|0:0,0:0:0:0:
268,280,81286,2,0,P|265:268|246:240,1,45,8|0,0:0|0:0,0:0:0:0:
133,214,81440,2,0,P|144:217|178:214,1,45,8|0,0:0|0:0,0:0:0:0:
259,130,81593,2,0,P|250:138|235:169,1,45,8|0,0:0|0:0,0:0:0:0:
212,338,81747,1,8,0:0:0:0:
212,338,81824,1,8,0:0:0:0:
212,338,81901,6,0,P|170:308|127:313,1,90,8|0,0:0|0:0,0:0:0:0:
268,280,82209,2,0,P|255:230|218:206,1,90,8|0,0:0|0:0,0:0:0:0:
347,304,82516,2,0,P|369:257|356:215,1,90,8|0,0:0|0:0,0:0:0:0:
255,77,82824,2,0,L|262:124,1,45,8|0,0:0|0:0,0:0:0:0:
274,65,82978,2,0,L|281:112,1,45,8|0,0:0|0:0,0:0:0:0:
297,53,83132,6,0,B|351:38|351:38|376:6,1,90,8|0,0:0|0:0,0:0:0:0:
507,49,83440,2,0,B|453:64|453:64|428:96,1,90,8|0,0:0|0:0,0:0:0:0:
458,290,83747,2,0,L|414:268,1,45,8|0,0:0|0:0,0:0:0:0:
302,286,83901,2,0,L|339:261,1,45,8|0,0:0|0:0,0:0:0:0:
382,152,84055,2,0,L|384:196,1,45,8|0,0:0|0:0,0:0:0:0:
386,354,84209,1,8,0:0:0:0:
386,354,84286,1,8,0:0:0:0:
386,354,84363,6,0,P|350:309|295:284,1,112.5,12|0,0:0|0:0,0:0:0:0:
112,308,84670,2,0,P|168:299|218:264,1,112.5,8|0,0:0|0:0,0:0:0:0:
286,92,84978,2,0,P|265:145|270:205,1,112.5,8|0,0:0|0:0,0:0:0:0:
151,44,85286,2,0,P|128:29|97:17,1,56.25,8|0,0:0|0:0,0:0:0:0:
132,68,85440,2,0,P|109:53|78:41,1,56.25,8|0,0:0|0:0,0:0:0:0:
114,91,85593,6,0,B|86:124|86:124|94:220,1,135.000005149842,12|0,0:0|0:0,0:0:0:0:
231,364,85901,2,0,B|259:331|259:331|251:235,1,135.000005149842,8|0,0:0|0:0,0:0:0:0:
237,44,86209,2,0,P|260:61|302:71,1,67.5000025749208,8|0,0:0|0:0,0:0:0:0:
368,210,86363,2,0,P|371:181|358:140,1,67.5000025749208,8|0,0:0|0:0,0:0:0:0:
452,11,86516,2,0,P|425:22|396:53,1,67.5000025749208,8|0,0:0|0:0,0:0:0:0:
276,192,86670,1,8,0:0:0:0:
276,192,86747,1,8,0:0:0:0:
276,192,86824,6,0,P|262:275|315:335,1,157.500001502037,12|0,0:0|0:0,0:0:0:0:
217,111,87132,2,0,P|152:57|73:73,1,157.500001502037,8|0,0:0|0:0,0:0:0:0:
329,101,87440,2,0,P|407:71|433:-4,1,157.500001502037,8|0,0:0|0:0,0:0:0:0:
439,271,87747,2,0,L|446:355,1,78.7500007510185,8|0,0:0|0:0,0:0:0:0:
404,283,87901,2,0,L|411:367,1,78.7500007510185,8|0,0:0|0:0,0:0:0:0:
365,296,88055,6,0,B|307:313|307:313|274:298,1,90,8|0,0:0|0:0,0:0:0:0:
147,88,88209,2,0,B|205:71|205:71|238:86,1,90,8|0,0:0|0:0,0:0:0:0:
219,352,88363,6,0,B|186:302|186:302|190:269,1,90,8|0,0:0|0:0,0:0:0:0:
293,32,88516,2,0,B|326:82|326:82|322:115,1,90,8|0,0:0|0:0,0:0:0:0:
80,235,88670,6,0,B|103:206|103:206|161:190,1,90,8|0,0:0|0:0,0:0:0:0:
432,149,88824,2,0,B|409:178|409:178|351:194,1,90,8|0,0:0|0:0,0:0:0:0:
75,82,88978,6,0,B|142:91|142:91|158:116,1,90
437,302,89132,2,0,B|370:293|370:293|354:268,1,90
314,79,89286,6,0,B|363:16|363:16|456:30|456:30|487:119|487:119|434:185|434:185|339:171|339:171|306:82|306:82|261:61|204:78,1,630,4|0,0:2|0:0,0:0:0:0:
163,124,89901,2,0,L|73:142,3,90
26,47,90209,6,0,L|114:29,1,90
149,232,90363,2,0,L|60:249,1,90
309,87,90516,6,0,B|399:102|399:102|451:175|451:175|380:229|380:229|294:215|294:215|235:272|235:272|275:340|275:340|385:363,1,630,4|0,0:0|0:0,0:0:0:0:
252,146,91132,6,0,B|183:207|183:207|95:189|95:189|26:260,1,270,4|0,0:2|0:0,0:0:0:0:
122,282,91440,5,0,0:0:0:0:
158,115,91593,1,0,0:0:0:0:
256,348,91746,5,12,0:0:0:0:
33,252,91901,1,0,0:0:0:0:
256,348,92055,5,8,0:0:0:0:
102,165,92209,1,0,0:0:0:0:
256,348,92363,5,8,0:0:0:0:
199,136,92516,1,0,0:0:0:0:
256,348,92670,5,8,0:0:0:0:
313,136,92824,1,0,0:0:0:0:
256,348,92978,5,8,0:0:0:0:
410,165,93131,1,0,0:0:0:0:
256,348,93286,5,8,0:0:0:0:
479,252,93439,1,0,0:0:0:0:
256,348,93593,6,0,L|187:356,1,67.5000025749208,8|0,0:0|0:0,0:0:0:0:
124,310,93747,2,0,L|116:241,1,67.5000025749208,8|0,0:0|0:0,0:0:0:0:
104,161,93901,5,8,0:0:0:0:
96,107,93978,1,0,0:0:0:0:
88,53,94055,1,8,0:0:0:0:
45,19,94132,1,0,0:0:0:0:
52,72,94209,5,8,0:0:0:0:
186,162,94363,1,0,0:0:0:0:
198,1,94516,1,8,0:0:0:0:
52,72,94670,5,0,0:0:0:0:
41,233,94824,1,0,0:0:0:0:
166,335,94978,1,0,0:0:0:0:
166,335,95055,1,0,0:0:0:0:
166,335,95132,1,8,0:0:0:0:
312,264,95286,5,0,0:0:0:0:
323,103,95440,1,0,0:0:0:0:
198,1,95594,1,0,0:0:0:0:
198,1,95671,1,0,0:0:0:0:
198,1,95746,1,8,0:0:0:0:
231,199,95901,5,0,0:0:0:0:
207,160,96055,1,0,0:0:0:0:
218,120,96209,1,0,0:0:0:0:
252,94,96363,1,8,0:0:0:0:
265,53,96516,1,0,0:0:0:0:
256,36,96670,5,12,0:0:0:0:
33,132,96824,1,0,0:0:0:0:
256,36,96978,5,8,0:0:0:0:
102,219,97132,1,0,0:0:0:0:
256,36,97286,5,8,0:0:0:0:
199,248,97439,1,0,0:0:0:0:
256,36,97593,5,8,0:0:0:0:
313,248,97747,1,0,0:0:0:0:
256,36,97901,5,8,0:0:0:0:
410,219,98054,1,0,0:0:0:0:
256,36,98209,5,8,0:0:0:0:
479,132,98363,2,0,P|444:124|409:102,1,67.5000025749208
256,36,98516,6,0,P|226:26|186:23,1,67.5000025749208,8|0,0:0|0:0,0:0:0:0:
49,122,98670,2,0,P|79:132|119:135,1,67.5000025749208
301,229,98824,2,0,P|271:219|231:216,1,67.5000025749208,8|0,0:0|0:0,0:0:0:0:
94,315,98978,2,0,P|124:325|164:328,1,67.5000025749208
353,286,99132,6,0,P|377:237|338:160,1,135.000005149842,4|0,0:2|0:0,0:0:0:0:
223,61,99440,1,8,0:0:0:0:
194,219,99593,1,0,0:0:0:0:
347,166,99747,2,0,L|418:144,1,67.5000025749208
223,61,99901,2,0,L|152:83,1,67.5000025749208
365,177,100055,2,0,L|502:132,1,135.000005149842,8|0,0:0|0:0,0:0:0:0:
380,252,100363,6,0,P|333:245|294:161,1,135.000005149842
369,31,100670,1,8,0:0:0:0:
206,35,100824,1,0,0:0:0:0:
152,187,100978,1,0,0:0:0:0:
129,235,101055,1,0,0:0:0:0:
106,284,101132,1,0,0:0:0:0:
83,333,101209,1,0,0:0:0:0:
65,281,101286,5,8,0:0:0:0:
49,229,101363,1,0,0:0:0:0:
70,179,101440,1,0,0:0:0:0:
91,130,101516,1,0,0:0:0:0:
122,89,101593,5,12,0:0:0:0:
358,23,101747,1,0,0:0:0:0:
122,89,101901,5,8,0:0:0:0:
400,95,102055,1,0,0:0:0:0:
122,89,102209,5,8,0:0:0:0:
365,166,102363,1,0,0:0:0:0:
42,232,102516,5,8,0:0:0:0:
278,169,102670,1,0,0:0:0:0:
42,232,102824,5,8,0:0:0:0:
320,241,102978,1,0,0:0:0:0:
42,232,103132,5,8,0:0:0:0:
285,312,103286,1,0,0:0:0:0:
42,232,103440,6,0,L|35:156,1,67.5000025749208,8|0,0:0|0:0,0:0:0:0:
72,97,103593,2,0,L|148:90,1,67.5000025749208,8|0,0:0|0:0,0:0:0:0:
206,128,103747,5,8,0:0:0:0:
259,118,103824,1,0,0:0:0:0:
312,108,103901,1,8,0:0:0:0:
336,59,103978,1,0,0:0:0:0:
384,34,104055,6,0,P|442:18|514:74,1,135.000005149842,8|0,0:0|0:0,0:0:0:0:
419,193,104363,1,8,0:0:0:0:
236,97,104516,1,0,0:0:0:0:
151,236,104671,2,0,P|207:271|271:256,1,135.000005149842
236,97,104978,5,8,0:0:0:0:
200,56,105055,1,0,0:0:0:0:
145,55,105132,1,0,0:0:0:0:
108,94,105209,1,0,0:0:0:0:
114,147,105286,1,0,0:0:0:0:
68,304,105440,5,0,0:0:0:0:
101,153,105593,5,8,0:0:0:0:
97,88,105670,1,0,0:0:0:0:
139,43,105747,1,0,0:0:0:0:
206,44,105824,1,0,0:0:0:0:
247,88,105901,6,0,P|277:104|312:113,1,67.5000025749208
490,63,106055,2,0,P|460:47|425:38,1,67.5000025749208
257,243,106209,2,0,P|287:259|322:268,1,67.5000025749208,8|0,0:0|0:0,0:0:0:0:
500,218,106363,2,0,P|470:202|435:193,1,67.5000025749208
196,292,106516,6,0,B|113:325|113:325|18:283,1,180,12|0,0:0|0:0,0:0:0:0:
316,292,106824,2,0,B|399:325|399:325|481:288,1,180,12|0,0:0|0:0,0:0:0:0:
256,24,107132,2,0,L|256:204,1,180,12|0,0:0|0:0,0:0:0:0:
100,36,107440,6,0,P|125:69|185:83,1,90,12|0,0:0|0:0,0:0:0:0:
412,36,107593,2,0,P|387:69|327:83,1,90,12|0,0:0|0:0,0:0:0:0:
43,348,107747,6,0,B|90:272|90:272|178:239,1,180,12|0,0:0|0:0,0:0:0:0:
469,348,108055,2,0,B|422:272|422:272|334:239,1,180,12|0,0:0|0:0,0:0:0:0:
70,33,108363,6,0,L|58:126,1,90,8|0,0:0|0:0,0:0:0:0:
169,199,108516,2,0,L|159:292,1,90,8|0,0:0|0:0,0:0:0:0:
343,199,108670,2,0,L|353:292,1,90,8|0,0:0|0:0,0:0:0:0:
442,33,108824,2,0,L|454:126,1,90,8|0,0:0|0:0,0:0:0:0:
256,360,108978,6,0,B|248:268|248:268|260:176|260:176|256:92,1,270,12|0,0:0|0:0,0:0:0:0:
130,32,109286,2,0,P|110:55|44:73,1,90,12|0,0:0|0:0,0:0:0:0:
382,32,109440,2,0,P|402:55|468:73,1,90,12|0,0:0|0:0,0:0:0:0:
149,173,109593,5,12,0:0:0:0:
108,209,109670,1,0,0:0:0:0:
67,245,109747,1,8,0:0:0:0:
77,297,109824,1,0,0:0:0:0:
88,349,109901,2,0,P|136:336|182:335,1,90,12|0,0:0|0:0,0:0:0:0:
424,349,110055,2,0,P|376:336|330:335,1,90,12|0,0:0|0:0,0:0:0:0:
149,173,110209,6,0,P|124:136|83:117,1,90,8|0,0:0|0:0,0:0:0:0:
207,94,110363,2,0,L|180:4,1,90,8|0,0:0|0:0,0:0:0:0:
305,94,110516,2,0,L|332:4,1,90,8|0,0:0|0:0,0:0:0:0:
363,172,110670,2,0,P|387:136|428:117,1,90,8|0,0:0|0:0,0:0:0:0:
334,351,110824,5,12,0:0:0:0:
297,324,110901,1,0,0:0:0:0:
266,290,110978,1,0,0:0:0:0:
242,251,111055,1,0,0:0:0:0:
225,209,111132,1,12,0:0:0:0:
215,165,111209,1,0,0:0:0:0:
214,119,111286,1,0,0:0:0:0:
224,75,111363,1,0,0:0:0:0:
256,40,111440,5,4,0:2:0:0:
486,62,111747,2,0,L|408:44,1,67.5000025749208,2|0,0:0|0:0,0:0:0:0:
401,53,111901,2,0,L|323:35,1,67.5000025749208,2|0,0:0|0:0,0:0:0:0:
256,40,112055,5,4,0:2:0:0:
359,283,112363,2,0,P|349:249|328:220,1,67.5000025749208,2|0,0:0|0:0,0:0:0:0:
340,208,112516,2,0,P|330:174|309:145,1,67.5000025749208,2|0,0:0|0:0,0:0:0:0:
256,40,112670,5,4,0:2:0:0:
92,281,112978,2,0,B|120:262|120:262|138:232,1,67.5000025749208,2|0,0:0|0:0,0:0:0:0:
134,217,113132,2,0,B|162:198|162:198|180:168,1,67.5000025749208,2|0,0:0|0:0,0:0:0:0:
256,40,113286,5,4,0:2:0:0:
180,24,113593,6,2,P|168:27|146:26,1,33.75
256,40,113901,6,0,L|397:51,1,135.000005149842,12|0,0:0|0:0,0:0:0:0:
188,123,114209,2,0,L|47:134,1,135.000005149842,8|0,0:0|0:0,0:0:0:0:
310,211,114516,2,0,L|451:222,1,135.000005149842,8|0,0:0|0:0,0:0:0:0:
181,340,114824,2,0,L|40:351,1,135.000005149842,8|0,0:0|0:0,0:0:0:0:
418,349,115132,6,0,L|348:344,1,67.5000025749208,8|0,0:0|0:0,0:0:0:0:
281,257,115286,2,0,L|214:253,1,67.5000025749208,8|0,0:0|0:0,0:0:0:0:
466,231,115440,2,0,L|396:226,1,67.5000025749208,8|0,0:0|0:0,0:0:0:0:
329,139,115594,2,0,L|262:135,1,67.5000025749208,8|0,0:0|0:0,0:0:0:0:
111,118,115747,5,8,0:0:0:0:
97,132,115824,1,8,0:0:0:0:
87,149,115901,1,8,0:0:0:0:
83,168,115978,1,8,0:0:0:0:
78,190,116055,6,0,B|70:226|70:250|80:276|95:286|127:281|145:271|154:251|148:223|129:193|79:173|57:164|42:152|25:124|14:92|23:62|47:48,1,360,4|0,0:2|0:0,0:0:0:0:
