osu file format v14

[General]
AudioFilename: audo.mp3
AudioLeadIn: 0
PreviewTime: 28660
Countdown: 0
SampleSet: Normal
StackLeniency: 0.2
Mode: 0
LetterboxInBreaks: 0
WidescreenStoryboard: 1

[Editor]
Bookmarks: 72968
DistanceSpacing: 1
BeatDivisor: 4
GridSize: 16
TimelineZoom: 1.9

[Metadata]
Title:INSOMNIA
TitleUnicode:INSOMNIA
Artist:Jakarta Funk Brothers
ArtistUnicode:ジャカルタファンクブラザーズ
Creator:Lazer
Version:Normal
Source:IIDX 21 SPADA
Tags:REFLEC BEAT groovin' Upper beatmania
BeatmapID:1487240
BeatmapSetID:697421

[Difficulty]
HPDrainRate:6
CircleSize:2
OverallDifficulty:4
ApproachRate:5
SliderMultiplier:0.9
SliderTickRate:1

[Events]
//Background and Video events
0,0,"de29c1062d13ea8f298a9e8afc331a96.jpg",0,0
//Break Periods
//Storyboard Layer 0 (Background)
//Storyboard Layer 1 (Fail)
//Storyboard Layer 2 (Pass)
//Storyboard Layer 3 (Foreground)
//Storyboard Sound Samples

[TimingPoints]
4045,307.692307692308,4,1,0,45,1,0
18814,-83.3333333333333,4,1,0,45,0,0
28660,-83.3333333333333,4,1,0,80,0,1
31121,-83.3333333333333,4,1,0,60,0,0
33583,-83.3333333333333,4,1,0,80,0,1
37275,-83.3333333333333,4,1,0,60,0,0
38506,-83.3333333333333,4,1,0,80,0,1
42506,-83.3333333333333,4,1,0,60,0,0
43891,-83.3333333333333,4,1,0,80,0,1
45891,-83.3333333333333,4,1,0,80,0,1
48352,-83.3333333333333,4,1,0,80,0,0
74198,-73.5294117647059,4,1,0,80,0,0
82198,-79.3650793650794,4,1,0,80,0,0
95121,-79.3650793650794,4,1,0,80,0,1
97583,-79.3650793650794,4,1,0,80,0,1
100045,-79.3650793650794,4,1,0,80,0,1
107429,-78.125,4,1,0,80,0,1
109891,-79.3650793650794,4,1,0,80,0,1
114814,-79.3650793650794,4,1,0,80,0,0
117275,-86.9565217391303,4,1,0,90,0,0

[HitObjects]
64,96,6506,6,0,L|168:66,1,90
240,96,7121,2,0,L|213:201,1,90
152,248,7737,2,0,L|74:172,2,90
221,304,8660,1,0,0:0:0:0:
301,263,8968,6,0,P|344:254|389:261,1,90
460,316,9583,1,0,0:0:0:0:
468,226,9891,2,0,P|458:182|465:137,1,90
431,54,10506,1,0,0:0:0:0:
344,79,10814,1,0,0:0:0:0:
344,79,11121,1,0,0:0:0:0:
287,149,11429,6,0,P|293:193|284:237,1,90
268,325,12045,2,0,L|165:304,1,90
93,280,12660,6,0,P|116:243|125:195,1,90
62,133,13275,2,0,L|46:75,2,45
150,114,13891,6,0,L|242:124,1,90
283,45,14506,2,0,L|372:34,1,90
451,76,15121,2,0,L|461:165,1,90
381,209,15737,2,0,L|366:297,1,90
302,361,16352,6,0,L|213:346,1,90
153,279,16968,1,0,0:0:0:0:
79,330,17275,1,0,0:0:0:0:
71,240,17583,1,0,0:0:0:0:
370,40,18814,6,0,P|355:91|364:152,1,107.999996704102
420,233,19429,2,0,P|427:286|412:338,1,107.999996704102
305,320,20045,5,0,0:0:0:0:
256,307,20198,1,0,0:0:0:0:
207,320,20352,1,0,0:0:0:0:
100,338,20660,6,0,P|84:286|91:233,1,107.999996704102
150,144,21275,2,0,P|157:91|142:40,1,107.999996704102
51,99,21891,2,0,L|-9:91,2,53.9999983520508
150,144,22506,6,0,P|205:119|255:121,1,107.999996704102
346,62,23121,2,0,P|384:99|434:117,1,107.999996704102
483,213,23737,6,0,L|537:179,2,53.9999983520508
432,308,24352,2,0,P|394:269|376:219,1,107.999996704102
296,146,24968,5,0,0:0:0:0:
256,140,25121,1,0,0:0:0:0:
216,146,25275,1,0,0:0:0:0:
135,219,25583,2,0,P|117:269|80:308,1,107.999996704102
27,213,26198,6,0,P|44:162|82:124,1,107.999996704102
189,129,26814,2,0,L|315:149,2,107.999996704102
142,31,27737,1,0,0:0:0:0:
81,124,28045,2,0,L|61:244,1,107.999996704102
160,277,28660,6,0,B|174:193|174:193|195:152,1,107.999996704102
270,123,29275,2,0,B|291:133|291:133|375:147,1,107.999996704102
473,193,29891,6,0,P|435:241|385:256,1,107.999996704102
417,358,30506,2,0,L|310:336,1,107.999996704102
256,328,30968,1,0,0:0:0:0:
200,336,31121,2,0,L|95:358,1,107.999996704102
20,279,31737,2,0,L|125:257,1,107.999996704102
166,156,32352,2,0,L|60:177,2,107.999996704102
261,98,33275,1,0,0:0:0:0:
356,46,33583,6,0,P|407:51|458:89,1,107.999996704102
443,190,34198,2,0,P|412:233|406:286,1,107.999996704102
324,355,34814,6,0,P|271:363|221:344,1,107.999996704102
288,263,35429,2,0,P|297:209|280:143,1,107.999996704102
223,68,36045,6,0,L|103:84,1,107.999996704102
75,182,36660,6,0,L|194:165,1,107.999996704102
163,273,37275,6,0,L|48:289,2,107.999996704102
256,336,38198,1,0,0:0:0:0:
337,251,38506,6,0,L|462:268,1,107.999996704102
484,229,38968,1,0,0:0:0:0:
484,229,39121,2,0,P|500:180|492:120,1,107.999996704102
413,51,39737,6,0,L|297:65,1,107.999996704102
245,153,40352,2,0,L|259:269,1,107.999996704102
263,368,40968,6,0,L|387:351,1,107.999996704102
465,302,41583,6,0,P|424:271|396:213,1,107.999996704102
384,114,42198,6,0,L|501:99,2,107.999996704102
278,136,43121,1,0,0:0:0:0:
173,108,43429,6,0,L|51:77,1,107.999996704102
36,185,44045,2,0,P|51:234|37:289,1,107.999996704102
117,361,44660,6,0,L|250:352,1,107.999996704102
211,246,45275,1,0,0:0:0:0:
310,289,45583,1,0,0:0:0:0:
403,344,45891,6,0,P|400:296|438:235,1,107.999996704102
418,136,46506,2,0,P|359:148|298:151,1,107.999996704102
200,151,47121,2,0,P|146:147|93:135,1,107.999996704102
83,243,47737,2,0,P|110:298|108:359,2,107.999996704102
190,234,48660,6,0,P|249:249|313:230,1,107.999996704102
247,142,49275,2,0,P|306:127|370:146,1,107.999996704102
426,214,49891,2,0,L|422:337,2,107.999996704102
417,106,50814,5,0,0:0:0:0:
309,94,51121,1,0,0:0:0:0:
203,94,51429,1,0,0:0:0:0:
95,106,51736,1,0,0:0:0:0:
160,194,52045,2,0,P|161:219|152:258,4,53.9999983520508
417,131,53275,6,0,P|423:191|409:250,1,107.999996704102
366,334,53891,2,0,P|317:292|297:230,1,107.999996704102
294,145,54506,2,0,P|305:81|349:33,1,107.999996704102
222,41,55121,2,0,P|172:76|112:82,1,107.999996704102
183,175,55737,6,0,P|204:235|190:299,1,107.999996704102
100,322,56352,2,0,L|35:316,2,53.9999983520508
196,371,56968,6,0,B|232:374|263:349|263:349|313:354,1,107.999996704102
397,309,57583,2,0,P|404:338|421:363,2,53.9999983520508
435,208,58198,6,0,P|441:149|409:98,1,107.999996704102
322,58,58814,2,0,P|315:117|347:168,1,107.999996704102
352,265,59429,6,0,L|223:248,1,107.999996704102
141,282,60045,2,0,P|138:221|168:163,1,107.999996704102
193,77,60660,6,0,L|62:92,1,107.999996704102
48,191,61275,2,0,L|178:175,1,107.999996704102
263,182,61891,6,0,P|274:214|272:259,2,53.9999983520508
318,89,62506,2,0,P|307:57|309:12,2,53.9999983520508
401,157,63121,6,0,P|413:208|408:281,1,107.999996704102
336,341,63737,1,0,0:0:0:0:
289,233,64045,1,0,0:0:0:0:
202,313,64352,6,0,L|81:319,1,107.999996704102
53,218,64968,2,0,L|173:211,1,107.999996704102
246,146,65583,5,0,0:0:0:0:
141,87,65891,1,0,0:0:0:0:
227,23,66198,2,0,L|349:29,1,107.999996704102
432,75,66814,6,0,P|409:125|425:197,1,107.999996704102
428,283,67429,2,0,P|446:320|447:354,2,53.9999983520508
332,234,68045,6,0,L|210:252,1,107.999996704102
168,157,68660,2,0,L|289:139,1,107.999996704102
356,70,69275,2,0,P|374:126|427:154,1,107.999996704102
429,258,69891,2,0,P|375:285|357:342,1,107.999996704102
277,253,70506,6,0,P|218:255|151:225,1,107.999996704102
66,217,71121,1,0,0:0:0:0:
138,136,71429,1,0,0:0:0:0:
172,239,71737,6,0,P|174:298|144:364,2,107.999996704102
241,155,72660,1,0,0:0:0:0:
241,155,72968,1,0,0:0:0:0:
413,52,74198,6,0,B|383:118|383:118|334:142|330:196|297:281|414:300|465:241|427:195|427:195|451:178|451:178|496:79,1,489.600002988281
250,57,76045,2,0,B|5:57|6:147|236:147|236:147|176:178|146:237,1,489.600002988281
429,200,77891,6,0,B|366:214|366:214|354:233|354:233|335:221|335:221|273:235|273:235|229:262|225:312|225:312|251:355|301:360|301:360|348:349|348:349|367:361|367:361|379:342|379:342|442:328,1,489.600002988281
159,87,80352,6,0,B|102:75|47:43|47:43|79:98|88:160,1,244.800001494141
377,313,82198,5,0,0:0:0:0:
471,87,82814,6,2,L|471:209,1,113.399996539307
380,132,83429,2,0,L|380:18,1,113.399996539307
289,88,84045,2,2,P|240:123|178:114,1,113.399996539307
79,148,84660,2,0,L|48:91,2,56.6999982696534
166,220,85275,6,0,P|189:282|172:349,1,113.399996539307
294,344,85891,2,0,L|428:344,1,113.399996539307
412,230,86506,6,0,L|277:230,1,113.399996539307
280,117,87121,2,0,L|357:117,2,56.6999982696534
170,85,87737,6,0,L|91:85,1,56.6999982696534
100,140,88045,2,0,L|44:194,1,56.6999982696534
86,229,88352,2,0,L|86:306,1,56.6999982696534
140,303,88660,2,0,L|194:357,1,56.6999982696534
231,317,88968,6,0,P|284:329|360:317,1,113.399996539307
454,304,89583,2,0,P|452:332|443:358,2,56.6999982696534
475,192,90198,2,0,P|465:163|465:132,1,56.6999982696534
416,95,90506,2,0,P|387:85|356:85,1,56.6999982696534
297,102,90814,2,0,P|269:115|248:137,1,56.6999982696534
217,191,91121,2,0,P|207:219|207:250,1,56.6999982696534
256,192,91429,12,0,93891,0:0:0:0:
72,92,94968,5,0,0:0:0:0:
39,138,95121,2,0,L|62:265,1,113.399996539307
92,358,95737,2,0,P|148:335|219:348,1,113.399996539307
255,346,96198,1,0,0:0:0:0:
255,346,96352,6,0,P|311:350|362:327,1,113.399996539307
473,303,96968,2,0,P|481:328|483:358,2,56.6999982696534
423,201,97583,6,0,P|408:173|404:142,1,56.6999982696534
421,94,97891,2,0,P|436:66|440:35,1,56.6999982696534
383,34,98198,2,0,P|351:35|322:47,1,56.6999982696534
271,51,98506,2,0,P|244:60|216:61,1,56.6999982696534
171,97,98814,6,0,P|172:135|163:174,1,56.6999982696534
146,205,99121,1,0,0:0:0:0:
146,205,99275,1,0,0:0:0:0:
146,205,99429,2,0,P|169:249|145:313,1,113.399996539307
266,316,100045,6,0,P|319:332|393:320,1,113.399996539307
447,238,100660,2,0,P|387:219|324:225,1,113.399996539307
307,173,101121,1,0,0:0:0:0:
307,173,101275,2,0,P|244:178|184:160,1,113.399996539307
108,92,101891,2,0,P|103:61|108:25,2,56.6999982696534
74,200,102506,6,0,P|78:262|54:320,1,113.399996539307
113,332,102968,1,0,0:0:0:0:
113,332,103121,2,0,P|171:354|233:349,1,113.399996539307
290,262,103737,6,0,P|284:230|284:191,1,56.6999982696534
324,166,104045,2,0,P|323:134|317:103,1,56.6999982696534
275,73,104352,2,0,P|243:73|212:79,1,56.6999982696534
187,126,104660,2,0,P|155:125|124:119,1,56.6999982696534
73,116,104968,6,0,B|80:198|80:198|113:238,1,113.399996539307
109,335,105583,2,0,P|172:312|207:257,1,113.399996539307
271,192,106198,2,0,P|308:150|361:133,1,113.399996539307
370,247,106813,2,0,P|369:283|351:324,2,56.6999982696534
361,133,107429,6,0,L|334:60,1,57.6
308,30,107737,2,0,L|381:3,1,57.6
418,26,108045,2,0,L|444:98,1,57.6
468,128,108352,2,0,L|454:204,1,57.6
460,241,108660,6,0,L|409:300,1,57.6
381,326,108968,1,0,0:0:0:0:
381,326,109121,1,0,0:0:0:0:
381,326,109275,2,0,P|335:298|273:307,1,115.2
286,193,109891,6,0,P|285:136|256:87,2,113.399996539307
176,167,110814,1,0,0:0:0:0:
65,193,111121,6,0,P|66:249|95:299,2,113.399996539307
49,81,112045,2,0,L|125:64,1,56.6999982696534
154,43,112352,2,0,L|275:59,1,113.399996539307
378,74,112968,2,0,L|450:83,1,56.6999982696534
432,138,113275,2,0,L|476:196,1,56.6999982696534
424,221,113583,6,0,L|414:293,2,56.6999982696534
315,255,114198,2,0,L|305:327,2,56.6999982696534
206,289,114814,6,0,L|82:272,1,113.399996539307
173,193,115429,2,0,L|49:176,1,113.399996539307
140,97,116045,2,0,L|16:80,2,113.399996539307
251,119,116968,1,0,0:0:0:0:
338,64,117275,6,0,P|352:136|341:171,1,103.500001974106
256,219,117891,2,0,P|247:269|262:318,1,103.500001974106
359,355,118506,6,0,L|422:347,1,51.7500009870529
403,296,118814,2,0,L|441:245,1,51.7500009870529
392,223,119121,2,0,L|384:160,1,51.7500009870529
332,179,119429,1,0,0:0:0:0:
