osu file format v14

[General]
AudioFilename: audo.mp3
AudioLeadIn: 0
PreviewTime: 28660
Countdown: 0
SampleSet: Normal
StackLeniency: 0.2
Mode: 0
LetterboxInBreaks: 0
WidescreenStoryboard: 1

[Editor]
Bookmarks: 72968
DistanceSpacing: 1
BeatDivisor: 4
GridSize: 16
TimelineZoom: 1.9

[Metadata]
Title:INSOMNIA
TitleUnicode:INSOMNIA
Artist:Jakarta Funk Brothers
ArtistUnicode:ジャカルタファンクブラザーズ
Creator:Lazer
Version:Insane
Source:IIDX 21 SPADA
Tags:REFLEC BEAT groovin' Upper beatmania
BeatmapID:1480526
BeatmapSetID:697421

[Difficulty]
HPDrainRate:6
CircleSize:3.3
OverallDifficulty:7
ApproachRate:9
SliderMultiplier:1.6
SliderTickRate:2

[Events]
//Background and Video events
0,0,"de29c1062d13ea8f298a9e8afc331a96.jpg",0,0
//Break Periods
//Storyboard Layer 0 (Background)
//Storyboard Layer 1 (Fail)
//Storyboard Layer 2 (Pass)
//Storyboard Layer 3 (Foreground)
//Storyboard Sound Samples

[TimingPoints]
4045,307.692307692308,4,1,0,45,1,0
8968,-133.333333333333,4,1,0,45,0,0
13891,-98.0392156862745,4,1,0,55,0,0
17891,-133.333333333333,4,1,0,55,0,0
18506,-86.9565217391303,4,1,0,55,0,0
18814,-88.4955752212389,4,1,0,60,0,0
26198,-100,4,1,0,60,0,0
28352,-178.571428571429,4,1,0,60,0,0
28660,-76.9230769230769,4,1,0,80,0,1
31121,-73.5294117647059,4,1,0,60,0,0
33583,-76.9230769230769,4,1,0,80,0,1
37275,-76.9230769230769,4,1,0,60,0,0
38506,-76.9230769230769,4,1,0,80,0,1
42506,-90.9090909090909,4,1,0,60,0,0
43121,-73.5294117647059,4,1,0,60,0,0
43429,-71.4285714285714,4,1,0,60,0,0
43891,-178.571428571429,4,1,0,80,0,1
45891,-73.5294117647059,4,1,0,80,0,1
48352,-153.846153846153,4,1,0,70,0,0
50814,-83.3333333333333,4,1,0,70,0,0
53275,-100,4,1,0,50,0,0
57583,-73.5294117647059,4,1,0,65,0,0
57891,-94.3396226415094,4,1,0,65,0,0
58198,-100,4,1,0,50,0,0
61891,-94.3396226415094,4,1,0,65,0,0
63121,-100,4,1,0,60,0,0
66814,-94.3396226415094,4,1,0,60,0,0
68045,-100,4,1,0,60,0,0
71737,-133.333333333333,4,1,0,60,0,0
72352,-79.3650793650794,4,1,0,60,0,0
72968,-200,4,1,0,60,0,0
77891,-166.666666666667,4,1,0,60,0,0
80352,-200,4,1,0,60,0,0
80968,-153.846153846154,4,1,0,60,0,0
82814,-153.846153846154,4,1,0,70,0,0
87737,-95.2380952380953,4,1,0,80,0,0
90198,-74.0740740740741,4,1,0,60,0,0
93891,-74.0740740740741,4,1,0,30,0,0
94506,-200,4,1,0,60,0,0
94968,-200,4,1,0,70,0,0
95121,-79.3650793650794,4,1,0,80,0,1
97583,-71.4285714285714,4,1,0,80,0,1
100045,-71.4285714285714,4,1,0,80,0,1
107429,-78.125,4,1,0,80,0,1
109891,-79.3650793650794,4,1,0,80,0,1
114814,-133.333333333333,4,1,0,90,0,0
117275,-86.9565217391303,4,1,0,90,0,0

[HitObjects]
64,160,6506,5,0,0:0:0:0:
48,192,7121,1,0,0:0:0:0:
32,224,7737,1,0,0:0:0:0:
48,192,8045,1,0,0:0:0:0:
64,160,8352,1,0,0:0:0:0:
16,80,8660,1,0,0:0:0:0:
210,96,8968,6,0,P|180:94|150:90,1,60.0000022888184
269,34,9275,1,0,0:0:0:0:
284,235,9583,2,0,P|285:175|292:115,1,120.000004577637
364,182,10045,6,0,P|416:199|479:166,1,120.000004577637
414,118,10506,1,0,0:0:0:0:
495,95,10660,1,0,0:0:0:0:
413,27,10814,2,0,L|326:15,1,60.0000022888184
286,79,11121,1,0,0:0:0:0:
201,51,11275,1,0,0:0:0:0:
219,139,11429,6,0,P|219:168|216:198,1,60.0000022888184
185,277,11737,1,0,0:0:0:0:
185,277,12045,2,0,B|150:266|150:266|106:279|106:279|69:269,1,120.000004577637
18,202,12506,1,0,0:0:0:0:
44,124,12660,6,0,P|70:139|91:161,1,60.0000022888184
169,192,12968,2,0,P|198:192|227:185,1,60.0000022888184
188,97,13275,6,0,P|182:77|180:57,2,40.000001525879
267,62,13583,2,0,P|295:54|325:55,1,60.0000022888184
399,5,13891,5,0,0:0:0:0:
358,111,14198,1,0,0:0:0:0:
317,217,14506,1,0,0:0:0:0:
276,323,14814,1,0,0:0:0:0:
389,306,14968,1,0,0:0:0:0:
317,217,15121,5,0,0:0:0:0:
431,200,15429,5,0,0:0:0:0:
389,306,15737,1,0,0:0:0:0:
335,83,16045,1,0,0:0:0:0:
317,217,16198,1,0,0:0:0:0:
356,210,16275,1,0,0:0:0:0:
395,204,16352,6,0,B|428:201|428:201|443:195|443:195|475:192,1,81.6000004980469
395,129,16660,1,0,0:0:0:0:
395,279,16814,1,0,0:0:0:0:
472,114,16968,1,0,0:0:0:0:
472,274,17122,1,0,0:0:0:0:
356,210,17275,1,0,0:0:0:0:
356,210,17352,1,0,0:0:0:0:
356,210,17429,1,0,0:0:0:0:
356,210,17506,1,0,0:0:0:0:
356,210,17583,5,0,0:0:0:0:
357,37,17891,1,0,0:0:0:0:
252,97,18198,1,0,0:0:0:0:
260,7,18352,1,0,0:0:0:0:
260,7,18429,1,0,0:0:0:0:
260,7,18506,6,0,P|249:52|253:98,1,92.0000017547608
260,249,18814,5,0,0:0:0:0:
299,167,18968,1,0,0:0:0:0:
388,167,19121,1,0,0:0:0:0:
427,249,19275,1,0,0:0:0:0:
388,331,19429,1,0,0:0:0:0:
299,331,19582,1,0,0:0:0:0:
260,249,19737,2,0,L|357:249,1,90.4000002758789
479,175,20045,6,0,L|476:125,1,45.2000001379395
452,144,20198,2,0,L|449:94,1,45.2000001379395
425,113,20352,2,0,L|422:63,1,45.2000001379395
398,82,20506,2,0,L|395:32,1,45.2000001379395
371,113,20660,6,0,L|373:67,1,45.2000001379395
344,144,20814,2,0,L|346:98,1,45.2000001379395
317,175,20968,1,0,0:0:0:0:
400,192,21121,1,0,0:0:0:0:
483,209,21275,6,0,L|295:248,1,180.800000551758
205,246,21737,2,0,L|29:209,1,180.800000551758
76,132,22198,2,0,P|106:97|110:49,1,90.4000002758789
36,67,22506,5,0,0:0:0:0:
160,144,22660,1,0,0:0:0:0:
256,32,22814,1,0,0:0:0:0:
256,32,23121,5,0,0:0:0:0:
352,144,23275,1,0,0:0:0:0:
469,70,23429,1,0,0:0:0:0:
384,64,23583,1,0,0:0:0:0:
442,151,23737,6,0,P|451:203|448:253,1,90.4000002758789
427,344,24045,2,0,L|325:350,1,90.4000002758789
250,378,24352,1,0,0:0:0:0:
272,288,24506,1,0,0:0:0:0:
187,321,24660,2,0,L|85:327,1,90.4000002758789
15,233,24968,6,0,L|18:283,1,45.2000001379395
42,264,25121,2,0,L|45:314,1,45.2000001379395
69,295,25275,2,0,L|72:345,1,45.2000001379395
96,326,25429,2,0,L|99:376,1,45.2000001379395
123,295,25583,6,0,L|121:341,1,45.2000001379395
150,264,25737,2,0,L|148:310,1,45.2000001379395
177,233,25891,1,0,0:0:0:0:
94,216,26044,1,0,0:0:0:0:
166,132,26198,6,0,P|214:134|264:124,1,80
187,32,26506,2,0,P|139:30|89:40,1,80
54,159,26814,2,0,P|67:240|63:324,1,160
63,317,27275,1,0,0:0:0:0:
63,317,27583,5,0,0:0:0:0:
63,316,27737,2,0,P|102:309|142:309,1,80
209,264,28045,1,0,0:0:0:0:
275,307,28198,1,0,0:0:0:0:
324,223,28352,6,0,P|301:224|279:228,1,44.800000546875
372,306,28660,6,0,P|407:270|419:216,1,103.999995239258
419,220,28891,1,0,0:0:0:0:
419,220,28968,1,0,0:0:0:0:
391,95,29121,1,0,0:0:0:0:
285,28,29275,1,0,0:0:0:0:
162,56,29429,1,0,0:0:0:0:
94,162,29583,1,0,0:0:0:0:
122,284,29737,1,0,0:0:0:0:
122,284,29814,1,0,0:0:0:0:
122,284,29891,5,0,0:0:0:0:
94,162,30045,1,0,0:0:0:0:
162,56,30199,1,0,0:0:0:0:
285,28,30353,1,0,0:0:0:0:
391,95,30507,1,0,0:0:0:0:
279,153,30660,1,0,0:0:0:0:
285,28,30814,1,0,0:0:0:0:
391,95,30968,1,0,0:0:0:0:
419,220,31121,6,0,L|400:352,1,108.800000664063
320,368,31429,2,0,L|335:260,1,108.800000664063
334,260,31737,1,0,0:0:0:0:
334,260,31891,1,0,0:0:0:0:
334,260,32045,1,0,0:0:0:0:
234,301,32198,1,0,0:0:0:0:
249,193,32352,5,0,0:0:0:0:
149,233,32506,1,0,0:0:0:0:
163,125,32660,2,0,L|61:166,1,108.800000664063
48,273,32968,2,0,L|149:231,1,108.800000664063
234,301,33275,2,0,L|132:342,1,108.800000664063
148,232,33583,5,0,0:0:0:0:
341,299,33737,1,0,0:0:0:0:
341,299,33814,1,0,0:0:0:0:
341,299,33891,1,0,0:0:0:0:
393,192,34045,1,0,0:0:0:0:
393,192,34121,1,0,0:0:0:0:
393,192,34198,1,0,0:0:0:0:
341,84,34352,1,0,0:0:0:0:
341,84,34429,1,0,0:0:0:0:
341,84,34506,1,0,0:0:0:0:
225,58,34660,1,0,0:0:0:0:
225,58,34737,1,0,0:0:0:0:
225,58,34814,5,0,0:0:0:0:
341,84,34968,1,0,0:0:0:0:
393,192,35121,1,0,0:0:0:0:
341,299,35275,1,0,0:0:0:0:
274,200,35429,1,0,0:0:0:0:
393,192,35583,1,0,0:0:0:0:
341,299,35737,1,0,0:0:0:0:
225,325,35891,1,0,0:0:0:0:
132,251,36045,6,0,P|156:201|156:123,1,103.999995239258
82,32,36352,2,0,P|59:78|53:130,1,103.999995239258
160,153,36660,1,0,0:0:0:0:
221,69,36814,1,0,0:0:0:0:
299,190,36968,2,0,P|321:143|327:91,1,103.999995239258
407,4,37275,6,0,P|491:41|442:119,1,207.999990478516
327,91,37737,1,0,0:0:0:0:
500,194,37891,2,0,L|398:213,1,103.999995239258
299,190,38198,1,0,0:0:0:0:
299,190,38352,1,0,0:0:0:0:
271,289,38506,5,0,0:0:0:0:
371,264,38660,1,0,0:0:0:0:
371,264,38737,1,0,0:0:0:0:
371,264,38814,1,0,0:0:0:0:
383,145,38968,1,0,0:0:0:0:
383,145,39045,1,0,0:0:0:0:
383,145,39121,1,0,0:0:0:0:
299,62,39275,1,0,0:0:0:0:
181,75,39429,1,0,0:0:0:0:
118,176,39583,1,0,0:0:0:0:
118,176,39660,1,0,0:0:0:0:
118,176,39737,5,0,0:0:0:0:
181,75,39891,1,0,0:0:0:0:
299,62,40045,1,0,0:0:0:0:
383,145,40198,1,0,0:0:0:0:
269,176,40352,1,0,0:0:0:0:
299,62,40506,1,0,0:0:0:0:
383,145,40659,1,0,0:0:0:0:
371,264,40814,1,0,0:0:0:0:
270,327,40968,6,0,L|171:293,1,103.999995239258
156,197,41275,2,0,L|255:231,1,103.999995239258
240,135,41583,2,0,L|141:101,1,103.999995239258
256,32,41891,1,0,0:0:0:0:
256,32,42045,1,0,0:0:0:0:
337,97,42198,6,0,L|435:130,1,103.999995239258
416,246,42506,2,0,L|332:217,1,88.000002685547
313,333,42814,6,0,L|401:362,2,58.6666684570313
258,281,43121,2,0,L|149:318,1,108.800000664063
138,241,43429,5,0,0:0:0:0:
138,241,43506,1,0,0:0:0:0:
138,241,43583,1,0,0:0:0:0:
138,241,43660,1,0,0:0:0:0:
138,241,43737,6,0,P|127:177|143:125,1,111.999996582031
139,132,43968,1,0,0:0:0:0:
139,132,44045,1,0,0:0:0:0:
223,63,44198,1,0,0:0:0:0:
223,63,44275,1,0,0:0:0:0:
223,63,44352,1,0,0:0:0:0:
331,88,44506,1,0,0:0:0:0:
331,88,44583,1,0,0:0:0:0:
331,88,44660,5,0,0:0:0:0:
223,63,44814,1,0,0:0:0:0:
139,132,44968,1,0,0:0:0:0:
138,241,45121,1,0,0:0:0:0:
233,188,45275,1,0,0:0:0:0:
139,132,45429,1,0,0:0:0:0:
138,241,45582,1,0,0:0:0:0:
223,310,45737,1,0,0:0:0:0:
331,286,45891,6,0,L|394:291,4,54.4000003320313
257,205,46352,1,0,0:0:0:0:
336,130,46506,1,0,0:0:0:0:
256,55,46660,1,0,0:0:0:0:
177,130,46814,2,0,P|115:132|45:122,1,108.800000664063
29,43,47121,5,0,0:0:0:0:
54,127,47275,1,0,0:0:0:0:
89,207,47429,2,0,P|105:264|138:325,1,108.800000664063
215,384,47737,1,0,0:0:0:0:
256,288,47891,1,0,0:0:0:0:
297,384,48045,1,0,0:0:0:0:
384,308,48198,1,0,0:0:0:0:
423,206,48352,6,0,P|405:154|378:107,1,103.999995239258
256,32,48814,1,0,0:0:0:0:
130,111,48968,2,0,P|105:156|89:206,1,103.999995239258
112,304,49429,1,0,0:0:0:0:
208,368,49583,6,0,P|254:353|305:369,1,103.999995239258
400,304,50045,1,0,0:0:0:0:
422,205,50199,2,0,P|407:156|382:111,1,103.999995239258
256,32,50814,5,0,0:0:0:0:
256,32,51121,1,0,0:0:0:0:
256,32,51429,1,0,0:0:0:0:
256,32,51737,1,0,0:0:0:0:
256,32,52045,5,0,0:0:0:0:
192,112,52198,1,0,0:0:0:0:
320,112,52352,1,0,0:0:0:0:
192,192,52506,1,0,0:0:0:0:
320,192,52660,1,0,0:0:0:0:
320,206,52736,1,0,0:0:0:0:
320,220,52813,1,0,0:0:0:0:
320,235,52890,1,0,0:0:0:0:
320,249,52967,1,0,0:0:0:0:
96,304,53275,6,0,P|80:256|80:208,1,80
92,147,53583,2,0,P|88:107|74:69,1,80
129,11,53891,1,0,0:0:0:0:
204,36,54045,1,0,0:0:0:0:
242,105,54198,2,0,P|228:142|224:182,1,80
238,262,54506,6,0,P|234:301|220:339,2,80
224,182,54968,1,0,0:0:0:0:
300,210,55121,2,0,P|340:203|380:207,1,80
442,156,55429,2,0,P|448:116|444:76,1,80
393,15,55737,6,0,P|353:8|313:12,1,80
244,53,56045,1,0,0:0:0:0:
314,93,56198,1,0,0:0:0:0:
244,133,56352,2,0,P|204:137|165:131,1,80
95,91,56660,1,0,0:0:0:0:
95,91,56814,1,0,0:0:0:0:
64,245,56968,6,0,P|60:205|67:166,1,80
97,11,57275,2,0,P|100:50|94:90,1,80
67,166,57583,6,0,P|84:186|109:202,3,54.4000003320313
180,167,57891,2,0,P|222:156|266:157,1,84.8000001293945
359,34,58198,6,0,L|351:149,1,80
334,192,58506,2,0,L|342:307,1,80
409,310,58814,1,0,0:0:0:0:
478,348,58968,1,0,0:0:0:0:
477,270,59121,2,0,L|482:190,1,80
463,112,59429,6,0,L|457:32,1,80
374,79,59737,2,0,P|334:84|294:81,1,80
210,29,60045,2,0,L|205:109,1,80
140,156,60352,1,0,0:0:0:0:
140,156,60506,1,0,0:0:0:0:
237,226,60660,6,0,P|238:265|232:305,1,80
101,346,60968,2,0,P|99:306|105:266,1,80
260,221,61275,2,0,P|261:260|255:300,1,80
123,340,61583,2,0,P|121:300|127:260,1,80
140,155,61891,6,0,P|113:76|18:83,1,169.600000258789
5,148,62352,1,0,0:0:0:0:
126,260,62506,2,0,P|183:252|215:228,1,84.8000001293945
219,132,62814,2,0,P|162:140|130:164,1,84.8000001293945
282,276,63121,6,0,P|291:234|281:193,1,80
327,130,63429,2,0,P|319:90|327:52,1,80
406,91,63737,1,0,0:0:0:0:
406,91,63891,1,0,0:0:0:0:
484,52,64045,2,0,P|492:90|485:130,1,80
407,222,64352,6,0,L|327:225,1,80
254,190,64660,2,0,P|248:226|257:269,1,80
262,347,64968,1,0,0:0:0:0:
328,303,65121,1,0,0:0:0:0:
257,268,65275,1,0,0:0:0:0:
333,382,65429,1,0,0:0:0:0:
394,260,65583,6,0,L|389:180,1,80
312,45,65891,2,0,L|316:124,1,80
389,180,66198,1,0,0:0:0:0:
389,180,66352,1,0,0:0:0:0:
461,124,66506,2,0,L|456:44,1,80
312,45,66814,6,0,P|269:46|228:57,1,84.8000001293945
105,147,67121,2,0,P|147:145|188:134,1,84.8000001293945
288,180,67429,1,0,0:0:0:0:
295,205,67505,1,0,0:0:0:0:
298,230,67582,1,0,0:0:0:0:
297,256,67659,1,0,0:0:0:0:
292,281,67737,2,0,B|289:312|289:312|294:339|294:339|289:372,1,84.8000001293945
188,308,68045,6,0,P|152:293|112:288,1,80
16,213,68352,2,0,L|114:193,1,80
198,207,68660,1,0,0:0:0:0:
198,207,68814,1,0,0:0:0:0:
189,103,68968,2,0,L|90:122,1,80
263,21,69275,6,0,L|282:119,1,80
347,21,69583,2,0,L|366:119,1,80
431,21,69891,2,0,L|450:119,1,80
403,171,70198,1,0,0:0:0:0:
403,171,70352,1,0,0:0:0:0:
372,264,70506,6,0,P|411:267|450:257,1,80
434,78,70814,2,0,P|394:74|355:84,1,80
313,189,71121,2,0,P|274:198|234:195,1,80
200,88,71429,2,0,P|160:84|121:94,1,80
79,199,71737,6,0,B|79:175|55:147|55:147|35:118|39:88,2,120.000004577637
79,199,72506,1,0,0:0:0:0:
79,199,72660,1,0,0:0:0:0:
79,199,72968,5,0,0:0:0:0:
147,240,73583,1,0,0:0:0:0:
215,281,74198,5,0,0:0:0:0:
283,322,74814,1,0,0:0:0:0:
288,84,75429,6,0,B|325:76|325:76|369:87|369:87|419:78,1,120
470,30,76045,2,0,B|502:83|467:132|467:132|487:188|487:188|466:223|466:285|466:285|447:256|414:244,1,320
382,336,77891,6,0,B|336:360|296:336|296:284|336:262|336:262|344:220|344:220|325:200|325:200|352:141|317:83,1,335.999989746094
240,147,79121,2,0,B|217:184|217:184|234:251|189:224|195:292|195:292|177:323,1,191.999994140625
178,320,80045,1,0,0:0:0:0:
98,268,80352,2,0,B|103:224|126:192|126:192|115:170|94:166,1,120
23,120,80968,6,0,B|72:64|140:91|140:91|174:61|174:61|208:111|208:111|235:80|301:80|333:113,1,363.999983337403
382,176,82198,2,0,P|411:132|404:67,1,103.999995239258
403,286,82814,5,0,0:0:0:0:
377,291,83121,1,0,0:0:0:0:
351,296,83429,1,0,0:0:0:0:
325,303,83737,1,0,0:0:0:0:
319,211,83891,1,0,0:0:0:0:
299,310,84045,5,0,0:0:0:0:
213,310,84352,1,0,0:0:0:0:
187,303,84660,1,0,0:0:0:0:
193,211,84814,1,0,0:0:0:0:
161,296,84968,1,0,0:0:0:0:
135,291,85121,1,0,0:0:0:0:
135,291,85198,1,0,0:0:0:0:
135,291,85276,1,0,0:0:0:0:
109,286,85583,5,0,0:0:0:0:
31,238,85891,1,0,0:0:0:0:
105,145,86198,1,0,0:0:0:0:
108,170,86352,1,0,0:0:0:0:
111,195,86506,5,0,0:0:0:0:
179,52,86813,1,0,0:0:0:0:
198,67,87121,1,0,0:0:0:0:
249,4,87275,1,0,0:0:0:0:
218,83,87429,1,0,0:0:0:0:
238,99,87583,2,0,L|241:126,1,25.9999988098145
238,99,87737,6,0,L|349:84,1,83.9999974365235
512,145,88045,6,0,L|401:130,1,83.9999974365235
187,197,88352,2,0,L|298:182,1,83.9999974365235
461,243,88660,1,0,0:0:0:0:
377,231,88813,1,0,0:0:0:0:
365,313,88968,6,0,L|254:298,1,83.9999974365235
139,258,89275,2,0,L|28:243,1,83.9999974365235
214,177,89583,1,0,0:0:0:0:
246,282,89737,1,0,0:0:0:0:
112,126,89891,2,0,L|1:111,1,83.9999974365235
28,114,90121,1,0,0:0:0:0:
28,114,90198,5,0,0:0:0:0:
103,37,90352,1,0,0:0:0:0:
58,212,90506,2,0,L|43:323,1,108.000000411987
163,220,90814,1,0,0:0:0:0:
203,324,90968,1,0,0:0:0:0:
309,324,91121,1,0,0:0:0:0:
349,220,91275,1,0,0:0:0:0:
377,27,91429,6,0,L|369:80,1,54.0000002059937
337,156,91583,2,0,L|329:209,1,54.0000002059937
289,49,91737,6,0,L|267:98,1,54.0000002059937
216,163,91891,2,0,L|194:212,1,54.0000002059937
198,47,92044,6,0,L|164:88,1,54.0000002059937
98,138,92198,2,0,L|64:179,1,54.0000002059937
21,254,92352,1,0,0:0:0:0:
27,262,92428,1,0,0:0:0:0:
34,270,92505,1,0,0:0:0:0:
41,279,92582,1,0,0:0:0:0:
256,192,92660,12,0,94506,0:0:0:0:
81,64,94968,5,0,0:0:0:0:
116,316,95121,6,0,L|129:214,1,100.799996923828
173,32,95429,2,0,P|109:44|71:72,1,100.799996923828
16,143,95737,1,0,0:0:0:0:
63,231,95891,1,0,0:0:0:0:
116,316,96045,2,0,L|129:214,1,100.799996923828
272,29,96352,6,0,L|258:130,1,100.799996923828
215,313,96660,2,0,P|278:300|316:272,1,100.799996923828
372,202,96967,1,0,0:0:0:0:
325,114,97121,1,0,0:0:0:0:
272,29,97275,1,0,0:0:0:0:
272,29,97352,1,0,0:0:0:0:
272,29,97429,1,0,0:0:0:0:
272,29,97506,1,0,0:0:0:0:
272,29,97583,6,0,L|160:59,1,111.999996582031
99,150,97891,1,0,0:0:0:0:
109,262,98045,1,0,0:0:0:0:
188,341,98198,1,0,0:0:0:0:
300,351,98352,1,0,0:0:0:0:
300,351,98429,1,0,0:0:0:0:
300,351,98506,1,0,0:0:0:0:
188,341,98660,1,0,0:0:0:0:
109,262,98814,5,0,0:0:0:0:
99,150,98968,1,0,0:0:0:0:
99,150,99045,1,0,0:0:0:0:
99,150,99121,1,0,0:0:0:0:
109,262,99275,1,0,0:0:0:0:
188,341,99429,1,0,0:0:0:0:
80,369,99583,1,0,0:0:0:0:
109,262,99737,1,0,0:0:0:0:
188,341,99891,1,0,0:0:0:0:
300,351,100045,6,0,L|404:278,1,111.999996582031
476,115,100352,2,0,L|372:188,1,111.999996582031
292,243,100660,1,0,0:0:0:0:
391,286,100814,1,0,0:0:0:0:
283,131,100968,2,0,L|387:58,1,111.999996582031
482,221,101275,6,0,L|378:294,1,111.999996582031
292,243,101583,1,0,0:0:0:0:
200,307,101737,1,0,0:0:0:0:
198,206,101891,1,0,0:0:0:0:
291,367,102044,1,0,0:0:0:0:
385,206,102198,1,0,0:0:0:0:
479,367,102352,1,0,0:0:0:0:
479,367,102506,6,0,B|460:314|460:314|470:204|470:204|459:148,1,223.999993164063
398,52,102968,1,0,0:0:0:0:
256,96,103121,1,0,0:0:0:0:
256,112,103197,1,0,0:0:0:0:
256,129,103274,1,0,0:0:0:0:
256,146,103351,1,0,0:0:0:0:
256,163,103428,1,0,0:0:0:0:
114,52,103583,1,0,0:0:0:0:
64,256,103737,6,0,P|64:176|48:144,1,111.999996582031
160,224,104045,2,0,P|160:304|176:336,1,111.999996582031
256,266,104352,1,0,0:0:0:0:
256,249,104428,1,0,0:0:0:0:
256,232,104505,1,0,0:0:0:0:
256,215,104582,1,0,0:0:0:0:
256,198,104659,1,0,0:0:0:0:
256,181,104737,1,0,0:0:0:0:
256,164,104814,1,0,0:0:0:0:
256,147,104891,1,0,0:0:0:0:
256,129,104968,6,0,P|307:107|362:112,1,111.999996582031
510,50,105275,2,0,P|502:105|471:150,1,111.999996582031
336,224,105583,2,0,P|304:269|297:324,1,111.999996582031
397,305,105891,1,0,0:0:0:0:
115,305,106045,5,0,0:0:0:0:
214,324,106198,2,0,P|207:269|176:224,1,111.999996582031
2,49,106506,2,0,P|9:105|40:150,1,111.999996582031
256,129,106815,2,0,P|204:107|149:112,1,111.999996582031
221,229,107121,1,0,0:0:0:0:
237,233,107197,1,0,0:0:0:0:
253,236,107274,1,0,0:0:0:0:
270,236,107351,1,0,0:0:0:0:
287,234,107428,5,0,0:0:0:0:
368,286,107583,1,0,0:0:0:0:
281,337,107737,1,0,0:0:0:0:
182,319,107891,1,0,0:0:0:0:
117,242,108045,2,0,P|107:192|115:141,1,102.4
182,64,108352,1,0,0:0:0:0:
182,64,108429,1,0,0:0:0:0:
182,64,108506,1,0,0:0:0:0:
182,64,108583,1,0,0:0:0:0:
182,64,108660,5,0,0:0:0:0:
115,141,108814,1,0,0:0:0:0:
117,242,108968,1,0,0:0:0:0:
117,242,109045,1,0,0:0:0:0:
117,242,109121,1,0,0:0:0:0:
117,242,109198,1,0,0:0:0:0:
117,242,109275,1,0,0:0:0:0:
115,141,109429,1,0,0:0:0:0:
182,64,109583,1,0,0:0:0:0:
281,46,109737,1,0,0:0:0:0:
368,97,109891,6,0,P|426:108|496:100,2,100.799996923828
256,160,110352,1,0,0:0:0:0:
143,222,110506,6,0,P|93:223|44:213,2,100.799996923828
256,160,110968,1,0,0:0:0:0:
320,336,111121,6,0,P|368:352|432:352,1,100.799996923828
192,336,111429,2,0,P|144:352|80:352,1,100.799996923828
32,272,111737,5,0,0:0:0:0:
176,224,111891,1,0,0:0:0:0:
336,224,112045,1,0,0:0:0:0:
480,272,112199,1,0,0:0:0:0:
480,272,112275,1,0,0:0:0:0:
480,272,112352,6,0,P|464:224|464:160,1,100.799996923828
314,139,112660,1,0,0:0:0:0:
410,91,112814,1,0,0:0:0:0:
321,32,112968,1,0,0:0:0:0:
321,32,113045,1,0,0:0:0:0:
321,32,113121,1,0,0:0:0:0:
321,32,113198,1,0,0:0:0:0:
321,32,113275,1,0,0:0:0:0:
191,32,113429,1,0,0:0:0:0:
102,91,113583,6,0,L|85:35,1,50.3999984619141
47,164,113737,1,0,0:0:0:0:
212,187,113891,2,0,L|195:131,1,50.3999984619141
157,260,114045,1,0,0:0:0:0:
314,153,114198,1,0,0:0:0:0:
331,135,114274,1,0,0:0:0:0:
353,122,114351,1,0,0:0:0:0:
377,116,114428,1,0,0:0:0:0:
402,118,114505,1,0,0:0:0:0:
426,126,114582,1,0,0:0:0:0:
446,141,114659,1,0,0:0:0:0:
462,161,114736,1,0,0:0:0:0:
470,184,114814,6,0,P|453:238|466:310,1,120.000004577637
352,240,115275,1,0,0:0:0:0:
256,176,115429,2,0,P|238:229|251:301,1,120.000004577637
137,231,115890,1,0,0:0:0:0:
21,236,116045,6,0,P|78:219|136:230,1,120.000004577637
246,291,116506,1,0,0:0:0:0:
355,351,116660,2,0,P|413:362|471:346,1,120.000004577637
410,37,117275,6,0,L|403:143,1,92.0000017547608
311,131,117583,2,0,P|319:185|304:237,1,92.0000017547608
200,221,117891,2,0,P|192:176|201:131,1,92.0000017547608
108,128,118199,2,0,L|102:37,1,92.0000017547608
74,256,118506,5,0,0:0:0:0:
200,221,118660,1,0,0:0:0:0:
108,128,118814,1,0,0:0:0:0:
25,175,118968,5,0,0:0:0:0:
161,304,119121,1,0,0:0:0:0:
184,264,119197,1,0,0:0:0:0:
200,221,119274,1,0,0:0:0:0:
208,176,119351,1,0,0:0:0:0:
208,130,119428,1,0,0:0:0:0:
