osu file format v14

[General]
AudioFilename: audio.mp3
AudioLeadIn: 0
PreviewTime: 16620
Countdown: 1
SampleSet: None
StackLeniency: 0.7
Mode: 0
LetterboxInBreaks: 0
WidescreenStoryboard: 0

[Editor]
DistanceSpacing: 3.1
BeatDivisor: 4
GridSize: 4
TimelineZoom: 1.4

[Metadata]
Title:Why
TitleUnicode:Why
Artist:Jadakiss feat. Anthony Hamilton
ArtistUnicode:Jadakiss feat. Anthony Hamilton
Creator:Clappy
Version:CLP
Source:
Tags:Rap & Hip Hop Jada AHAYY Why Clappy
BeatmapID:1152471
BeatmapSetID:543802

[Difficulty]
HPDrainRate:5.5
CircleSize:4.3
OverallDifficulty:8
ApproachRate:9
SliderMultiplier:1.8
SliderTickRate:1

[Events]
//Background and Video events
0,0,"bg.png",0,0
//Break Periods
//Storyboard Layer 0 (Background)
//Storyboard Layer 1 (Fail)
//Storyboard Layer 2 (Pass)
//Storyboard Layer 3 (Foreground)
//Storyboard Sound Samples

[TimingPoints]
5760,356.082857142857,4,1,1,50,1,0
15730,-100,4,1,1,50,0,1
17154,-100,4,1,1,50,0,0

[Colours]
Combo1 : 255,128,0
Combo2 : 255,128,255

[HitObjects]
209,73,5760,6,0,P|338:37|476:84,1,270,8|0,0:0|0:0,0:0:0:0:
368,182,6472,2,0,B|333:200|293:180|293:180|252:160|189:181,1,180,2|0,0:0|0:0,0:0:0:0:
55,321,7006,1,8,0:0:0:0:
55,321,7362,1,8,0:0:0:0:
42,331,7540,6,0,L|60:211,1,90,8|0,0:0|0:0,0:0:0:0:
249,213,7896,1,2,0:0:0:0:
63,204,8074,1,8,0:0:0:0:
63,204,8430,1,8,0:0:0:0:
249,213,8608,6,0,B|270:181|248:146|248:146|223:105|254:62|326:64|360:133|326:165|288:165,1,270,8|0,0:0|0:0,0:0:0:0:
166,209,9320,2,0,B|157:242|180:268|180:268|128:380,1,180,2|0,0:0|0:0,0:0:0:0:
180,127,9854,2,0,P|103:164|81:210,1,135,8|0,0:0|2:2,0:0:0:0:
56,270,10211,1,2,0:0:0:0:
256,84,10389,2,0,L|256:220,1,135,8|0,0:0|2:2,0:0:0:0:
256,291,10745,1,2,0:0:0:0:
332,127,10923,2,0,P|409:164|431:210,1,135,8|0,0:0|2:2,0:0:0:0:
456,270,11279,1,2,0:0:0:0:
351,293,11457,6,0,B|294:214|294:214|253:240|213:215|213:215|161:296,1,270,8|0,0:0|0:0,0:0:0:0:
73,186,12169,2,0,P|35:126|103:145,1,180,2|0,0:0|0:0,0:0:0:0:
226,42,12703,1,8,0:0:0:0:
231,243,13059,1,8,0:0:0:0:
317,139,13237,2,0,P|361:129|412:141,1,90,8|0,0:0|0:0,0:0:0:0:
404,137,13593,1,2,0:0:0:0:
231,243,13771,1,8,0:0:0:0:
226,250,14127,1,8,0:0:0:0:
404,137,14305,6,0,B|356:157|295:136|295:136|306:167|306:167|246:129|186:147,1,270,8|0,0:0|0:0,0:0:0:0:
73,226,15018,2,0,P|38:139|84:65,1,180,2|0,0:0|0:0,0:0:0:0:
222,51,15552,1,8,0:0:0:0:
222,51,15730,1,0,0:0:0:0:
234,285,15908,1,2,0:0:0:0:
306,81,16086,1,8,0:0:0:0:
149,255,16264,1,0,0:0:0:0:
345,162,16442,1,2,0:0:0:0:
110,174,16620,1,8,0:0:0:0:
315,247,16798,1,0,0:0:0:0:
140,89,16976,1,8,0:0:0:0:
340,101,17154,6,0,B|282:117|282:117|244:161|244:161|175:177,1,180,8|4,0:0|0:0,0:0:0:0:
61,131,17688,1,0,0:0:0:0:
83,271,17866,1,6,0:0:0:0:
183,174,18044,2,0,L|208:81,1,90,4|0,0:0|0:0,0:0:0:0:
251,308,18400,1,12,0:0:0:0:
259,315,18757,5,12,0:0:0:0:
259,315,18935,2,0,L|284:222,1,90,12|0,0:0|0:0,0:0:0:0:
447,204,19291,1,6,0:0:0:0:
302,164,19469,1,12,0:0:0:0:
292,159,19825,1,12,0:0:0:0:
387,263,20003,6,0,P|431:178|417:92,1,180,12|4,0:0|0:0,0:0:0:0:
288,167,20537,1,0,0:0:0:0:
149,81,20715,1,6,0:0:0:0:
292,168,20893,1,4,0:0:0:0:
299,173,21249,6,0,L|291:283,1,90,12|0,0:0|0:0,0:0:0:0:
