osu file format v14

[General]
AudioFilename: audio.mp3
AudioLeadIn: 0
PreviewTime: 31985
Countdown: 0
SampleSet: None
StackLeniency: 0.8
Mode: 0
LetterboxInBreaks: 0
WidescreenStoryboard: 1

[Editor]
DistanceSpacing: 1
BeatDivisor: 4
GridSize: 4
TimelineZoom: 1

[Metadata]
Title:Fade Away (Deaf Kev Remix)
TitleUnicode:Fade Away (Deaf Kev Remix)
Artist:Jacob Tillberg
ArtistUnicode:Jacob Tillberg
Creator:YukiPlays
Version:Technical AR 9.0
Source:
Tags:
BeatmapID:1878956
BeatmapSetID:696676

[Difficulty]
HPDrainRate:5
CircleSize:3.5
OverallDifficulty:8.4
ApproachRate:9
SliderMultiplier:1.8
SliderTickRate:1

[Events]
//Background and Video events
0,0,"8a4b113723a00fddb70b8d2870505b65.jpg",0,0
//Break Periods
2,159385,169557
//Storyboard Layer 0 (Background)
//Storyboard Layer 1 (Fail)
//Storyboard Layer 2 (Pass)
//Storyboard Layer 3 (Foreground)
//Storyboard Sound Samples

[TimingPoints]
100,342.857142857143,4,1,0,80,1,0
614,-100,4,1,0,5,0,0
785,-100,4,1,0,80,0,0
1814,-100,4,1,0,5,0,0
2157,-100,4,1,0,80,0,0
4557,-100,4,1,0,5,0,0
4728,-100,4,1,0,80,0,0
7300,-100,4,1,0,5,0,0
7642,-100,4,1,0,80,0,0
22042,-100,4,1,0,40,0,0
33014,-66.6666666666667,4,1,0,80,0,0
33100,-66.6666666666667,4,1,0,5,0,0
33185,-66.6666666666667,4,1,0,80,0,0
33271,-66.6666666666667,4,1,0,5,0,0
33357,-66.6666666666667,4,1,0,80,0,0
33442,-66.6666666666667,4,1,0,5,0,0
33528,-66.6666666666667,4,1,0,80,0,0
33614,-66.6666666666667,4,1,0,5,0,0
33700,-66.6666666666667,4,1,0,80,0,0
35842,-66.6666666666667,4,1,0,5,0,0
35928,-66.6666666666667,4,1,0,80,0,0
36014,-66.6666666666667,4,1,0,5,0,0
36100,-66.6666666666667,4,1,0,80,0,0
36185,-66.6666666666667,4,1,0,5,0,0
36271,-66.6666666666667,4,1,0,80,0,0
36357,-66.6666666666667,4,1,0,5,0,0
36442,-66.6666666666667,4,1,0,80,0,0
38585,-66.6666666666667,4,1,0,5,0,0
38671,-66.6666666666667,4,1,0,80,0,0
38757,-66.6666666666667,4,1,0,5,0,0
38842,-66.6666666666667,4,1,0,80,0,0
38928,-66.6666666666667,4,1,0,5,0,0
39014,-66.6666666666667,4,1,0,80,0,0
39100,-66.6666666666667,4,1,0,5,0,0
39185,-66.6666666666667,4,1,0,80,0,0
41328,-66.6666666666667,4,1,0,5,0,0
41414,-66.6666666666667,4,1,0,80,0,0
41500,-66.6666666666667,4,1,0,5,0,0
41585,-66.6666666666667,4,1,0,80,0,0
41671,-66.6666666666667,4,1,0,5,0,0
41757,-66.6666666666667,4,1,0,80,0,0
41842,-66.6666666666667,4,1,0,5,0,0
41928,-66.6666666666667,4,1,0,80,0,0
44071,-66.6666666666667,4,1,0,5,0,0
44157,-66.6666666666667,4,1,0,80,0,0
44242,-66.6666666666667,4,1,0,5,0,0
44328,-66.6666666666667,4,1,0,80,0,0
44414,-66.6666666666667,4,1,0,5,0,0
44500,-66.6666666666667,4,1,0,80,0,0
44585,-66.6666666666667,4,1,0,5,0,0
44671,-66.6666666666667,4,1,0,80,0,0
46814,-66.6666666666667,4,1,0,5,0,0
46900,-66.6666666666667,4,1,0,80,0,0
46985,-66.6666666666667,4,1,0,5,0,0
47071,-66.6666666666667,4,1,0,80,0,0
47157,-66.6666666666667,4,1,0,5,0,0
47242,-66.6666666666667,4,1,0,80,0,0
47328,-66.6666666666667,4,1,0,5,0,0
47414,-66.6666666666667,4,1,0,80,0,0
52300,-66.6666666666667,4,1,0,5,0,0
52385,-66.6666666666667,4,1,0,80,0,0
52471,-66.6666666666667,4,1,0,5,0,0
52557,-66.6666666666667,4,1,0,80,0,0
52642,-66.6666666666667,4,1,0,5,0,0
52728,-66.6666666666667,4,1,0,80,0,0
52814,-66.6666666666667,4,1,0,5,0,0
52900,-66.6666666666667,4,1,0,80,0,0
54957,-100,4,1,0,40,0,0
65928,-66.6666666666667,4,1,0,80,0,0
66271,-55.5555555555556,4,1,0,80,0,0
66528,-55.5555555555556,4,1,0,5,0,0
66614,-55.5555555555556,4,1,0,80,0,0
66700,-55.5555555555556,4,1,0,5,0,0
66785,-55.5555555555556,4,1,0,80,0,0
66871,-55.5555555555556,4,1,0,5,0,0
66957,-55.5555555555556,4,1,0,80,0,0
67042,-55.5555555555556,4,1,0,5,0,0
67128,-55.5555555555556,4,1,0,80,0,0
67214,-55.5555555555556,4,1,0,5,0,0
67300,-55.5555555555556,4,1,0,80,0,0
67557,-55.5555555555556,4,1,0,5,0,0
67642,-55.5555555555556,4,1,0,80,0,0
67728,-55.5555555555556,4,1,0,5,0,0
67814,-55.5555555555556,4,1,0,80,0,0
68071,-55.5555555555556,4,1,0,5,0,0
68157,-55.5555555555556,4,1,0,80,0,0
68242,-55.5555555555556,4,1,0,5,0,0
68328,-55.5555555555556,4,1,0,80,0,0
68671,-66.6666666666667,4,1,0,80,0,0
70042,-55.5555555555556,4,1,0,80,0,0
70128,-55.5555555555556,4,1,0,5,0,0
70214,-55.5555555555556,4,1,0,80,0,0
70300,-55.5555555555556,4,1,0,5,0,0
70385,-55.5555555555556,4,1,0,80,0,0
70471,-55.5555555555556,4,1,0,5,0,0
70557,-55.5555555555556,4,1,0,80,0,0
70814,-55.5555555555556,4,1,0,5,0,0
70900,-55.5555555555556,4,1,0,80,0,0
70985,-55.5555555555556,4,1,0,5,0,0
71071,-55.5555555555556,4,1,0,80,0,0
71157,-55.5555555555556,4,1,0,5,0,0
71242,-55.5555555555556,4,1,0,80,0,0
71328,-55.5555555555556,4,1,0,5,0,0
71414,-55.5555555555556,4,1,0,80,0,0
71671,-55.5555555555556,4,1,0,5,0,0
71757,-55.5555555555556,4,1,0,80,0,0
72014,-55.5555555555556,4,1,0,5,0,0
72100,-55.5555555555556,4,1,0,80,0,0
72185,-55.5555555555556,4,1,0,5,0,0
72271,-55.5555555555556,4,1,0,80,0,0
72357,-55.5555555555556,4,1,0,5,0,0
72442,-55.5555555555556,4,1,0,80,0,0
72528,-55.5555555555556,4,1,0,5,0,0
72614,-55.5555555555556,4,1,0,80,0,0
72700,-55.5555555555556,4,1,0,5,0,0
72785,-55.5555555555556,4,1,0,80,0,0
73042,-55.5555555555556,4,1,0,5,0,0
73128,-55.5555555555556,4,1,0,80,0,0
73214,-55.5555555555556,4,1,0,5,0,0
73300,-55.5555555555556,4,1,0,80,0,0
73385,-55.5555555555556,4,1,0,5,0,0
73471,-55.5555555555556,4,1,0,80,0,0
73557,-55.5555555555556,4,1,0,5,0,0
73642,-55.5555555555556,4,1,0,80,0,0
73728,-55.5555555555556,4,1,0,5,0,0
73814,-55.5555555555556,4,1,0,80,0,0
74157,-66.6666666666667,4,1,0,80,0,0
76214,-100,4,1,0,80,0,0
76900,-66.6666666666667,4,1,0,80,0,0
77157,-66.6666666666667,4,1,0,5,0,0
77242,-55.5555555555556,4,1,0,80,0,0
77500,-55.5555555555556,4,1,0,5,0,0
77585,-55.5555555555556,4,1,0,80,0,0
77671,-55.5555555555556,4,1,0,5,0,0
77757,-55.5555555555556,4,1,0,80,0,0
77842,-55.5555555555556,4,1,0,5,0,0
77928,-55.5555555555556,4,1,0,80,0,0
78014,-55.5555555555556,4,1,0,5,0,0
78100,-55.5555555555556,4,1,0,80,0,0
78185,-55.5555555555556,4,1,0,5,0,0
78271,-55.5555555555556,4,1,0,80,0,0
78528,-55.5555555555556,4,1,0,5,0,0
78614,-55.5555555555556,4,1,0,80,0,0
78700,-55.5555555555556,4,1,0,5,0,0
78785,-55.5555555555556,4,1,0,80,0,0
79042,-55.5555555555556,4,1,0,5,0,0
79128,-55.5555555555556,4,1,0,80,0,0
79214,-55.5555555555556,4,1,0,5,0,0
79300,-55.5555555555556,4,1,0,80,0,0
79557,-55.5555555555556,4,1,0,5,0,0
79642,-55.5555555555556,4,1,0,80,0,0
80157,-66.6666666666667,4,1,0,80,0,0
81014,-55.5555555555556,4,1,0,80,0,0
81100,-55.5555555555556,4,1,0,5,0,0
81185,-55.5555555555556,4,1,0,80,0,0
81271,-55.5555555555556,4,1,0,5,0,0
81357,-55.5555555555556,4,1,0,80,0,0
81442,-55.5555555555556,4,1,0,5,0,0
81528,-55.5555555555556,4,1,0,80,0,0
81614,-55.5555555555556,4,1,0,5,0,0
81700,-55.5555555555556,4,1,0,80,0,0
81871,-66.6666666666667,4,1,0,80,0,0
88214,-55.5555555555556,4,1,0,80,0,0
88471,-55.5555555555556,4,1,0,5,0,0
88557,-55.5555555555556,4,1,0,80,0,0
88642,-55.5555555555556,4,1,0,5,0,0
88728,-55.5555555555556,4,1,0,80,0,0
88814,-55.5555555555556,4,1,0,5,0,0
88900,-55.5555555555556,4,1,0,80,0,0
88985,-55.5555555555556,4,1,0,5,0,0
89071,-55.5555555555556,4,1,0,80,0,0
89157,-55.5555555555556,4,1,0,5,0,0
89242,-55.5555555555556,4,1,0,80,0,0
89500,-55.5555555555556,4,1,0,5,0,0
89585,-55.5555555555556,4,1,0,80,0,0
89671,-55.5555555555556,4,1,0,5,0,0
89757,-55.5555555555556,4,1,0,80,0,0
90014,-55.5555555555556,4,1,0,5,0,0
90100,-55.5555555555556,4,1,0,80,0,0
90185,-55.5555555555556,4,1,0,5,0,0
90271,-55.5555555555556,4,1,0,80,0,0
90785,-66.6666666666667,4,1,0,80,0,0
91985,-55.5555555555556,4,1,0,80,0,0
92071,-55.5555555555556,4,1,0,5,0,0
92157,-55.5555555555556,4,1,0,80,0,0
92242,-55.5555555555556,4,1,0,5,0,0
92328,-55.5555555555556,4,1,0,80,0,0
92414,-55.5555555555556,4,1,0,5,0,0
92500,-55.5555555555556,4,1,0,80,0,0
93014,-66.6666666666667,4,1,0,80,0,0
93614,-66.6666666666667,4,1,0,5,0,0
93700,-55.5555555555556,4,1,0,80,0,0
93785,-55.5555555555556,4,1,0,5,0,0
93871,-55.5555555555556,4,1,0,80,0,0
93957,-55.5555555555556,4,1,0,5,0,0
94042,-55.5555555555556,4,1,0,80,0,0
94128,-55.5555555555556,4,1,0,5,0,0
94214,-55.5555555555556,4,1,0,80,0,0
94300,-55.5555555555556,4,1,0,5,0,0
94385,-55.5555555555556,4,1,0,80,0,0
94471,-55.5555555555556,4,1,0,5,0,0
94557,-55.5555555555556,4,1,0,80,0,0
94642,-55.5555555555556,4,1,0,5,0,0
94728,-55.5555555555556,4,1,0,80,0,0
94985,-55.5555555555556,4,1,0,5,0,0
95071,-55.5555555555556,4,1,0,80,0,0
95157,-55.5555555555556,4,1,0,5,0,0
95242,-55.5555555555556,4,1,0,80,0,0
95500,-55.5555555555556,4,1,0,5,0,0
95585,-55.5555555555556,4,1,0,80,0,0
95671,-55.5555555555556,4,1,0,5,0,0
95757,-55.5555555555556,4,1,0,80,0,0
96271,-66.6666666666667,4,1,0,80,0,0
98157,-100,4,1,0,80,0,0
98842,-66.6666666666667,4,1,0,80,0,0
99100,-66.6666666666667,4,1,0,5,0,0
99185,-55.5555555555556,4,1,0,80,0,0
99271,-55.5555555555556,4,1,0,5,0,0
99357,-55.5555555555556,4,1,0,80,0,0
99442,-55.5555555555556,4,1,0,5,0,0
99528,-55.5555555555556,4,1,0,80,0,0
99614,-55.5555555555556,4,1,0,5,0,0
99700,-55.5555555555556,4,1,0,80,0,0
99785,-55.5555555555556,4,1,0,5,0,0
99871,-55.5555555555556,4,1,0,80,0,0
99957,-55.5555555555556,4,1,0,5,0,0
100042,-55.5555555555556,4,1,0,80,0,0
100128,-55.5555555555556,4,1,0,5,0,0
100214,-55.5555555555556,4,1,0,80,0,0
100471,-55.5555555555556,4,1,0,5,0,0
100557,-55.5555555555556,4,1,0,80,0,0
100642,-55.5555555555556,4,1,0,5,0,0
100728,-55.5555555555556,4,1,0,80,0,0
100985,-55.5555555555556,4,1,0,5,0,0
101071,-55.5555555555556,4,1,0,80,0,0
101157,-55.5555555555556,4,1,0,5,0,0
101242,-55.5555555555556,4,1,0,80,0,0
101757,-66.6666666666667,4,1,0,80,0,0
102957,-55.5555555555556,4,1,0,80,0,0
103042,-55.5555555555556,4,1,0,5,0,0
103128,-55.5555555555556,4,1,0,80,0,0
103214,-55.5555555555556,4,1,0,5,0,0
103300,-55.5555555555556,4,1,0,80,0,0
103385,-55.5555555555556,4,1,0,5,0,0
103471,-55.5555555555556,4,1,0,80,0,0
103557,-55.5555555555556,4,1,0,5,0,0
103642,-55.5555555555556,4,1,0,80,0,0
103985,-66.6666666666667,4,1,0,80,0,0
115557,-66.6666666666667,4,1,0,5,0,0
115642,-66.6666666666667,4,1,0,80,0,0
121042,-66.6666666666667,4,1,0,5,0,0
121128,-66.6666666666667,4,1,0,80,0,0
142042,-100,4,1,0,80,0,0
142728,-66.6666666666667,4,1,0,80,0,0
153871,-66.6666666666667,4,1,0,30,0,0
175642,-100,4,1,0,80,0,0
181128,-66.6666666666667,4,1,0,80,0,0
181214,-66.6666666666667,4,1,0,5,0,0
181300,-66.6666666666667,4,1,0,80,0,0
181385,-66.6666666666667,4,1,0,5,0,0
181471,-66.6666666666667,4,1,0,80,0,0
181557,-66.6666666666667,4,1,0,5,0,0
181642,-66.6666666666667,4,1,0,80,0,0
181728,-66.6666666666667,4,1,0,5,0,0
181814,-66.6666666666667,4,1,0,80,0,0
183957,-66.6666666666667,4,1,0,5,0,0
184042,-66.6666666666667,4,1,0,80,0,0
184128,-66.6666666666667,4,1,0,5,0,0
184214,-66.6666666666667,4,1,0,80,0,0
184300,-66.6666666666667,4,1,0,5,0,0
184385,-66.6666666666667,4,1,0,80,0,0
184471,-66.6666666666667,4,1,0,5,0,0
184557,-66.6666666666667,4,1,0,80,0,0
186700,-66.6666666666667,4,1,0,5,0,0
186785,-66.6666666666667,4,1,0,80,0,0
186871,-66.6666666666667,4,1,0,5,0,0
186957,-66.6666666666667,4,1,0,80,0,0
187042,-66.6666666666667,4,1,0,5,0,0
187128,-66.6666666666667,4,1,0,80,0,0
187214,-66.6666666666667,4,1,0,5,0,0
187300,-66.6666666666667,4,1,0,80,0,0
189442,-66.6666666666667,4,1,0,5,0,0
189528,-66.6666666666667,4,1,0,80,0,0
189614,-66.6666666666667,4,1,0,5,0,0
189700,-66.6666666666667,4,1,0,80,0,0
189785,-66.6666666666667,4,1,0,5,0,0
189871,-66.6666666666667,4,1,0,80,0,0
189957,-66.6666666666667,4,1,0,5,0,0
190042,-66.6666666666667,4,1,0,80,0,0
192185,-66.6666666666667,4,1,0,5,0,0
192271,-66.6666666666667,4,1,0,80,0,0
192357,-66.6666666666667,4,1,0,5,0,0
192442,-66.6666666666667,4,1,0,80,0,0
192528,-66.6666666666667,4,1,0,5,0,0
192614,-66.6666666666667,4,1,0,80,0,0
192700,-66.6666666666667,4,1,0,5,0,0
192785,-66.6666666666667,4,1,0,80,0,0
194928,-66.6666666666667,4,1,0,5,0,0
195014,-66.6666666666667,4,1,0,80,0,0
195100,-66.6666666666667,4,1,0,5,0,0
195185,-66.6666666666667,4,1,0,80,0,0
195271,-66.6666666666667,4,1,0,5,0,0
195357,-66.6666666666667,4,1,0,80,0,0
195442,-66.6666666666667,4,1,0,5,0,0
195528,-66.6666666666667,4,1,0,80,0,0
200414,-66.6666666666667,4,1,0,5,0,0
200500,-66.6666666666667,4,1,0,80,0,0
200585,-66.6666666666667,4,1,0,5,0,0
200671,-66.6666666666667,4,1,0,80,0,0
200757,-66.6666666666667,4,1,0,5,0,0
200842,-66.6666666666667,4,1,0,80,0,0
200928,-66.6666666666667,4,1,0,5,0,0
201014,-66.6666666666667,4,1,0,80,0,0
203071,-100,4,1,0,80,0,0
214042,-66.6666666666667,4,1,0,80,0,0
214385,-55.5555555555556,4,1,0,80,0,0
214814,-55.5555555555556,4,1,0,5,0,0
214900,-55.5555555555556,4,1,0,80,0,0
214985,-55.5555555555556,4,1,0,5,0,0
215071,-55.5555555555556,4,1,0,80,0,0
215157,-55.5555555555556,4,1,0,5,0,0
215242,-55.5555555555556,4,1,0,80,0,0
215328,-55.5555555555556,4,1,0,5,0,0
215414,-55.5555555555556,4,1,0,80,0,0
215671,-55.5555555555556,4,1,0,5,0,0
215757,-55.5555555555556,4,1,0,80,0,0
215842,-55.5555555555556,4,1,0,5,0,0
215928,-55.5555555555556,4,1,0,80,0,0
216014,-55.5555555555556,4,1,0,5,0,0
216100,-55.5555555555556,4,1,0,80,0,0
216185,-55.5555555555556,4,1,0,5,0,0
216271,-55.5555555555556,4,1,0,80,0,0
216357,-55.5555555555556,4,1,0,5,0,0
216442,-55.5555555555556,4,1,0,80,0,0
216700,-55.5555555555556,4,1,0,5,0,0
216785,-66.6666666666667,4,1,0,80,0,0
219871,-55.5555555555556,4,1,0,80,0,0
220128,-55.5555555555556,4,1,0,5,0,0
220214,-55.5555555555556,4,1,0,80,0,0
220300,-55.5555555555556,4,1,0,5,0,0
220385,-55.5555555555556,4,1,0,80,0,0
220471,-55.5555555555556,4,1,0,5,0,0
220557,-55.5555555555556,4,1,0,80,0,0
220642,-55.5555555555556,4,1,0,5,0,0
220728,-55.5555555555556,4,1,0,80,0,0
220814,-55.5555555555556,4,1,0,5,0,0
220900,-55.5555555555556,4,1,0,80,0,0
221157,-55.5555555555556,4,1,0,5,0,0
221242,-55.5555555555556,4,1,0,80,0,0
221328,-55.5555555555556,4,1,0,5,0,0
221414,-55.5555555555556,4,1,0,80,0,0
221500,-55.5555555555556,4,1,0,5,0,0
221585,-55.5555555555556,4,1,0,80,0,0
221671,-55.5555555555556,4,1,0,5,0,0
221757,-55.5555555555556,4,1,0,80,0,0
221842,-55.5555555555556,4,1,0,5,0,0
221928,-55.5555555555556,4,1,0,80,0,0
222271,-66.6666666666667,4,1,0,80,0,0
224328,-100,4,1,0,80,0,0
225014,-66.6666666666667,4,1,0,80,0,0
225271,-66.6666666666667,4,1,0,5,0,0
225357,-55.5555555555556,4,1,0,80,0,0
225614,-55.5555555555556,4,1,0,5,0,0
225700,-55.5555555555556,4,1,0,80,0,0
225785,-55.5555555555556,4,1,0,5,0,0
225871,-55.5555555555556,4,1,0,80,0,0
225957,-55.5555555555556,4,1,0,5,0,0
226042,-55.5555555555556,4,1,0,80,0,0
226128,-55.5555555555556,4,1,0,5,0,0
226214,-55.5555555555556,4,1,0,80,0,0
226300,-55.5555555555556,4,1,0,5,0,0
226385,-55.5555555555556,4,1,0,80,0,0
226642,-55.5555555555556,4,1,0,5,0,0
226728,-55.5555555555556,4,1,0,80,0,0
226814,-55.5555555555556,4,1,0,5,0,0
226900,-55.5555555555556,4,1,0,80,0,0
226985,-55.5555555555556,4,1,0,5,0,0
227071,-55.5555555555556,4,1,0,80,0,0
227157,-55.5555555555556,4,1,0,5,0,0
227242,-55.5555555555556,4,1,0,80,0,0
227328,-55.5555555555556,4,1,0,5,0,0
227414,-55.5555555555556,4,1,0,80,0,0
227757,-66.6666666666667,4,1,0,80,0,0
229128,-55.5555555555556,4,1,0,80,0,0
229214,-55.5555555555556,4,1,0,5,0,0
229300,-55.5555555555556,4,1,0,80,0,0
229385,-55.5555555555556,4,1,0,5,0,0
229471,-55.5555555555556,4,1,0,80,0,0
229557,-55.5555555555556,4,1,0,5,0,0
229642,-55.5555555555556,4,1,0,80,0,0
229900,-55.5555555555556,4,1,0,5,0,0
229985,-55.5555555555556,4,1,0,80,0,0
230071,-55.5555555555556,4,1,0,5,0,0
230157,-55.5555555555556,4,1,0,80,0,0
230242,-55.5555555555556,4,1,0,5,0,0
230328,-55.5555555555556,4,1,0,80,0,0
230414,-55.5555555555556,4,1,0,5,0,0
230500,-55.5555555555556,4,1,0,80,0,0
231014,-66.6666666666667,4,1,0,80,0,0
236242,-66.6666666666667,4,1,0,5,0,0
236328,-55.5555555555556,4,1,0,80,0,0
236585,-55.5555555555556,4,1,0,5,0,0
236671,-55.5555555555556,4,1,0,80,0,0
236757,-55.5555555555556,4,1,0,5,0,0
236842,-55.5555555555556,4,1,0,80,0,0
236928,-55.5555555555556,4,1,0,5,0,0
237014,-55.5555555555556,4,1,0,80,0,0
237100,-55.5555555555556,4,1,0,5,0,0
237185,-55.5555555555556,4,1,0,80,0,0
237271,-55.5555555555556,4,1,0,5,0,0
237357,-55.5555555555556,4,1,0,80,0,0
237614,-55.5555555555556,4,1,0,5,0,0
237700,-55.5555555555556,4,1,0,80,0,0
237785,-55.5555555555556,4,1,0,5,0,0
237871,-55.5555555555556,4,1,0,80,0,0
237957,-55.5555555555556,4,1,0,5,0,0
238042,-55.5555555555556,4,1,0,80,0,0
238128,-55.5555555555556,4,1,0,5,0,0
238214,-55.5555555555556,4,1,0,80,0,0
238300,-55.5555555555556,4,1,0,5,0,0
238385,-55.5555555555556,4,1,0,80,0,0
238900,-66.6666666666667,4,1,0,80,0,0
241814,-55.5555555555556,4,1,0,80,0,0
241900,-55.5555555555556,4,1,0,5,0,0
241985,-55.5555555555556,4,1,0,80,0,0
242071,-55.5555555555556,4,1,0,5,0,0
242157,-55.5555555555556,4,1,0,80,0,0
242242,-55.5555555555556,4,1,0,5,0,0
242328,-55.5555555555556,4,1,0,80,0,0
242414,-55.5555555555556,4,1,0,5,0,0
242500,-55.5555555555556,4,1,0,80,0,0
242585,-55.5555555555556,4,1,0,5,0,0
242671,-55.5555555555556,4,1,0,80,0,0
242757,-55.5555555555556,4,1,0,5,0,0
242842,-55.5555555555556,4,1,0,80,0,0
243100,-55.5555555555556,4,1,0,5,0,0
243185,-55.5555555555556,4,1,0,80,0,0
243271,-55.5555555555556,4,1,0,5,0,0
243357,-55.5555555555556,4,1,0,80,0,0
243442,-55.5555555555556,4,1,0,5,0,0
243528,-55.5555555555556,4,1,0,80,0,0
243614,-55.5555555555556,4,1,0,5,0,0
243700,-55.5555555555556,4,1,0,80,0,0
243785,-55.5555555555556,4,1,0,5,0,0
243871,-55.5555555555556,4,1,0,80,0,0
244214,-66.6666666666667,4,1,0,80,0,0
246271,-100,4,1,0,80,0,0
246957,-66.6666666666667,4,1,0,80,0,0
247214,-66.6666666666667,4,1,0,5,0,0
247300,-55.5555555555556,4,1,0,80,0,0
247557,-55.5555555555556,4,1,0,5,0,0
247642,-55.5555555555556,4,1,0,80,0,0
247728,-55.5555555555556,4,1,0,5,0,0
247814,-55.5555555555556,4,1,0,80,0,0
247900,-55.5555555555556,4,1,0,5,0,0
247985,-55.5555555555556,4,1,0,80,0,0
248071,-55.5555555555556,4,1,0,5,0,0
248157,-55.5555555555556,4,1,0,80,0,0
248242,-55.5555555555556,4,1,0,5,0,0
248328,-55.5555555555556,4,1,0,80,0,0
248585,-55.5555555555556,4,1,0,5,0,0
248671,-55.5555555555556,4,1,0,80,0,0
248757,-55.5555555555556,4,1,0,5,0,0
248842,-55.5555555555556,4,1,0,80,0,0
248928,-55.5555555555556,4,1,0,5,0,0
249014,-55.5555555555556,4,1,0,80,0,0
249100,-55.5555555555556,4,1,0,5,0,0
249185,-55.5555555555556,4,1,0,80,0,0
249271,-55.5555555555556,4,1,0,5,0,0
249357,-55.5555555555556,4,1,0,80,0,0
249442,-55.5555555555556,4,1,0,5,0,0
249528,-55.5555555555556,4,1,0,80,0,0
249614,-55.5555555555556,4,1,0,5,0,0
249700,-55.5555555555556,4,1,0,80,0,0
249871,-66.6666666666667,4,1,0,80,0,0
258185,-66.6666666666667,4,1,0,5,0,0
258271,-66.6666666666667,4,1,0,80,0,0
263671,-66.6666666666667,4,1,0,5,0,0
263757,-66.6666666666667,4,1,0,80,0,0
269157,-66.6666666666667,4,1,0,5,0,0
269242,-66.6666666666667,4,1,0,80,0,0
290157,-100,4,1,0,80,0,0
291185,-66.6666666666667,4,1,0,80,0,0
301985,-66.6666666666667,4,1,0,5,0,0

[HitObjects]
332,96,100,5,6,0:2:0:0:
332,96,271,2,0,P|304:156|136:280,1,270
128,144,957,1,0,0:0:0:0:
128,144,1128,2,0,P|164:116|216:96,1,90
336,64,1471,2,0,P|312:124|88:320,1,360
88,180,2328,1,0,0:0:0:0:
184,276,2500,1,0,0:0:0:0:
196,140,2671,1,0,0:0:0:0:
196,140,2842,6,0,P|252:88|364:148,3,180
280,232,4042,1,0,0:0:0:0:
412,212,4214,2,0,P|456:272|304:348,1,270
316,236,4900,1,0,0:0:0:0:
216,328,5071,1,0,0:0:0:0:
192,196,5242,1,0,0:0:0:0:
192,196,5414,2,0,P|228:128|240:104,1,90,0|6,0:0|2:0,0:0:0:0:
360,68,5757,1,0,0:0:0:0:
436,180,5928,6,0,P|416:244|288:292,2,180
316,116,6785,1,0,0:0:0:0:
232,220,6957,6,0,P|160:264|24:84,1,360
156,88,7814,1,0,0:0:0:0:
260,4,7985,1,0,0:0:0:0:
272,140,8157,1,0,0:0:0:0:
272,140,8329,6,0,P|324:168|436:100,3,180
426,121,9528,1,0,0:0:0:0:
256,192,9700,12,6,11071,3:0:0:0:
256,192,11242,5,2,3:3:0:0:
256,192,11414,2,0,P|208:224|76:200,1,180
160,96,11928,1,2,0:3:0:0:
160,96,12100,1,0,0:0:0:0:
292,68,12271,2,0,P|352:68|384:176,2,180,0|2|2,0:0|0:3|0:3,0:0:0:0:
284,204,13128,1,0,0:0:0:0:
180,120,13300,1,2,3:3:0:0:
140,248,13471,1,2,3:3:0:0:
140,248,13642,2,0,P|64:268|48:296,1,90,2|2,3:3|3:3,0:0:0:0:
160,364,13985,5,2,3:3:0:0:
160,364,14157,2,0,P|216:324|264:216,2,180,2|2|2,0:3|0:3|0:3,0:0:0:0:
112,236,15014,1,2,0:3:0:0:
216,152,15185,1,0,0:0:0:0:
216,152,15357,2,0,P|248:104|376:100,2,180,2|2|2,0:3|0:3|3:3,0:0:0:0:
316,244,16214,1,2,3:3:0:0:
420,160,16385,1,2,3:3:0:0:
420,160,16557,6,0,P|432:208|368:328,2,180,0|2|2,0:0|0:3|0:3,0:0:0:0:
288,188,17414,1,0,0:0:0:0:
348,68,17585,1,2,0:3:0:0:
212,76,17757,2,0,P|168:100|140:228,2,180,2|2|2,0:3|0:3|0:3,0:0:0:0:
280,192,18614,1,0,0:0:0:0:
364,88,18785,1,2,3:3:0:0:
364,88,18957,1,2,3:3:0:0:
364,88,19128,1,2,3:3:0:0:
364,88,19300,6,0,P|392:132|356:288,2,180,0|2|2,0:0|0:3|0:3,0:0:0:0:
276,188,20157,1,0,0:0:0:0:
208,72,20328,1,2,0:3:0:0:
124,180,20500,2,0,P|96:232|100:356,3,180,2|2|2|2,0:3|0:3|0:3|3:3,0:0:0:0:
220,292,21700,1,2,3:3:0:0:
292,176,21871,2,0,P|284:128|252:88,1,90,2|8,3:3|0:2,0:0:0:0:
76,216,22385,5,8,0:2:0:0:
256,296,22728,1,8,0:2:0:0:
340,104,23071,1,8,0:2:0:0:
168,260,23414,5,8,0:2:0:0:
176,52,23757,1,8,0:2:0:0:
332,192,24100,1,8,0:2:0:0:
352,32,24442,1,8,0:2:0:0:
160,148,24785,5,8,0:2:0:0:
320,304,25128,1,8,0:2:0:0:
416,156,25471,1,8,0:2:0:0:
200,276,25814,1,8,0:2:0:0:
240,48,26157,5,8,0:2:0:0:
88,236,26500,1,8,0:2:0:0:
296,208,26842,1,8,0:2:0:0:
68,84,27185,1,8,0:2:0:0:
256,32,27528,6,8,L|352:32,1,90,8|8,0:2|0:2,0:2:0:0:
352,168,27871,2,8,L|256:168,1,90,8|8,0:2|0:2,0:2:0:0:
256,304,28214,2,8,L|360:304,1,90,8|8,0:2|0:2,0:2:0:0:
480,304,28557,2,8,L|480:208,1,90,8|8,0:2|0:2,0:2:0:0:
344,200,28900,6,8,L|344:308,1,90,8|8,0:2|0:2,0:2:0:0:
208,296,29242,2,8,L|208:184,1,90,8|8,0:2|0:2,0:2:0:0:
72,196,29585,2,8,L|72:296,1,90,8|8,0:2|0:2,0:2:0:0:
188,356,29928,1,8,0:2:0:0:
188,356,30100,1,8,0:2:0:0:
288,340,30271,5,8,2:0:0:0:
324,320,30356,1,8,2:0:0:0:
360,296,30442,1,8,2:0:0:0:
392,264,30528,1,8,2:0:0:0:
412,224,30613,1,8,2:0:0:0:
421,181,30699,1,8,2:0:0:0:
421,136,30785,1,8,2:0:0:0:
407,94,30871,1,8,2:0:0:0:
380,58,30956,5,8,2:0:0:0:
344,32,31042,1,8,2:0:0:0:
301,19,31128,1,8,2:0:0:0:
256,20,31213,1,8,2:0:0:0:
214,35,31299,1,8,2:0:0:0:
178,62,31385,1,8,2:0:0:0:
153,99,31471,1,8,2:0:0:0:
140,142,31556,1,8,2:0:0:0:
142,187,31642,1,12,2:0:0:0:
360,64,33014,6,0,L|360:196,1,67.5000025749208,6|0,0:3|0:0,0:0:0:0:
316,64,33185,2,0,L|316:136,1,67.5000025749208,6|0,0:3|0:0,0:0:0:0:
272,184,33357,2,0,L|272:108,1,67.5000025749208,8|0,2:0|0:0,0:0:0:0:
220,184,33528,2,0,L|220:112,1,67.5000025749208
216,80,33700,2,0,B|124:48|56:152|56:152|80:228,1,270.000010299683,0|8,0:0|2:0,0:0:0:0:
252,336,34214,1,0,0:0:0:0:
364,168,34385,5,8,2:2:0:0:
176,240,34557,1,0,0:0:0:0:
376,268,34728,1,8,2:0:0:0:
232,124,34900,2,0,P|160:108|96:120,1,135.000005149842
164,208,35242,2,0,P|284:208|336:180,1,135.000005149842,8|8,2:0|2:0,2:0:0:0:
384,12,35585,1,0,0:0:0:0:
480,192,35757,6,0,P|480:240|456:280,1,67.5000025749208,2|0,0:3|0:0,0:0:0:0:
416,256,35928,2,0,P|432:188|424:168,1,67.5000025749208,2|0,0:3|0:0,0:0:0:0:
372,184,36100,2,0,P|380:228|360:272,1,67.5000025749208,8|0,2:0|0:0,0:0:0:0:
320,252,36271,2,0,P|328:184|320:168,1,67.5000025749208
304,156,36442,2,0,B|256:100|200:108|200:108|148:180|148:180|72:172,1,270.000010299683,0|8,0:0|2:0,0:0:0:0:
40,32,36957,1,0,0:0:0:0:
172,184,37128,5,8,2:2:0:0:
280,12,37300,1,0,0:0:0:0:
96,92,37471,1,8,2:0:0:0:
292,148,37642,1,0,0:0:0:0:
164,304,37814,1,0,0:0:0:0:
188,104,37985,1,8,2:0:0:0:
304,268,38157,1,8,2:0:0:0:
116,200,38328,1,0,0:0:0:0:
312,148,38500,6,0,L|380:104,1,67.5000025749208,2|0,0:3|0:0,0:0:0:0:
468,116,38671,2,0,L|408:156,1,67.5000025749208,2|0,0:3|0:0,0:0:0:0:
368,244,38842,2,0,L|444:196,1,67.5000025749208,8|0,2:0|0:0,0:0:0:0:
508,236,39014,2,0,L|444:276,1,67.5000025749208
416,304,39185,2,0,B|328:320|328:320|296:260|188:180,1,270.000010299683,0|8,0:0|2:0,0:0:0:0:
308,16,39700,1,0,0:0:0:0:
424,184,39871,5,8,2:2:0:0:
224,180,40042,1,0,0:0:0:0:
392,68,40214,2,0,P|460:100|500:168,1,135.000005149842,8|0,2:0|0:0,0:0:0:0:
296,192,40557,2,0,P|240:144|136:124,1,135.000005149842,0|8,0:0|2:0,0:0:0:0:
80,300,40900,1,8,2:0:0:0:
280,332,41071,1,0,0:0:0:0:
380,156,41242,6,0,P|308:120|280:124,1,67.5000025749208,2|0,0:3|0:0,0:0:0:0:
232,164,41414,2,0,P|296:188|320:240,1,67.5000025749208,2|0,0:3|0:0,0:0:0:0:
296,284,41585,2,0,P|220:240|196:248,1,67.5000025749208,8|0,2:0|0:0,0:0:0:0:
152,284,41757,2,0,P|220:308|240:348,1,67.5000025749208
260,340,41928,2,0,B|324:360|424:252|424:252|412:148,1,270.000010299683,0|8,0:0|2:0,0:0:0:0:
268,40,42442,1,0,0:0:0:0:
144,200,42614,5,8,2:2:0:0:
344,204,42785,1,0,0:0:0:0:
168,104,42957,1,8,2:0:0:0:
240,292,43128,1,0,0:0:0:0:
40,268,43300,1,0,0:0:0:0:
224,184,43471,1,8,2:0:0:0:
28,140,43642,1,8,2:0:0:0:
140,312,43814,1,0,0:0:0:0:
144,112,43985,6,0,L|180:52,1,67.5000025749208,2|0,0:3|0:0,0:0:0:0:
144,112,44157,2,0,L|208:148,1,67.5000025749208,2|0,0:3|0:0,0:0:0:0:
144,112,44328,2,0,L|84:80,1,67.5000025749208,8|0,2:0|0:0,0:0:0:0:
144,112,44500,2,0,L|104:176,1,67.5000025749208
104,208,44671,2,0,B|136:288|196:300|196:300|312:200,1,270.000010299683,0|8,0:0|2:0,0:0:0:0:
404,40,45185,1,0,0:0:0:0:
212,104,45357,5,8,2:2:0:0:
392,196,45528,2,0,P|368:264|308:320,1,135.000005149842,0|8,0:0|2:0,0:0:0:0:
252,180,45871,2,0,P|300:104|352:68,1,135.000005149842
468,232,46214,1,8,2:0:0:0:
272,284,46385,1,8,2:0:0:0:
344,96,46557,1,0,0:0:0:0:
148,136,46728,6,0,P|64:144|52:128,1,67.5000025749208,2|0,0:3|0:0,0:0:0:0:
148,136,46900,2,0,P|112:76|120:60,1,67.5000025749208,2|0,0:3|0:0,0:0:0:0:
148,136,47071,2,0,P|200:100|224:100,1,67.5000025749208,8|0,2:0|0:0,0:0:0:0:
148,136,47242,2,0,P|184:196|180:220,1,67.5000025749208
184,232,47414,2,0,B|216:304|308:272|308:272|412:176,1,270.000010299683,0|8,0:0|2:0,0:0:0:0:
316,4,47928,1,0,0:0:0:0:
264,200,48100,5,8,2:2:0:0:
132,48,48271,2,0,P|60:80|44:144,1,135.000005149842,0|8,0:0|2:0,0:0:0:0:
176,284,48614,2,0,P|156:232|216:152,1,135.000005149842
360,276,48957,1,8,2:0:0:0:
300,84,49128,1,8,2:0:0:0:
156,224,49300,1,0,0:0:0:0:
88,36,49471,5,2,2:3:0:0:
88,36,49557,1,2,2:3:0:0:
88,36,49642,1,2,2:3:0:0:
88,36,49728,1,2,2:3:0:0:
88,36,49814,2,0,P|164:72|204:128,1,135.000005149842,2|0,2:3|0:0,0:0:0:0:
68,268,50157,1,0,0:0:0:0:
260,200,50328,1,8,2:0:0:0:
88,92,50500,1,8,2:0:0:0:
168,280,50671,1,0,0:0:0:0:
220,84,50842,6,0,P|292:52|356:56,1,135.000005149842,8|0,2:2|0:0,0:0:0:0:
480,208,51185,2,0,P|392:240|312:220,1,135.000005149842,8|0,2:0|0:0,0:0:0:0:
292,40,51528,1,0,0:0:0:0:
184,212,51700,1,8,2:0:0:0:
60,52,51871,1,8,2:0:0:0:
244,136,52042,1,0,0:0:0:0:
52,204,52214,6,0,L|100:132,1,67.5000025749208,2|0,0:3|0:0,0:0:0:0:
145,185,52385,2,0,L|73:137,1,67.5000025749208,2|0,0:3|0:0,0:0:0:0:
127,92,52557,2,0,L|79:160,1,67.5000025749208,8|0,2:0|0:0,0:0:0:0:
32,110,52728,2,0,L|92:150,1,67.5000025749208
124,172,52900,2,0,B|200:192|304:168|304:168|384:248,1,270.000010299683,0|8,0:0|2:0,0:0:0:0:
232,380,53414,1,0,0:0:0:0:
304,192,53585,5,8,2:2:0:0:
124,288,53757,1,0,0:0:0:0:
196,104,53928,1,8,2:0:0:0:
4,164,54100,1,0,0:0:0:0:
4,164,54271,2,0,P|48:88|116:56,1,135.000005149842,0|8,0:0|2:0,0:0:0:0:
136,184,54613,2,0,P|92:248|80:308,1,135.000005149842,8|0,2:0|0:0,0:0:0:0:
216,280,54957,5,12,2:2:0:0:
376,120,55300,1,8,2:2:0:0:
136,88,55642,1,8,2:2:0:0:
344,240,55985,1,8,2:2:0:0:
76,216,56328,5,8,2:2:0:0:
272,52,56671,1,8,2:2:0:0:
200,300,57014,1,8,2:2:0:0:
100,80,57357,1,8,2:2:0:0:
384,272,57700,5,8,2:2:0:0:
88,276,58042,1,8,2:2:0:0:
264,132,58385,1,8,2:2:0:0:
284,368,58728,1,8,2:2:0:0:
124,168,59071,5,8,2:2:0:0:
364,244,59414,1,8,2:2:0:0:
392,48,59757,1,8,2:2:0:0:
232,180,60100,1,8,2:2:0:0:
408,316,60442,6,8,L|456:224,1,90,8|8,2:2|2:2,2:2:0:0:
392,112,60785,2,8,L|344:204,1,90,8|8,2:2|2:2,2:2:0:0:
216,220,61128,2,8,L|272:124,1,90,8|8,2:2|2:2,2:2:0:0:
208,20,61471,2,8,L|152:112,1,90,8|8,2:2|2:2,2:2:0:0:
68,196,61814,6,8,L|144:252,1,90,8|8,2:2|2:2,2:2:0:0:
272,224,62157,2,8,L|196:168,1,90,8|8,2:2|2:2,2:2:0:0:
204,308,62500,2,8,L|280:368,1,90,8|8,2:2|2:2,2:2:0:0:
408,344,62842,2,8,L|332:284,1,90,8|8,2:2|2:2,2:2:0:0:
232,204,63185,5,8,2:2:0:0:
199,170,63271,1,8,2:2:0:0:
204,124,63357,1,8,2:2:0:0:
244,104,63442,1,8,2:2:0:0:
288,116,63528,1,8,2:2:0:0:
316,148,63614,1,8,2:2:0:0:
320,192,63700,1,8,2:2:0:0:
308,228,63785,1,8,2:2:0:0:
284,268,63871,5,8,2:2:0:0:
244,288,63957,1,8,2:2:0:0:
196,280,64042,1,8,2:2:0:0:
160,256,64128,1,8,2:2:0:0:
132,220,64214,1,8,2:2:0:0:
120,176,64300,1,8,2:2:0:0:
124,132,64385,1,8,2:2:0:0:
156,96,64471,1,8,2:2:0:0:
196,72,64557,5,8,0:0:0:0:
332,76,64728,2,8,P|368:100|396:156,1,90,8|8,0:0|0:0,0:0:0:0:
268,192,65071,1,8,0:0:0:0:
184,88,65242,1,8,0:0:0:0:
184,88,65328,1,8,0:0:0:0:
184,88,65414,2,8,P|128:124|112:172,1,90,8|8,0:0|0:0,0:0:0:0:
232,216,65757,1,8,0:0:0:0:
104,308,65928,6,0,P|72:224|120:72,1,202.500007724762,6|0,3:3|0:0,0:0:0:0:
112,84,66271,2,0,B|192:128|192:128|168:188|308:192,1,242.999992584229,2|0,3:3|0:0,0:0:0:0:
324,192,66614,6,0,L|372:124,1,80.9999975280763
368,192,66785,2,0,L|416:124,1,80.9999975280763,2|0,3:0|0:0,0:0:0:0:
456,128,66957,2,0,L|408:200,1,80.9999975280763,2|0,3:0|0:0,0:0:0:0:
500,132,67128,2,0,L|448:216,1,80.9999975280763
432,236,67300,6,0,B|368:304|288:220|288:220|260:344|236:344,1,242.999992584229,2|0,3:0|0:0,0:0:0:0:
252,320,67642,2,0,P|184:272|172:208,1,80.9999975280763,2|0,3:0|0:0,0:0:0:0:
220,356,67814,2,0,P|124:276|132:152,1,242.999992584229
164,168,68157,2,0,P|184:252|196:268,1,80.9999975280763,2|0,3:0|0:0,0:0:0:0:
232,236,68328,2,0,P|224:148|408:40,1,323.999990112305,2|4,3:0|2:0,0:0:0:0:
344,232,68842,1,0,2:0:0:0:
268,44,69014,5,0,2:0:0:0:
156,212,69185,1,0,2:0:0:0:
336,120,69357,1,0,2:0:0:0:
136,92,69528,1,0,2:0:0:0:
264,248,69700,1,0,2:0:0:0:
64,280,69871,1,0,2:0:0:0:
244,116,70042,6,2,L|184:180,1,80.9999975280763,2|2,3:1|3:1,3:1:0:0:
276,144,70214,2,2,L|216:204,1,80.9999975280763,2|2,3:1|3:1,3:1:0:0:
252,236,70385,2,2,L|312:176,1,80.9999975280763,2|2,3:1|3:1,3:1:0:0:
284,268,70557,2,2,P|344:208|304:60,1,242.999992584229,2|2,3:1|3:1,3:1:0:0:
252,88,70900,2,2,P|284:168|272:200,1,80.9999975280763,2|2,3:1|3:1,3:1:0:0:
236,176,71071,2,2,P|208:92|196:84,1,80.9999975280763,2|2,3:1|3:1,3:1:0:0:
168,120,71242,2,2,P|192:208|188:216,1,80.9999975280763,2|2,3:1|3:1,3:1:0:0:
188,224,71414,6,0,B|232:304|272:300|272:300|400:252,1,242.999992584229,14|0,3:3|0:0,0:0:0:0:
416,232,71757,2,0,B|292:212|292:212|208:96,1,242.999992584229,2|0,3:3|0:0,0:0:0:0:
240,96,72100,2,0,L|300:160,1,80.9999975280763
320,136,72270,2,0,L|320:56,1,80.9999975280763,2|0,3:0|0:0,0:0:0:0:
352,56,72442,2,0,L|408:120,1,80.9999975280763,2|0,3:0|0:0,0:0:0:0:
436,104,72613,2,0,L|464:28,1,80.9999975280763
500,36,72785,6,0,P|504:136|424:272,1,242.999992584229,2|0,3:0|0:0,0:0:0:0:
392,248,73128,2,0,P|432:176|432:168,1,80.9999975280763,2|0,3:0|0:0,0:0:0:0:
392,156,73300,2,0,P|352:228|344:232,1,80.9999975280763
316,196,73471,2,0,P|352:120|344:104,1,80.9999975280763
308,120,73642,2,0,P|264:192|256:196,1,80.9999975280763,2|0,3:0|0:0,0:0:0:0:
228,172,73814,2,0,P|272:96|100:36,1,323.999990112305,2|0,3:0|0:0,0:0:0:0:
164,224,74328,1,0,0:0:0:0:
268,48,74500,5,8,0:2:0:0:
348,236,74671,1,8,0:2:0:0:
348,236,74842,1,8,0:2:0:0:
192,108,75014,1,8,0:2:0:0:
200,308,75185,1,8,0:2:0:0:
200,308,75357,1,8,0:2:0:0:
200,308,75528,6,0,P|152:256|128:192,1,135.000005149842,0|0,3:0|3:0,3:0:0:0:
248,32,75871,2,0,P|272:116|264:176,1,135.000005149842,0|0,3:0|3:0,3:0:0:0:
112,232,76214,5,0,2:0:0:0:
116,184,76300,1,0,2:0:0:0:
148,148,76385,1,0,2:0:0:0:
196,128,76471,1,0,2:0:0:0:
240,128,76557,1,0,2:0:0:0:
280,144,76642,1,0,2:0:0:0:
308,172,76728,1,0,2:0:0:0:
320,220,76814,1,0,2:0:0:0:
312,260,76900,6,0,P|232:336|112:316,1,202.500007724762,6|0,2:0|0:0,0:0:0:0:
152,292,77242,2,0,P|240:264|296:128,1,242.999992584229,2|0,3:0|0:0,0:0:0:0:
256,108,77585,2,0,P|236:192|220:212,1,80.9999975280763
192,176,77757,2,0,P|224:96|224:84,1,80.9999975280763,2|0,3:0|0:0,0:0:0:0:
184,84,77928,2,0,P|152:164|136:176,1,80.9999975280763,2|0,3:0|0:0,0:0:0:0:
114,140,78100,2,0,P|153:68|157:44,1,80.9999975280763
168,48,78271,6,0,P|256:24|376:124,1,242.999992584229,2|0,3:3|0:0,0:0:0:0:
368,148,78614,2,0,L|352:228,1,80.9999975280763,2|0,3:0|0:0,0:0:0:0:
304,224,78785,2,0,P|320:136|200:44,1,242.999992584229
188,92,79128,2,0,P|260:124|276:160,1,80.9999975280763,2|0,3:0|0:0,0:0:0:0:
228,164,79300,2,0,P|136:132|28:228,1,242.999992584229,2|0,3:0|0:0,0:0:0:0:
36,252,79642,6,4,P|96:204|304:288,1,323.999990112305,4|4,2:3|0:0,2:3:0:0:
124,380,80157,1,0,0:0:0:0:
260,228,80328,1,0,0:0:0:0:
64,172,80500,1,0,0:0:0:0:
196,328,80671,1,0,0:0:0:0:
164,128,80842,1,0,0:0:0:0:
396,200,81014,6,10,L|312:144,1,80.9999975280763,10|10,3:1|3:1,3:1:0:0:
368,240,81185,2,10,L|296:192,1,80.9999975280763,10|10,3:1|3:1,3:1:0:0:
264,232,81357,2,10,L|336:280,1,80.9999975280763,10|10,3:1|3:1,3:1:0:0:
232,272,81528,2,10,L|300:316,1,80.9999975280763,10|10,3:1|3:1,3:1:0:0:
328,336,81700,1,0,0:0:0:0:
492,216,81871,1,10,3:1:0:0:
492,216,82042,1,10,3:1:0:0:
300,152,82214,1,10,3:1:0:0:
300,152,82385,6,0,P|236:216|56:208,2,270.000010299683,10|8|0,1:0|2:0|0:0,0:0:0:0:
152,16,83242,1,8,2:0:0:0:
112,216,83414,1,8,2:0:0:0:
300,144,83585,1,0,0:0:0:0:
100,116,83757,5,8,2:0:0:0:
260,236,83928,2,0,P|344:252|396:224,1,135.000005149842,0|8,0:0|2:0,0:0:0:0:
496,64,84271,2,0,P|408:88|368:124,1,135.000005149842
332,312,84614,2,8,P|468:240|480:220,1,135.000005149842,8|8,2:0|2:0,2:0:0:0:
496,64,84957,2,0,P|396:96|356:152,1,135.000005149842,0|8,0:0|2:0,0:0:0:0:
480,292,85300,5,0,0:0:0:0:
300,200,85471,1,8,2:0:0:0:
164,352,85642,1,0,0:0:0:0:
360,296,85814,1,0,0:0:0:0:
172,228,85985,1,8,2:0:0:0:
332,100,86157,1,8,2:0:0:0:
268,292,86328,1,0,0:0:0:0:
200,100,86500,5,8,2:0:0:0:
200,100,86671,2,0,P|136:60|64:120,1,135.000005149842,0|8,0:0|2:0,0:0:0:0:
140,276,87014,2,0,P|192:312|256:256,1,135.000005149842
160,96,87357,1,8,2:0:0:0:
336,196,87528,1,8,2:0:0:0:
400,4,87700,1,0,0:0:0:0:
256,144,87871,5,12,3:3:0:0:
440,232,88042,1,0,0:0:0:0:
440,232,88214,2,0,B|320:292|320:292|192:244,1,242.999992584229,2|0,3:0|0:0,0:0:0:0:
212,228,88557,2,0,P|256:152|284:144,1,80.9999975280763
288,176,88729,2,0,P|256:244|284:276,1,80.9999975280763,2|0,3:0|0:0,0:0:0:0:
296,256,88900,2,0,P|328:176|340:168,1,80.9999975280763,2|0,3:0|0:0,0:0:0:0:
368,204,89071,2,0,P|344:252|348:312,1,80.9999975280763
384,296,89242,6,0,B|416:216|424:164|424:164|296:80,1,242.999992584229,2|0,3:0|0:0,0:0:0:0:
296,144,89585,2,0,L|364:196,1,80.9999975280763,2|0,3:0|0:0,0:0:0:0:
336,232,89757,2,0,B|260:176|260:176|92:156,1,242.999992584229
100,204,90100,2,0,L|184:212,1,80.9999975280763,2|0,3:0|0:0,0:0:0:0:
184,256,90271,2,0,B|96:252|96:252|16:252|16:252|60:84,1,323.999990112305,2|0,3:0|0:0,0:0:0:0:
240,16,90785,5,0,0:0:0:0:
356,184,90957,1,0,2:0:0:0:
156,164,91128,1,0,2:0:0:0:
336,72,91300,1,0,2:0:0:0:
244,252,91471,1,0,2:0:0:0:
432,320,91642,1,0,2:0:0:0:
308,160,91814,1,0,2:0:0:0:
152,320,91985,6,2,L|224:240,1,80.9999975280763,2|2,3:1|3:1,3:1:0:0:
200,216,92157,2,2,L|144:284,1,80.9999975280763,2|2,3:1|3:1,3:1:0:0:
88,272,92328,2,2,L|152:192,1,80.9999975280763,2|2,3:1|3:1,3:1:0:0:
120,180,92500,2,2,B|64:244|36:284|36:284|36:56,1,323.999990112305,2|2,3:1|3:1,3:1:0:0:
224,16,93014,1,2,3:1:0:0:
224,16,93185,1,2,3:1:0:0:
352,172,93357,6,0,P|368:264|264:336,1,202.500007724762,6|0,3:1|0:0,0:0:0:0:
256,304,93700,2,0,P|308:252|312:204,1,80.9999975280763,2|0,3:0|0:0,0:0:0:0:
276,224,93871,2,0,P|236:280|224:284,1,80.9999975280763
204,248,94042,2,0,P|248:188|240:168,1,80.9999975280763
212,168,94214,2,0,P|184:212|124:240,1,80.9999975280763,2|0,3:0|0:0,0:0:0:0:
136,200,94385,2,0,P|184:144|184:136,1,67.5000025749208,2|0,3:0|0:0,0:0:0:0:
144,124,94557,2,0,P|108:180|88:192,1,80.9999975280763
76,160,94728,6,2,B|120:104|120:52|120:52|244:32,1,242.999992584229,2|2,3:0|3:0,3:0:0:0:
248,56,95071,2,0,L|180:120,1,80.9999975280763,2|0,3:0|0:0,0:0:0:0:
216,148,95242,2,0,B|280:96|280:96|444:80,1,242.999992584229
444,128,95585,2,0,L|352:136,1,80.9999975280763,2|0,3:0|0:0,0:0:0:0:
356,184,95757,2,0,B|464:188|464:188|256:280,1,323.999990112305,2|0,3:0|0:0,0:0:0:0:
266,275,96271,5,0,0:0:0:0:
116,140,96442,1,8,0:2:0:0:
44,332,96614,1,8,0:2:0:0:
44,332,96785,1,8,0:2:0:0:
116,140,96957,1,8,0:2:0:0:
244,296,97128,1,8,0:2:0:0:
244,296,97300,1,8,0:2:0:0:
244,296,97471,6,0,P|284:208|268:164,1,135.000005149842
128,36,97814,2,0,P|128:148|176:192,1,135.000005149842
300,272,98157,5,0,0:2:0:0:
332,240,98242,1,0,0:2:0:0:
352,200,98328,1,0,0:2:0:0:
364,156,98414,1,0,0:2:0:0:
360,112,98500,1,0,0:2:0:0:
340,72,98585,1,0,0:2:0:0:
304,48,98671,1,0,0:2:0:0:
260,44,98757,1,0,0:0:0:0:
224,60,98842,6,0,P|164:124|116:236,1,202.500007724762,0|0,0:2|0:0,0:0:0:0:
152,252,99185,2,0,P|188:184|212:172,1,80.9999975280763,2|0,3:0|0:0,0:0:0:0:
228,204,99357,2,0,P|192:244|200:296,1,80.9999975280763
228,288,99528,2,0,P|268:200|276:192,1,80.9999975280763
300,236,99700,2,0,P|280:336|300:352,1,80.9999975280763,2|0,3:0|0:0,0:0:0:0:
312,324,99871,2,0,P|344:240|356:232,1,80.9999975280763,2|0,3:0|0:0,0:0:0:0:
388,264,100042,2,0,P|368:364|384:384,1,80.9999975280763
396,348,100214,6,0,B|428:268|488:220|488:220|456:120,1,242.999992584229,2|0,3:0|0:0,0:0:0:0:
412,132,100557,2,2,L|408:224,1,80.9999975280763,2|2,3:0|3:0,3:0:0:0:
364,216,100728,2,0,B|368:100|368:100|260:200,1,242.999992584229
240,160,101071,2,0,L|300:100,1,80.9999975280763,2|0,3:0|0:0,0:0:0:0:
264,72,101243,2,0,L|28:304,1,323.999990112305,2|0,0:3|0:0,0:0:0:0:
236,272,101757,5,0,0:0:0:0:
76,152,101928,1,0,0:0:0:0:
72,356,102100,1,0,0:0:0:0:
176,184,102271,1,0,0:0:0:0:
296,344,102442,1,0,0:0:0:0:
112,256,102614,1,0,0:0:0:0:
312,232,102785,1,0,0:0:0:0:
184,76,102957,6,0,L|272:124,1,80.9999975280763,10|0,3:1|0:0,0:0:0:0:
160,116,103128,2,0,L|232:156,1,80.9999975280763,10|0,3:1|0:0,0:0:0:0:
212,200,103300,2,0,L|128:152,1,80.9999975280763,10|0,3:1|0:0,0:0:0:0:
188,244,103471,2,0,L|112:200,1,80.9999975280763,10|0,3:1|0:0,0:0:0:0:
92,248,103642,2,0,B|184:304|184:304|252:276,1,161.999995056153,0|10,0:0|3:1,0:0:0:0:
396,160,103985,1,10,3:1:0:0:
348,356,104157,1,10,3:1:0:0:
204,216,104328,6,0,P|148:140|288:32,1,270.000010299683,8|8,2:0|2:0,0:0:0:0:
368,188,104842,1,0,0:0:0:0:
204,68,105014,1,0,0:0:0:0:
168,268,105185,1,8,2:0:0:0:
292,108,105357,1,8,2:0:0:0:
100,168,105528,1,0,0:0:0:0:
100,168,105700,6,0,P|64:248|84:296,1,135.000005149842,8|0,2:0|0:0,0:0:0:0:
248,180,106042,2,0,P|232:96|200:52,1,135.000005149842,8|0,2:0|0:0,0:0:0:0:
100,168,106385,2,0,P|64:248|120:320,1,135.000005149842,0|8,0:0|2:0,0:0:0:0:
248,180,106728,2,0,P|236:108|204:56,1,135.000005149842,8|0,2:0|0:0,0:0:0:0:
80,216,107071,5,8,2:0:0:0:
220,68,107242,1,0,0:0:0:0:
280,260,107414,5,8,2:0:0:0:
304,280,107500,1,8,2:0:0:0:
332,292,107585,1,8,2:0:0:0:
368,296,107671,1,8,2:0:0:0:
400,288,107757,1,8,2:0:0:0:
424,264,107842,1,8,2:0:0:0:
440,232,107928,1,8,2:0:0:0:
440,200,108014,1,8,2:0:0:0:
432,168,108100,1,8,2:0:0:0:
416,140,108185,1,8,2:0:0:0:
396,116,108271,1,8,2:0:0:0:
372,96,108357,1,8,2:0:0:0:
344,88,108442,6,0,P|264:84|192:108,1,135.000005149842,8|0,3:0|0:0,0:0:0:0:
316,272,108785,5,8,2:0:0:0:
280,288,108871,1,8,2:0:0:0:
244,296,108957,1,8,2:0:0:0:
212,296,109042,1,8,2:0:0:0:
180,288,109128,1,8,2:0:0:0:
152,272,109214,1,8,2:0:0:0:
128,248,109300,1,8,2:0:0:0:
112,216,109385,1,8,2:0:0:0:
112,180,109471,1,8,2:0:0:0:
120,148,109557,1,8,2:0:0:0:
136,120,109642,1,8,2:0:0:0:
160,96,109728,1,8,2:0:0:0:
192,80,109814,6,0,P|264:60|476:88,2,270.000010299683,2|8|0,3:0|2:0|0:0,0:0:0:0:
136,276,110671,1,8,2:0:0:0:
316,180,110842,1,8,2:0:0:0:
132,92,111014,1,0,0:0:0:0:
236,264,111185,5,8,2:0:0:0:
272,64,111357,1,0,0:0:0:0:
140,216,111528,2,0,P|160:300|204:340,1,135.000005149842,8|0,2:0|0:0,0:0:0:0:
336,188,111871,2,0,P|296:120|240:84,1,135.000005149842,0|8,0:0|2:0,0:0:0:0:
204,268,112214,2,0,P|280:312|344:308,1,135.000005149842,8|0,2:0|0:0,0:0:0:0:
304,112,112557,6,0,P|224:76|104:196,1,270.000010299683,0|10,0:0|0:2,0:0:0:0:
104,185,113071,1,10,0:2:0:0:
248,328,113242,1,10,0:2:0:0:
248,328,113414,1,10,0:2:0:0:
104,185,113585,1,10,0:2:0:0:
264,60,113757,1,10,0:2:0:0:
264,60,113928,5,10,0:2:0:0:
400,212,114100,1,10,0:2:0:0:
264,60,114271,1,10,0:2:0:0:
264,60,114442,1,10,0:2:0:0:
112,196,114614,1,10,0:2:0:0:
264,332,114785,1,10,0:2:0:0:
264,332,114957,1,10,0:2:0:0:
112,196,115128,1,10,0:2:0:0:
112,196,115300,6,0,B|160:188|160:188|148:140|148:140|208:140|208:140|204:80|204:80|248:72,1,202.500007724762
208,72,115642,2,0,B|236:136|236:136|292:88|292:88|316:156|316:156|368:172,1,270.000010299683,8|0,2:0|0:0,0:0:0:0:
492,332,116157,5,8,2:0:0:0:
300,272,116328,1,8,2:0:0:0:
456,140,116500,1,0,0:0:0:0:
396,332,116671,5,8,2:0:0:0:
328,144,116842,1,0,0:0:0:0:
328,144,117014,2,0,L|212:244,1,135.000005149842,8|0,2:0|0:0,0:0:0:0:
40,148,117357,2,0,L|200:156,1,135.000005149842,0|8,0:0|2:0,0:0:0:0:
100,344,117700,2,0,L|224:232,1,135.000005149842,8|0,2:0|0:0,0:0:0:0:
136,60,118042,6,0,L|264:168,1,135.000005149842
392,280,118385,1,10,0:2:0:0:
392,280,118557,1,10,0:2:0:0:
240,148,118728,1,10,0:2:0:0:
116,308,118900,1,10,0:2:0:0:
116,308,119071,1,10,0:2:0:0:
116,308,119242,2,0,P|172:228|232:212,1,135.000005149842,10|8,0:2|2:0,0:0:0:0:
332,372,119585,5,2,0:3:0:0:
412,184,119757,1,2,0:3:0:0:
212,204,119928,1,2,0:3:0:0:
396,292,120100,1,2,0:3:0:0:
308,112,120271,1,2,0:3:0:0:
204,284,120442,1,2,0:3:0:0:
76,124,120614,1,2,0:3:0:0:
264,200,120785,6,0,B|328:216|328:216|304:260|304:260|424:256|436:300,1,202.500007724762
400,244,121128,2,0,B|400:148|400:148|360:200|360:200|272:80,1,270.000010299683,8|0,2:0|0:0,0:0:0:0:
116,20,121642,5,8,2:0:0:0:
60,216,121814,1,8,2:0:0:0:
256,172,121985,1,0,0:0:0:0:
64,104,122157,5,8,2:0:0:0:
176,272,122328,1,0,0:0:0:0:
224,76,122500,2,0,P|308:44|388:48,1,135.000005149842,8|0,2:0|0:0,0:0:0:0:
296,236,122842,2,0,P|208:252|120:208,1,135.000005149842,0|8,0:0|2:0,0:0:0:0:
112,44,123185,1,8,2:0:0:0:
284,148,123357,1,0,0:0:0:0:
128,276,123528,6,0,P|196:324|376:276,1,270.000010299683,0|10,0:0|0:2,0:0:0:0:
367,285,124042,1,10,0:2:0:0:
336,84,124214,1,10,0:2:0:0:
336,84,124385,1,10,0:2:0:0:
336,84,124557,2,10,P|256:156|244:200,1,135.000005149842,10|10,0:2|0:2,0:2:0:0:
452,200,124900,6,10,P|484:116|468:60,1,135.000005149842,10|10,0:2|0:2,0:2:0:0:
276,108,125242,1,10,0:2:0:0:
276,108,125414,1,10,0:2:0:0:
276,108,125585,2,10,P|208:188|164:216,1,135.000005149842,10|10,0:2|0:2,0:2:0:0:
12,100,125928,2,10,P|88:56|148:40,1,135.000005149842,10|10,0:2|0:2,0:2:0:0:
284,176,126271,6,0,P|396:176|520:64,2,270.000010299683,2|8|0,3:0|2:0|0:0,0:0:0:0:
172,8,127128,1,8,2:0:0:0:
324,144,127300,1,8,2:0:0:0:
124,180,127471,1,0,0:0:0:0:
280,52,127642,6,0,P|368:56|408:92,1,135.000005149842,8|0,2:0|0:0,0:0:0:0:
284,248,127985,2,0,P|236:248|160:172,1,135.000005149842,8|0,2:0|0:0,0:0:0:0:
348,96,128328,2,0,P|396:168|400:224,1,135.000005149842,0|8,0:0|2:0,0:0:0:0:
204,168,128671,2,0,P|216:88|264:36,1,135.000005149842,8|0,2:0|0:0,0:0:0:0:
380,200,129014,5,8,2:0:0:0:
232,336,129185,1,0,0:0:0:0:
220,132,129357,1,8,2:0:0:0:
340,296,129528,1,0,0:0:0:0:
148,224,129700,1,0,0:0:0:0:
328,136,129871,1,8,2:0:0:0:
472,276,130042,1,8,2:0:0:0:
272,312,130214,1,0,0:0:0:0:
416,168,130385,6,0,P|404:80|352:48,1,135.000005149842,8|0,2:0|0:0,0:0:0:0:
252,220,130728,2,0,P|320:288|376:292,1,135.000005149842,8|0,2:0|0:0,0:0:0:0:
388,92,131071,2,0,P|320:36|264:28,1,135.000005149842,0|8,0:0|2:0,0:0:0:0:
320,228,131414,2,0,P|400:276|460:264,1,135.000005149842,8|0,2:0|0:0,0:0:0:0:
384,76,131757,1,6,3:0:0:0:
156,160,132100,5,2,3:0:0:0:
308,296,132271,1,2,3:0:0:0:
124,128,132442,1,2,3:0:0:0:
344,328,132614,1,2,3:0:0:0:
348,112,133128,5,2,3:0:0:0:
220,268,133300,1,2,3:0:0:0:
376,80,133471,1,2,3:0:0:0:
192,300,133643,1,2,3:0:0:0:
316,140,133814,1,2,3:0:0:0:
120,96,133985,1,2,3:0:0:0:
276,228,134157,1,2,3:0:0:0:
76,220,134328,1,2,3:0:0:0:
232,88,134500,1,10,3:2:0:0:
160,308,134842,5,2,3:0:0:0:
360,280,135014,1,2,3:0:0:0:
208,148,135185,1,2,3:0:0:0:
288,336,135357,1,2,3:0:0:0:
420,136,135871,5,0,2:0:0:0:
420,136,136042,1,0,2:0:0:0:
420,136,136214,2,0,P|368:84|276:68,1,135.000005149842,0|0,2:0|2:0,2:0:0:0:
280,268,136557,1,0,2:0:0:0:
280,268,136728,1,0,2:0:0:0:
280,268,136900,2,0,P|360:316|424:320,1,135.000005149842,0|0,2:0|2:0,2:0:0:0:
388,120,137242,1,12,2:0:0:0:
156,104,137585,5,2,3:0:0:0:
308,240,137757,1,2,3:0:0:0:
128,76,137928,1,2,3:0:0:0:
336,268,138100,1,2,3:0:0:0:
156,272,138614,5,2,3:0:0:0:
308,136,138785,1,2,3:0:0:0:
124,300,138957,1,2,3:0:0:0:
332,108,139128,1,2,3:0:0:0:
184,244,139300,1,2,3:0:0:0:
236,48,139471,1,2,3:0:0:0:
380,188,139642,1,2,3:0:0:0:
180,144,139814,1,2,3:0:0:0:
328,280,139985,1,10,3:2:0:0:
116,232,140328,5,2,3:0:0:0:
244,76,140500,1,2,3:0:0:0:
312,268,140671,1,2,3:0:0:0:
312,268,140842,2,2,P|276:212|300:136,1,135.000005149842,2|2,3:0|3:0,3:0:0:0:
484,212,141185,2,2,P|496:280|444:352,1,135.000005149842,2|2,3:0|3:0,3:0:0:0:
292,232,141528,1,2,3:0:0:0:
452,104,141700,1,2,3:0:0:0:
476,304,141871,1,2,3:0:0:0:
352,144,142042,5,0,2:0:0:0:
316,116,142128,1,0,2:0:0:0:
272,116,142214,1,0,2:0:0:0:
228,136,142300,1,0,2:0:0:0:
200,168,142385,1,0,2:0:0:0:
184,212,142471,1,0,2:0:0:0:
184,256,142557,1,0,2:0:0:0:
208,292,142642,1,0,2:0:0:0:
244,316,142728,6,0,P|320:288|320:108,1,270.000010299683,12|2,2:0|3:0,0:0:0:0:
136,200,143242,1,2,3:0:0:0:
204,8,143414,1,2,3:0:0:0:
324,172,143585,1,2,3:0:0:0:
260,288,144100,5,2,3:0:0:0:
148,120,144271,1,2,3:0:0:0:
80,312,144442,1,2,3:0:0:0:
240,188,144614,1,2,3:0:0:0:
392,320,144785,1,2,3:0:0:0:
192,292,144957,1,2,3:0:0:0:
320,136,145128,1,2,3:0:0:0:
304,340,145300,1,2,3:0:0:0:
188,176,145471,1,14,3:2:0:0:
444,168,145814,5,2,3:0:0:0:
264,260,145985,1,2,3:0:0:0:
296,60,146157,1,2,3:0:0:0:
368,248,146328,1,2,3:0:0:0:
116,176,146842,5,0,2:0:0:0:
116,176,147014,1,0,2:0:0:0:
116,176,147185,2,0,P|172:224|228:276,1,135.000005149842,0|0,2:0|2:0,2:0:0:0:
420,252,147528,1,0,2:0:0:0:
420,252,147700,1,0,2:0:0:0:
420,252,147871,2,0,L|312:160,1,135.000005149842,0|0,2:0|2:0,2:0:0:0:
116,140,148214,6,0,P|192:216|348:276,1,270.000010299683,12|8,2:0|2:0,0:0:0:0:
304,76,148728,1,0,0:0:0:0:
180,236,148900,1,0,0:0:0:0:
380,224,149071,1,8,2:0:0:0:
212,112,149242,1,8,2:0:0:0:
312,288,149414,1,0,0:0:0:0:
112,264,149585,5,8,2:0:0:0:
112,264,149757,2,0,P|172:184|380:116,1,270.000010299683
316,320,150271,1,0,0:0:0:0:
168,184,150442,1,8,2:0:0:0:
372,176,150614,1,8,2:0:0:0:
192,272,150785,1,0,0:0:0:0:
260,80,150957,6,0,P|368:40|456:176,1,270.000010299683,8|8,2:0|2:0,0:0:0:0:
272,224,151471,1,0,0:0:0:0:
364,44,151642,1,0,0:0:0:0:
424,240,151814,1,8,2:0:0:0:
264,116,151985,1,8,2:0:0:0:
360,296,152157,1,0,0:0:0:0:
164,244,152328,6,0,P|76:244|144:360,1,270.000010299683,8|8,2:0|2:0,0:0:0:0:
288,236,152842,1,0,0:0:0:0:
172,72,153014,1,0,0:0:0:0:
60,240,153185,1,0,2:0:0:0:
236,140,153357,1,0,2:0:0:0:
280,336,153528,1,8,2:0:0:0:
144,188,153700,1,12,2:0:0:0:
256,192,153871,12,12,159185,2:0:0:0:
176,84,170157,5,0,2:0:0:0:
352,248,170500,1,0,2:0:0:0:
128,296,170842,1,0,2:0:0:0:
280,112,171185,1,0,2:0:0:0:
328,316,171528,5,0,2:0:0:0:
128,168,171871,1,0,2:0:0:0:
372,168,172214,1,0,2:0:0:0:
252,36,172557,1,0,2:0:0:0:
80,152,172900,5,0,2:0:0:0:
280,228,173242,1,0,2:0:0:0:
128,316,173585,1,0,2:0:0:0:
204,108,173928,1,0,2:0:0:0:
340,264,174271,5,0,2:0:0:0:
416,64,174614,1,0,2:0:0:0:
224,104,174957,1,0,2:0:0:0:
432,192,175300,1,0,2:0:0:0:
252,328,175642,6,0,L|172:252,1,90,0|0,2:0|2:0,2:0:0:0:
188,132,175985,2,0,L|264:208,1,90,0|0,2:0|2:0,2:0:0:0:
388,208,176328,2,0,L|312:136,1,90,0|0,2:0|2:0,2:0:0:0:
328,12,176671,2,0,L|400:80,1,90,0|0,2:0|2:0,2:0:0:0:
496,164,177014,6,0,L|440:240,1,90,0|0,2:0|2:0,2:0:0:0:
308,244,177357,2,0,L|372:164,1,90,0|0,2:0|2:0,2:0:0:0:
336,40,177700,2,0,L|280:116,1,90,0|0,2:0|2:0,2:0:0:0:
148,112,178042,2,0,L|224:28,1,90,0|0,2:0|2:0,2:0:0:0:
284,156,178385,5,0,2:0:0:0:
296,200,178471,1,0,2:0:0:0:
296,244,178557,1,0,2:0:0:0:
276,284,178642,1,0,2:0:0:0:
236,304,178728,1,0,2:0:0:0:
192,308,178814,1,0,2:0:0:0:
152,292,178900,1,0,2:0:0:0:
120,260,178985,1,0,2:0:0:0:
108,216,179071,5,0,2:0:0:0:
112,172,179157,1,0,2:0:0:0:
132,132,179242,1,0,2:0:0:0:
168,104,179328,1,0,2:0:0:0:
212,92,179414,1,0,2:0:0:0:
256,100,179500,1,0,2:0:0:0:
296,120,179585,1,0,2:0:0:0:
328,152,179671,1,0,2:0:0:0:
344,192,179757,1,0,2:0:0:0:
96,104,181128,6,0,L|96:188,1,67.5000025749208,6|0,0:3|0:0,0:0:0:0:
144,104,181300,2,0,L|144:176,1,67.5000025749208,6|0,0:3|0:0,0:0:0:0:
192,172,181471,2,0,L|192:100,1,67.5000025749208,8|0,2:0|0:0,0:0:0:0:
240,172,181642,2,0,L|240:96,1,67.5000025749208
248,72,181814,2,0,B|316:40|372:120|372:120|316:268,1,270.000010299683,0|8,0:0|2:0,0:0:0:0:
140,316,182328,1,0,0:0:0:0:
248,144,182500,5,8,2:0:0:0:
308,336,182671,1,0,0:0:0:0:
148,212,182842,1,8,2:0:0:0:
352,184,183014,1,0,0:0:0:0:
192,308,183185,2,0,P|104:288|72:248,1,135.000005149842,0|8,0:0|2:0,0:0:0:0:
120,56,183528,2,0,P|184:84|220:140,1,135.000005149842,8|0,2:0|0:0,0:0:0:0:
308,320,183871,6,0,P|360:264|360:236,1,67.5000025749208,6|0,0:3|0:0,0:0:0:0:
264,288,184042,2,0,P|320:236|320:228,1,67.5000025749208,6|0,0:3|0:0,0:0:0:0:
276,212,184214,2,0,P|244:256|216:268,1,67.5000025749208,8|0,2:0|0:0,0:0:0:0:
240,176,184385,2,0,P|208:224|176:236,1,67.5000025749208
164,248,184557,2,0,B|96:248|60:184|60:184|192:116,1,270.000010299683,0|8,0:0|2:0,0:0:0:0:
388,108,185071,1,0,0:0:0:0:
340,304,185242,5,8,2:0:0:0:
228,136,185414,1,0,0:0:0:0:
412,224,185585,1,8,2:0:0:0:
288,64,185757,1,0,0:0:0:0:
244,260,185928,2,0,P|184:304|100:288,1,135.000005149842,0|8,0:0|2:0,0:0:0:0:
170,105,186271,2,0,P|230:61|314:77,1,135.000005149842,8|0,2:0|0:0,0:0:0:0:
388,240,186614,6,0,L|424:300,1,67.5000025749208,6|0,0:3|0:0,0:0:0:0:
388,240,186785,2,0,L|320:276,1,67.5000025749208,6|0,0:3|0:0,0:0:0:0:
388,240,186957,2,0,L|448:208,1,67.5000025749208,8|0,2:0|0:0,0:0:0:0:
388,240,187128,2,0,L|352:180,1,67.5000025749208
328,152,187300,2,0,B|276:56|276:56|236:252,1,270.000010299683,0|8,0:0|2:0,0:0:0:0:
104,360,187814,1,0,0:0:0:0:
148,164,187985,5,8,2:0:0:0:
260,336,188157,1,0,0:0:0:0:
80,244,188328,1,8,2:0:0:0:
276,196,188500,1,0,0:0:0:0:
136,52,188671,2,0,L|240:160,1,135.000005149842,0|8,0:0|2:0,0:0:0:0:
428,196,189014,2,0,L|324:92,1,135.000005149842,8|0,2:0|0:0,0:0:0:0:
272,296,189357,6,0,P|300:336|296:372,1,67.5000025749208,6|0,0:3|0:0,0:0:0:0:
272,296,189528,2,0,P|308:272|344:272,1,67.5000025749208,6|0,3:0|0:0,0:0:0:0:
272,296,189700,2,0,P|240:268|248:224,1,67.5000025749208,8|0,2:0|0:0,0:0:0:0:
272,296,189871,2,0,P|236:324|192:324,1,67.5000025749208
176,328,190042,2,0,B|108:280|100:224|100:224|160:88,1,270.000010299683,0|8,0:0|2:0,0:0:0:0:
348,28,190557,1,0,0:0:0:0:
408,220,190728,5,8,2:0:0:0:
208,184,190900,1,0,0:0:0:0:
400,120,191071,1,8,2:0:0:0:
276,280,191242,1,0,0:0:0:0:
232,80,191415,2,0,L|344:176,1,135.000005149842,0|8,0:0|2:0,0:0:0:0:
336,368,191757,2,0,L|220:268,1,135.000005149842,8|0,2:0|0:0,0:0:0:0:
76,152,192100,6,0,L|152:152,1,67.5000025749208,6|0,0:3|0:0,0:0:0:0:
224,216,192271,2,0,L|140:216,1,67.5000025749208,6|0,0:3|0:0,0:0:0:0:
72,276,192442,2,0,L|144:276,1,67.5000025749208,8|0,2:0|0:0,0:0:0:0:
220,340,192614,2,0,L|124:340,1,67.5000025749208
104,344,192785,2,0,B|40:292|44:208|44:208|192:128,1,270.000010299683,0|8,0:0|2:0,0:0:0:0:
344,108,193300,1,0,0:0:0:0:
284,300,193471,5,8,2:0:0:0:
156,144,193642,1,0,0:0:0:0:
348,216,193814,1,8,2:0:0:0:
228,52,193985,1,0,0:0:0:0:
164,244,194157,1,0,0:0:0:0:
56,72,194328,1,8,2:0:0:0:
4,268,194500,1,8,2:0:0:0:
152,132,194671,1,0,0:0:0:0:
292,280,194842,6,0,P|360:304|400:288,1,67.5000025749208,6|0,0:3|0:0,0:0:0:0:
448,264,195014,2,0,P|414:258|387:239,1,67.5000025749208,6|0,0:3|0:0,0:0:0:0:
328,156,195185,2,0,P|355:174|388:180,1,67.5000025749208,8|0,2:0|0:0,0:0:0:0:
488,156,195357,2,0,P|454:150|427:131,1,67.5000025749208
400,96,195528,2,0,B|328:48|260:40|260:40|176:132,1,270.000010299683,0|8,0:0|2:0,0:0:0:0:
216,328,196042,1,0,0:0:0:0:
348,172,196214,5,8,2:0:0:0:
148,188,196385,1,0,0:0:0:0:
332,276,196557,1,8,2:0:0:0:
352,76,196728,1,0,0:0:0:0:
236,244,196900,1,0,0:0:0:0:
132,72,197071,1,8,2:0:0:0:
316,156,197242,1,8,2:0:0:0:
152,280,197414,1,0,0:0:0:0:
344,344,197585,5,2,2:3:0:0:
344,344,197671,1,2,2:3:0:0:
344,344,197757,1,2,2:3:0:0:
344,344,197842,1,2,2:3:0:0:
344,344,197928,2,0,P|360:264|316:168,1,135.000005149842,10|0,2:3|0:0,0:0:0:0:
156,140,198271,1,0,0:0:0:0:
260,316,198442,1,8,2:0:0:0:
60,292,198614,2,0,P|36:184|56:140,1,135.000005149842,8|0,2:0|0:0,0:0:0:0:
192,28,198957,6,0,P|164:128|172:172,1,135.000005149842,8|0,2:0|0:0,0:0:0:0:
324,288,199300,2,0,P|280:200|284:140,1,135.000005149842,8|0,2:0|0:0,0:0:0:0:
416,16,199642,2,0,P|376:104|392:172,1,135.000005149842,0|8,0:0|2:0,0:0:0:0:
508,296,199985,1,8,2:0:0:0:
320,216,200157,1,0,0:0:0:0:
172,352,200328,6,0,L|104:296,1,67.5000025749208,6|0,0:3|0:0,0:0:0:0:
152,272,200500,2,0,L|212:320,1,67.5000025749208,6|0,0:3|0:0,0:0:0:0:
240,280,200671,2,0,L|180:232,1,67.5000025749208,8|0,2:0|0:0,0:0:0:0:
224,200,200842,2,0,L|280:244,1,67.5000025749208
312,264,201014,2,0,B|376:304|376:304|432:112,1,270.000010299683,0|8,0:0|2:0,0:0:0:0:
232,156,201528,1,0,0:0:0:0:
88,12,201700,5,8,2:0:0:0:
32,208,201871,2,0,L|144:324,1,135.000005149842,0|8,0:0|2:0,0:0:0:0:
324,348,202214,2,0,L|220:240,1,135.000005149842
204,48,202557,2,0,L|304:156,1,135.000005149842,8|8,2:0|2:0,0:0:0:0:
496,184,202900,2,0,L|392:84,1,135.000005149842,0|4,0:0|2:0,0:0:0:0:
200,64,203414,5,0,2:0:0:0:
312,256,203757,1,0,2:0:0:0:
96,220,204100,1,0,2:0:0:0:
224,340,204442,5,0,2:0:0:0:
296,136,204785,1,0,2:0:0:0:
412,300,205128,1,0,2:0:0:0:
208,224,205471,1,0,2:0:0:0:
384,72,205814,5,0,2:0:0:0:
172,32,206157,1,0,2:0:0:0:
312,172,206500,1,0,2:0:0:0:
112,256,206842,1,0,2:0:0:0:
228,80,207185,5,0,2:0:0:0:
324,264,207528,1,0,2:0:0:0:
432,84,207871,1,0,2:0:0:0:
220,184,208214,1,0,2:0:0:0:
92,36,208556,6,0,L|208:36,1,90,4|0,2:0|2:0,2:0:0:0:
288,120,208900,2,0,L|176:120,1,90,0|0,2:0|2:0,2:0:0:0:
100,216,209242,2,0,L|216:216,1,90,0|0,2:0|2:0,2:0:0:0:
296,296,209585,2,0,L|200:296,1,90,0|0,2:0|2:0,2:0:0:0:
72,292,209928,6,0,L|72:184,1,90,0|0,2:0|2:0,2:0:0:0:
164,100,210271,2,0,L|164:200,1,90,0|0,2:0|2:0,2:0:0:0:
256,292,210614,2,0,L|256:200,1,90,0|0,2:0|2:0,2:0:0:0:
348,100,210957,2,0,L|348:200,1,90,0|0,2:0|2:0,2:0:0:0:
376,324,211300,5,0,2:0:0:0:
400,320,211385,1,0,2:0:0:0:
416,304,211471,1,0,2:0:0:0:
432,280,211557,1,0,2:0:0:0:
440,256,211642,1,0,2:0:0:0:
444,228,211728,1,0,2:0:0:0:
440,192,211814,1,0,2:0:0:0:
428,160,211900,1,0,2:0:0:0:
404,124,211985,5,0,2:0:0:0:
364,96,212071,1,0,2:0:0:0:
312,80,212157,1,0,2:0:0:0:
252,80,212242,1,0,2:0:0:0:
188,100,212328,1,0,2:0:0:0:
144,152,212414,1,0,2:0:0:0:
136,220,212500,1,0,2:0:0:0:
152,284,212585,1,0,2:0:0:0:
204,328,212671,6,8,P|256:340|300:324,1,90
252,200,213014,1,8,0:0:0:0:
252,200,213100,1,8,0:0:0:0:
252,200,213185,1,8,0:0:0:0:
372,260,213357,2,8,P|404:208|396:168,1,90
268,204,213700,1,8,0:0:0:0:
268,204,213785,1,8,0:0:0:0:
268,204,213871,1,8,0:0:0:0:
312,84,214042,6,0,P|244:64|92:144,1,202.500007724762,6|0,3:3|0:0,0:0:0:0:
144,140,214385,2,0,P|232:120|376:176,1,242.999992584229
344,208,214728,2,0,P|264:172|240:176,1,80.9999975280763,2|0,3:3|0:0,0:0:0:0:
248,212,214900,2,0,P|328:244|352:272,1,80.9999975280763
300,280,215071,2,0,P|252:256|200:264,1,80.9999975280763
216,296,215242,2,0,P|304:332|324:356,1,80.9999975280763
280,356,215414,6,0,B|192:336|152:296|152:296|168:188,1,242.999992584229,2|0,3:3|0:0,0:0:0:0:
216,192,215757,2,0,L|208:276,1,80.9999975280763
256,276,215928,2,0,L|264:192,1,80.9999975280763
308,204,216100,2,0,L|300:292,1,80.9999975280763,2|0,3:3|0:0,0:0:0:0:
348,288,216270,2,0,L|356:204,1,80.9999975280763
400,208,216442,2,0,B|396:300|396:300|488:148,1,242.999992584229
472,144,216785,6,0,P|436:68|256:40,1,270.000010299683,4|0,2:0|2:0,0:0:0:0:
364,216,217300,1,0,2:0:0:0:
176,144,217471,1,0,2:0:0:0:
196,344,217642,1,0,2:0:0:0:
276,156,217814,1,0,2:0:0:0:
104,264,217985,1,0,2:0:0:0:
96,60,218157,5,10,3:1:0:0:
96,60,218328,1,10,3:1:0:0:
96,60,218500,2,10,P|204:48|256:72,1,135.000005149842,10|10,3:1|3:1,3:1:0:0:
116,224,218842,1,0,2:0:0:0:
308,152,219014,1,10,3:1:0:0:
308,152,219185,1,10,3:1:0:0:
308,152,219357,2,10,P|384:224|392:280,1,135.000005149842,10|14,3:1|3:1,3:1:0:0:
152,272,219871,6,0,B|112:216|172:120|172:120|268:60,1,242.999992584229
272,116,220214,2,0,L|200:160,1,80.9999975280763,2|0,3:3|0:0,0:0:0:0:
228,200,220385,2,0,L|296:156,1,80.9999975280763
324,192,220557,2,0,L|256:240,1,80.9999975280763
288,276,220728,2,0,L|368:216,1,80.9999975280763
384,268,220900,6,0,P|300:336|152:332,1,242.999992584229,2|0,3:3|0:0,0:0:0:0:
168,292,221242,2,0,P|256:296|272:288,1,80.9999975280763
256,252,221414,2,0,P|176:244|156:228,1,80.9999975280763
176,200,221585,2,0,P|264:208|280:200,1,80.9999975280763,2|0,3:3|0:0,0:0:0:0:
260,160,221757,2,0,P|180:144|164:128,1,80.9999975280763
192,100,221928,2,0,B|288:112|348:76|352:76|352:76|360:280,1,323.999990112305,0|4,0:0|2:0,0:0:0:0:
358,235,222442,1,0,0:0:0:0:
188,348,222614,5,8,0:2:0:0:
220,148,222785,1,8,0:2:0:0:
220,148,222957,1,8,0:2:0:0:
188,348,223128,1,8,0:2:0:0:
40,208,223300,1,8,0:2:0:0:
40,208,223471,1,8,0:2:0:0:
40,208,223642,6,0,P|60:120|112:76,1,135.000005149842,0|0,3:0|3:0,3:0:0:0:
196,264,223985,1,0,3:0:0:0:
288,84,224157,1,0,3:0:0:0:
364,212,224328,5,0,2:0:0:0:
324,236,224414,5,0,2:0:0:0:
280,252,224500,1,0,2:0:0:0:
236,260,224585,1,0,2:0:0:0:
188,260,224671,1,0,2:0:0:0:
144,248,224757,1,0,2:0:0:0:
108,224,224842,1,0,2:0:0:0:
88,184,224928,1,0,2:0:0:0:
88,136,225014,6,0,P|144:52|248:20,1,202.500007724762,6|0,2:0|0:0,0:0:0:0:
248,64,225357,2,0,B|172:128|168:192|168:192|256:296,1,242.999992584229
272,240,225700,2,0,L|216:176,1,80.9999975280763,2|0,3:3|0:0,0:0:0:0:
256,148,225871,2,0,L|312:212,1,80.9999975280763
352,180,226042,2,0,L|296:116,1,80.9999975280763
340,84,226214,2,0,L|404:160,1,80.9999975280763
436,120,226385,6,0,B|360:24|360:24|212:76,1,242.999992584229,2|0,3:3|0:0,0:0:0:0:
264,112,226728,2,0,L|352:80,1,80.9999975280763
364,132,226900,2,0,L|280:164,1,80.9999975280763
304,208,227071,2,0,L|392:176,1,80.9999975280763,2|0,3:3|0:0,0:0:0:0:
404,228,227242,2,0,L|320:260,1,80.9999975280763
344,304,227414,2,0,B|432:272|432:272|480:252|480:252|408:80,1,323.999990112305,0|4,0:0|2:0,0:0:0:0:
220,20,227928,1,0,0:0:0:0:
96,180,228100,5,8,0:2:0:0:
296,216,228271,1,8,0:2:0:0:
136,92,228442,1,8,0:2:0:0:
196,288,228614,1,8,0:2:0:0:
292,112,228785,1,8,0:2:0:0:
132,240,228957,1,8,0:2:0:0:
216,60,229128,6,10,P|296:32|320:40,1,80.9999975280763,10|10,3:1|3:1,3:1:0:0:
308,72,229300,2,10,P|228:112|216:164,1,80.9999975280763,10|10,3:1|3:1,3:1:0:0:
256,144,229471,2,10,P|300:120|348:120,1,80.9999975280763,10|10,3:1|3:1,3:1:0:0:
340,160,229642,2,0,P|240:196|184:332,1,242.999992584229,10|0,3:1|0:0,0:0:0:0:
228,324,229985,2,10,P|264:244|276:236,1,80.9999975280763,10|10,3:1|3:1,3:1:0:0:
300,268,230157,2,10,P|272:352|288:380,1,80.9999975280763,10|10,3:1|3:1,3:1:0:0:
312,356,230328,2,10,P|348:276|360:268,1,80.9999975280763,10|10,3:1|3:1,3:1:0:0:
384,308,230500,6,0,B|388:400|440:360|440:360|488:136,1,323.999990112305,14|0,3:1|0:0,0:0:0:0:
324,24,231014,1,0,0:0:0:0:
196,180,231185,1,8,2:0:0:0:
392,128,231357,1,0,0:0:0:0:
200,68,231528,1,0,0:0:0:0:
272,260,231700,1,0,0:0:0:0:
72,284,231871,5,8,2:0:0:0:
228,156,232042,1,0,0:0:0:0:
340,324,232214,1,0,0:0:0:0:
152,248,232385,1,0,0:0:0:0:
344,184,232557,1,8,2:0:0:0:
200,40,232728,1,0,0:0:0:0:
244,240,232900,1,0,0:0:0:0:
396,104,233071,1,0,0:0:0:0:
196,136,233242,6,0,P|120:204|104:276,1,135.000005149842,8|0,2:0|0:0,0:0:0:0:
312,216,233585,2,0,P|364:148|368:56,1,135.000005149842
176,156,233928,2,0,P|152:244|168:320,1,135.000005149842,8|0,2:0|0:0,0:0:0:0:
340,196,234271,2,0,P|364:120|352:56,1,135.000005149842
156,112,234614,5,8,2:0:0:0:
260,288,234785,1,0,0:0:0:0:
364,112,234957,1,0,0:0:0:0:
192,220,235128,1,0,0:0:0:0:
272,32,235300,1,8,2:0:0:0:
364,212,235471,1,0,0:0:0:0:
192,108,235642,1,0,0:0:0:0:
296,280,235814,1,0,0:0:0:0:
96,276,235985,6,0,P|56:188|128:48,1,202.500007724762,8|0,3:0|0:0,0:0:0:0:
120,112,236328,2,0,B|116:204|136:236|136:236|260:236,1,242.999992584229
260,192,236671,2,0,L|176:192,1,80.9999975280763,2|0,3:3|0:0,0:0:0:0:
176,144,236842,2,0,L|268:144,1,80.9999975280763
260,104,237014,2,0,L|172:104,1,80.9999975280763
176,56,237185,2,0,L|260:56,1,80.9999975280763
264,0,237357,6,0,B|164:0|108:44|108:44|104:136,1,242.999992584229,2|0,3:3|0:0,0:0:0:0:
156,128,237700,2,0,L|156:36,1,80.9999975280763
204,48,237871,2,0,L|204:140,1,80.9999975280763
248,132,238042,2,0,L|248:48,1,80.9999975280763,2|0,3:3|0:0,0:0:0:0:
300,52,238214,2,0,L|300:140,1,80.9999975280763
352,136,238385,2,0,B|356:52|420:24|420:24|492:224,1,323.999990112305,0|4,0:0|2:0,0:0:0:0:
376,372,238900,1,0,0:0:0:0:
244,220,239071,5,8,2:0:0:0:
444,220,239242,1,8,2:0:0:0:
264,316,239414,1,8,2:0:0:0:
344,132,239585,1,8,2:0:0:0:
140,140,239757,1,8,2:0:0:0:
324,228,239928,1,8,2:0:0:0:
128,276,240100,5,10,3:1:0:0:
236,104,240271,1,10,3:1:0:0:
236,104,240442,1,10,3:1:0:0:
236,104,240614,2,10,P|328:96|392:140,1,135.000005149842,10|8,3:1|2:0,3:1:0:0:
232,268,240957,1,10,3:1:0:0:
232,268,241128,1,10,3:1:0:0:
232,268,241300,2,10,P|144:252|104:176,1,135.000005149842,10|14,3:1|3:1,3:1:0:0:
296,36,241814,6,0,L|200:36,1,80.9999975280763
296,92,241985,2,0,L|196:92,1,80.9999975280763
212,148,242157,2,0,L|296:148,1,80.9999975280763,2|0,3:3|0:0,0:0:0:0:
212,204,242328,2,0,L|292:204,1,80.9999975280763
296,260,242500,2,0,L|208:260,1,80.9999975280763
296,316,242671,2,0,L|208:316,1,80.9999975280763
212,368,242842,6,0,P|304:368|424:236,1,242.999992584229,2|0,3:3|0:0,0:0:0:0:
372,244,243185,2,0,P|320:316|300:320,1,80.9999975280763
296,288,243357,2,0,P|348:220|348:208,1,80.9999975280763
304,200,243528,2,0,P|252:272|224:276,1,80.9999975280763,2|0,3:3|0:0,0:0:0:0:
220,240,243700,2,0,P|280:172|280:156,1,80.9999975280763
236,152,243871,2,0,B|180:224|104:248|104:248|28:96,1,323.999990112305,0|4,0:0|2:0,0:0:0:0:
33,106,244385,1,0,0:0:0:0:
232,68,244557,5,8,2:0:0:0:
232,68,244728,1,8,2:0:0:0:
208,268,244900,1,8,2:0:0:0:
128,84,245071,1,8,2:0:0:0:
128,84,245242,1,8,2:0:0:0:
128,84,245414,2,8,P|176:156|248:180,1,135.000005149842,8|0,2:0|2:0,2:0:0:0:
324,0,245757,1,0,2:0:0:0:
188,148,245928,1,0,2:0:0:0:
384,200,246100,1,0,2:0:0:0:
240,64,246271,5,0,2:0:0:0:
188,72,246357,1,0,2:0:0:0:
148,104,246442,1,0,2:0:0:0:
132,152,246528,1,0,2:0:0:0:
140,196,246614,1,0,2:0:0:0:
164,232,246700,1,0,2:0:0:0:
200,260,246785,1,0,2:0:0:0:
244,276,246871,1,0,2:0:0:0:
292,276,246957,2,0,P|364:224|392:60,1,202.500007724762,12|0,2:0|0:0,0:0:0:0:
356,108,247300,6,0,B|312:200|264:232|264:232|128:272,1,242.999992584229
160,212,247642,2,0,L|248:188,1,80.9999975280763,2|0,3:3|0:0,0:0:0:0:
144,160,247814,2,0,L|232:136,1,80.9999975280763
208,88,247985,2,0,L|112:112,1,80.9999975280763
192,32,248157,2,0,L|112:52,1,80.9999975280763
76,64,248328,6,0,B|36:156|44:232|44:232|128:300,1,242.999992584229,2|0,3:3|0:0,0:0:0:0:
140,248,248671,2,0,P|96:176|104:152,1,80.9999975280763
140,160,248842,2,0,P|196:232|216:232,1,80.9999975280763
224,196,249014,2,0,P|188:116|204:96,1,80.9999975280763,2|0,3:3|0:0,0:0:0:0:
224,108,249185,2,0,P|280:176|308:176,1,80.9999975280763
308,144,249357,2,0,B|280:56|328:16|328:16|472:144,1,323.999990112305,0|4,0:0|2:0,0:0:0:0:
404,332,249871,1,0,0:0:0:0:
404,132,250042,5,8,2:0:0:0:
236,248,250214,1,8,2:0:0:0:
436,240,250385,1,8,2:0:0:0:
276,112,250557,1,8,2:0:0:0:
300,312,250728,1,8,2:0:0:0:
112,236,250900,1,8,2:0:0:0:
312,204,251071,5,10,3:1:0:0:
312,204,251242,1,10,3:1:0:0:
312,204,251414,2,10,P|240:112|184:92,1,135.000005149842,10|10,3:1|3:1,3:1:0:0:
176,300,251757,1,8,2:0:0:0:
20,172,251928,1,10,3:1:0:0:
20,172,252100,1,10,3:1:0:0:
20,172,252271,2,10,P|68:100|128:64,1,135.000005149842,10|10,3:1|3:1,3:1:0:0:
273,295,252785,5,0,0:0:0:0:
425,160,252957,1,0,0:0:0:0:
231,101,253128,1,8,2:0:0:0:
373,246,253300,1,0,0:0:0:0:
174,210,253471,1,0,0:0:0:0:
345,103,253642,1,0,0:0:0:0:
155,30,253814,5,8,2:0:0:0:
155,30,253985,2,0,P|103:118|88:200,1,135.000005149842
180,327,254328,2,0,P|190:224|220:143,1,135.000005149842,0|8,0:0|2:0,0:0:0:0:
352,59,254671,2,0,P|329:133|326:230,1,135.000005149842
450,349,255014,2,0,P|447:257|469:177,1,135.000005149842,0|4,0:0|2:0,0:0:0:0:
286,52,255528,5,8,2:0:0:0:
256,60,255614,1,8,2:0:0:0:
228,76,255700,1,8,2:0:0:0:
204,96,255785,1,8,2:0:0:0:
184,120,255871,1,8,2:0:0:0:
168,144,255957,1,8,2:0:0:0:
156,172,256042,1,8,2:0:0:0:
152,200,256128,1,8,2:0:0:0:
152,228,256214,1,8,2:0:0:0:
156,256,256300,1,8,2:0:0:0:
168,284,256385,1,8,2:0:0:0:
184,304,256471,1,8,2:0:0:0:
208,320,256557,6,0,P|296:328|380:276,1,135.000005149842,8|0,3:0|0:0,0:0:0:0:
256,176,256900,1,8,2:0:0:0:
240,152,256985,1,8,2:0:0:0:
232,128,257071,1,8,2:0:0:0:
232,100,257157,1,8,2:0:0:0:
244,76,257242,1,8,2:0:0:0:
264,56,257328,1,8,2:0:0:0:
288,44,257414,1,8,2:0:0:0:
316,40,257500,1,8,2:0:0:0:
344,44,257585,1,8,2:0:0:0:
368,56,257671,1,8,2:0:0:0:
392,72,257757,1,8,2:0:0:0:
408,92,257842,1,8,2:0:0:0:
416,116,257928,6,0,B|408:172|408:172|476:172|476:172|408:280,1,202.500007724762,2|0,3:0|0:0,0:0:0:0:
420,260,258271,2,0,B|360:184|360:184|332:232|332:232|296:184|296:184|232:172,1,270.000010299683,8|0,2:0|0:0,0:0:0:0:
44,112,258785,1,8,2:0:0:0:
132,296,258957,5,8,2:0:0:0:
236,124,259128,5,0,0:0:0:0:
60,224,259300,2,0,P|68:320|144:364,1,135.000005149842,8|0,2:0|0:0,0:0:0:0:
248,216,259642,2,0,P|240:128|208:84,1,135.000005149842,8|0,2:0|0:0,0:0:0:0:
36,192,259985,1,0,0:0:0:0:
228,264,260157,1,8,2:0:0:0:
156,76,260328,1,8,2:0:0:0:
116,276,260500,1,0,0:0:0:0:
260,132,260671,6,0,P|344:88|472:200,1,270.000010299683,0|10,0:0|0:2,0:0:0:0:
469,183,261185,1,10,0:2:0:0:
304,300,261356,1,10,0:2:0:0:
304,300,261528,1,10,0:2:0:0:
168,152,261699,1,10,0:2:0:0:
320,20,261871,1,10,0:2:0:0:
320,20,262042,5,10,0:2:0:0:
460,168,262214,1,10,0:2:0:0:
320,20,262385,1,10,0:2:0:0:
320,20,262556,1,10,0:2:0:0:
168,152,262728,1,10,0:2:0:0:
304,300,262899,1,10,0:2:0:0:
304,300,263071,1,10,0:2:0:0:
452,160,263242,1,10,0:2:0:0:
452,160,263414,6,0,B|388:188|388:188|448:224|448:224|392:320,1,202.500007724762
400,300,263756,2,0,B|364:232|364:232|332:284|332:284|220:188,1,270.000010299683,8|0,2:0|0:0,0:0:0:0:
96,44,264271,1,8,2:0:0:0:
292,92,264442,1,8,2:0:0:0:
196,272,264614,1,0,0:0:0:0:
172,72,264785,5,8,2:0:0:0:
52,236,264957,1,0,0:0:0:0:
248,184,265128,1,8,2:0:0:0:
52,136,265300,1,0,0:0:0:0:
176,320,265471,2,0,P|264:328|312:280,1,135.000005149842,0|8,0:0|2:0,0:0:0:0:
212,120,265814,2,0,P|116:132|64:192,1,135.000005149842,8|0,2:0|0:0,0:0:0:0:
244,284,266157,6,0,P|336:248|372:76,1,270.000010299683,0|10,0:0|0:2,0:0:0:0:
378,93,266671,1,10,0:2:0:0:
378,93,266842,1,10,0:2:0:0:
212,208,267014,1,10,0:2:0:0:
128,24,267185,1,10,0:2:0:0:
128,24,267357,1,10,0:2:0:0:
128,24,267528,6,0,L|264:84,1,135.000005149842,0|2,0:0|0:3,0:0:0:0:
340,260,267871,2,2,L|188:188,1,135.000005149842,2|2,0:3|0:3,0:3:0:0:
32,116,268214,1,2,0:3:0:0:
104,304,268385,1,2,0:3:0:0:
172,112,268557,1,2,0:3:0:0:
24,248,268728,1,2,0:3:0:0:
220,200,268900,6,0,B|284:164|284:164|264:224|264:224|340:232,1,202.500007724762
352,224,269242,2,0,B|332:144|332:144|300:200|300:200|232:60,1,270.000010299683,8|0,2:0|0:0,0:0:0:0:
48,32,269757,1,8,2:0:0:0:
196,168,269928,1,8,2:0:0:0:
44,304,270100,1,0,0:0:0:0:
92,108,270271,5,8,2:0:0:0:
192,284,270442,1,0,0:0:0:0:
316,124,270614,1,8,2:0:0:0:
128,196,270785,1,0,0:0:0:0:
236,24,270957,1,0,0:0:0:0:
304,212,271128,1,8,2:0:0:0:
436,56,271300,1,8,2:0:0:0:
248,128,271471,1,0,0:0:0:0:
420,232,271642,6,0,P|424:316|248:332,1,270.000010299683,0|10,0:0|0:2,0:0:0:0:
270,357,272157,1,10,0:2:0:0:
270,357,272328,1,10,0:2:0:0:
270,357,272500,1,10,0:2:0:0:
328,164,272671,1,10,0:2:0:0:
328,164,272842,2,10,P|248:208|172:220,1,135.000005149842,10|10,0:2|0:2,0:2:0:0:
205,217,273185,5,10,0:2:0:0:
205,217,273357,1,10,0:2:0:0:
205,217,273528,1,10,0:2:0:0:
200,12,273700,1,10,0:2:0:0:
200,12,273871,2,10,P|124:68|52:124,1,135.000005149842,10|10,0:2|0:2,0:2:0:0:
91,92,274214,1,10,0:2:0:0:
64,292,274385,6,0,L|288:112,1,270.000010299683,8|8,2:0|2:0,0:0:0:0:
464,44,274900,1,0,0:0:0:0:
444,244,275071,1,0,0:0:0:0:
316,88,275242,1,8,2:0:0:0:
504,160,275414,1,8,2:0:0:0:
308,204,275585,1,0,0:0:0:0:
308,204,275757,6,0,P|288:280|232:340,1,135.000005149842,8|0,2:0|0:0,0:0:0:0:
152,148,276100,2,0,P|200:92|264:64,1,135.000005149842,8|0,2:0|0:0,0:0:0:0:
268,268,276442,2,0,P|212:328|144:340,1,135.000005149842,0|8,0:0|2:0,0:0:0:0:
168,136,276785,2,0,P|248:72|292:64,1,135.000005149842,8|0,2:0|0:0,0:0:0:0:
344,256,277128,5,8,2:0:0:0:
452,84,277300,1,0,0:0:0:0:
276,40,277471,1,8,2:0:0:0:
412,188,277642,1,0,0:0:0:0:
224,268,277814,1,0,0:0:0:0:
340,100,277985,1,8,2:0:0:0:
136,88,278157,1,8,2:0:0:0:
300,208,278328,1,0,0:0:0:0:
108,276,278500,6,0,P|168:344|232:352,1,135.000005149842,8|0,2:0|0:0,0:0:0:0:
236,152,278842,2,0,P|180:96|104:84,1,135.000005149842,8|0,2:0|0:0,0:0:0:0:
156,284,279185,2,0,P|224:332|296:328,1,135.000005149842,0|0,0:0|2:0,0:0:0:0:
244,132,279528,2,0,P|180:76|112:68,1,135.000005149842,8|0,2:0|0:0,0:0:0:0:
132,66,279871,5,6,3:0:0:0:
212,280,280214,5,2,3:0:0:0:
360,144,280385,1,2,3:0:0:0:
176,312,280557,1,2,3:0:0:0:
396,108,280728,1,2,3:0:0:0:
404,312,281242,5,2,3:0:0:0:
260,172,281414,1,2,3:0:0:0:
436,344,281585,1,2,3:0:0:0:
228,140,281757,1,2,3:0:0:0:
372,284,281928,1,2,3:0:0:0:
168,296,282100,1,2,3:0:0:0:
328,172,282271,1,2,3:0:0:0:
268,364,282442,1,2,3:0:0:0:
160,192,282614,1,10,3:2:0:0:
344,60,282957,5,2,3:0:0:0:
232,228,283128,1,2,3:0:0:0:
368,20,283300,1,2,3:0:0:0:
204,268,283471,1,2,3:0:0:0:
404,240,283985,5,0,2:0:0:0:
404,240,284157,1,0,2:0:0:0:
404,240,284328,2,0,P|380:160|320:96,1,135.000005149842,0|0,2:0|2:0,2:0:0:0:
216,272,284671,1,0,2:0:0:0:
216,272,284842,1,0,2:0:0:0:
216,272,285014,2,0,P|256:348|320:376,1,135.000005149842,0|0,2:0|2:0,2:0:0:0:
296,370,285357,1,12,2:0:0:0:
316,92,285700,5,2,3:0:0:0:
168,232,285871,1,2,3:0:0:0:
96,44,286042,1,2,3:0:0:0:
260,164,286214,1,2,3:0:0:0:
432,116,286728,5,2,3:0:0:0:
316,280,286900,1,2,3:0:0:0:
228,100,287071,1,2,3:0:0:0:
400,208,287242,1,2,3:0:0:0:
200,232,287414,1,2,3:0:0:0:
324,72,287585,1,2,3:0:0:0:
308,276,287757,1,2,3:0:0:0:
176,124,287928,1,2,3:0:0:0:
376,168,288100,6,0,P|396:252|252:364,1,270.000010299683,10|2,3:2|3:0,0:0:0:0:
176,188,288614,1,2,3:0:0:0:
340,304,288785,1,2,3:0:0:0:
292,108,288957,1,2,3:0:0:0:
292,108,289128,1,2,3:0:0:0:
292,108,289300,2,2,P|236:64|168:48,1,135.000005149842,2|2,3:0|3:0,3:0:0:0:
148,248,289642,1,2,3:0:0:0:
340,312,289814,1,2,3:0:0:0:
260,128,289985,1,2,3:0:0:0:
216,328,290157,5,0,2:0:0:0:
172,332,290242,1,0,2:0:0:0:
128,328,290328,1,0,2:0:0:0:
92,300,290414,1,0,2:0:0:0:
72,260,290500,1,0,2:0:0:0:
72,216,290585,1,0,2:0:0:0:
88,172,290671,1,0,2:0:0:0:
116,136,290757,1,0,2:0:0:0:
152,108,290842,1,12,2:0:0:0:
192,240,291185,5,2,3:0:0:0:
352,112,291357,1,2,3:0:0:0:
156,268,291528,1,2,3:0:0:0:
388,84,291700,1,2,3:0:0:0:
168,80,292214,5,2,3:0:0:0:
296,236,292385,1,2,3:0:0:0:
132,44,292557,1,2,3:0:0:0:
324,272,292728,1,2,3:0:0:0:
200,112,292900,1,2,3:0:0:0:
100,288,293071,1,2,3:0:0:0:
300,272,293242,1,2,3:0:0:0:
152,132,293414,1,2,3:0:0:0:
216,324,293585,6,0,P|288:348|444:212,1,270.000010299683,10|2,3:2|3:0,0:0:0:0:
312,84,294100,1,2,3:0:0:0:
232,268,294271,1,2,3:0:0:0:
92,124,294442,1,2,3:0:0:0:
288,184,294614,1,2,3:0:0:0:
56,292,294957,5,0,2:0:0:0:
56,292,295128,1,0,2:0:0:0:
56,292,295300,1,0,2:0:0:0:
56,292,295471,2,0,P|80:204|124:148,1,135.000005149842,0|0,2:0|2:0,2:0:0:0:
304,128,295814,1,0,2:0:0:0:
304,128,295985,1,0,2:0:0:0:
304,128,296157,1,0,2:0:0:0:
304,128,296328,6,0,P|228:196|256:368,1,270.000010299683,12|8,2:0|2:0,0:0:0:0:
392,216,296842,1,0,0:0:0:0:
208,128,297014,1,0,0:0:0:0:
276,320,297185,1,8,2:0:0:0:
328,124,297357,1,8,2:0:0:0:
180,264,297528,1,0,0:0:0:0:
124,68,297700,6,0,P|212:36|300:44,1,135.000005149842,8|0,2:0|0:0,0:0:0:0:
204,232,298042,2,0,P|120:252|40:220,1,135.000005149842,8|0,2:0|0:0,0:0:0:0:
188,72,298385,2,0,P|284:72|368:116,1,135.000005149842,0|8,0:0|2:0,0:0:0:0:
244,272,298728,1,8,2:0:0:0:
84,148,298900,1,0,0:0:0:0:
276,84,299071,5,8,2:0:0:0:
148,240,299242,1,0,0:0:0:0:
180,40,299414,1,8,2:0:0:0:
288,212,299585,1,0,0:0:0:0:
392,36,299757,1,0,0:0:0:0:
208,124,299928,1,8,2:0:0:0:
368,252,300100,1,8,2:0:0:0:
304,60,300271,1,0,0:0:0:0:
236,248,300442,6,0,P|160:304|76:304,1,135.000005149842,8|0,2:0|0:0,0:0:0:0:
128,108,300785,2,0,P|208:64|264:60,1,135.000005149842,8|0,2:0|0:0,0:0:0:0:
244,264,301128,2,0,P|152:296|96:288,1,135.000005149842,0|8,0:0|2:0,0:0:0:0:
172,96,301471,2,0,P|256:76|312:84,1,135.000005149842,8|0,2:0|0:0,0:0:0:0:
256,280,301814,1,14,2:3:0:0:
256,192,301985,12,0,303185,0:0:0:0:
