osu file format v14

[General]
AudioFilename: audio.mp3
AudioLeadIn: 0
PreviewTime: 39296
Countdown: 1
SampleSet: Normal
StackLeniency: 0.7
Mode: 0
LetterboxInBreaks: 0
WidescreenStoryboard: 0

[Editor]
Bookmarks: 2724,11939,21082,30225,39367,57939,75939,85082,94225,103367,121653,130796
DistanceSpacing: 1.6
BeatDivisor: 4
GridSize: 32
TimelineZoom: 1

[Metadata]
Title:Caffeine Rush
TitleUnicode:Caffeine Rush
Artist:Jacob Tillberg
ArtistUnicode:Jacob Tillberg
Creator:MarlonGT
Version:
Source:
Tags:
BeatmapID:1738878
BeatmapSetID:829889

[Difficulty]
HPDrainRate:6
CircleSize:4
OverallDifficulty:6
ApproachRate:9
SliderMultiplier:0.999999999999999
SliderTickRate:1

[Events]
//Background and Video events
0,0,"Wallpaper.jpg",0,0
//Break Periods
2,20981,29610
2,85124,130181
//Storyboard Layer 0 (Background)
//Storyboard Layer 1 (Fail)
//Storyboard Layer 2 (Pass)
//Storyboard Layer 3 (Foreground)
//Storyboard Sound Samples

[TimingPoints]
2710,285.714285714286,4,1,0,100,1,0
11939,-83.3333333333333,4,1,0,100,0,0
21082,-71.4285714285714,4,1,0,100,0,0
30225,-62.5,4,1,0,100,0,0
39367,-50,4,1,0,100,0,0
57939,-33.3333333333333,4,1,0,100,0,0
75939,-50,4,1,0,100,0,0
85082,-50,4,1,0,100,0,0

[HitObjects]
165,130,2709,6,0,L|196:135,1,25
145,282,3210,6,0,P|175:293|206:285,2,50
181,215,3638,1,0,0:0:0:0:
271,258,3924,1,0,0:0:0:0:
381,157,4352,1,0,0:0:0:0:
316,80,4638,2,0,P|293:69|268:70,1,50
183,196,5210,1,0,0:0:0:0:
280,218,5495,1,0,0:0:0:0:
310,178,5638,1,0,0:0:0:0:
233,112,5924,1,0,0:0:0:0:
422,47,6495,1,0,0:0:0:0:
486,122,6781,1,0,0:0:0:0:
466,220,7067,1,0,0:0:0:0:
380,270,7353,1,0,0:0:0:0:
328,129,7781,2,0,P|315:106|296:91,2,50
252,154,8210,1,0,0:0:0:0:
196,236,8495,1,0,0:0:0:0:
344,255,8924,1,0,0:0:0:0:
399,171,9210,2,0,L|407:121,1,50
255,191,9781,1,0,0:0:0:0:
158,213,10066,1,0,0:0:0:0:
128,173,10209,1,0,0:0:0:0:
205,107,10495,1,0,0:0:0:0:
403,78,11067,2,0,L|427:81,2,25
436,155,11352,2,0,P|411:161|367:160,1,50
385,238,11638,2,0,P|410:244|454:243,1,50
417,322,11924,2,0,P|355:312|307:264,1,119.999996337891
283,183,12352,2,0,P|258:216|227:227,2,59.9999981689453
196,139,12781,1,0,0:0:0:0:
381,77,13067,2,0,P|422:124|427:192,1,119.999996337891
354,240,13495,2,0,P|376:251|396:266,1,50
347,157,13781,1,0,0:0:0:0:
274,200,13924,2,0,P|267:137|302:78,1,119.999996337891
196,49,14352,2,0,P|172:46|148:49,1,50
117,165,14638,1,0,0:0:0:0:
192,224,14781,1,0,0:0:0:0:
278,52,15067,2,0,P|251:104|200:134,1,119.999996337891
289,248,15638,2,0,L|315:266,2,29.9999990844727
236,166,15924,2,0,P|217:135|213:97,1,74.9999977111816
284,109,16210,2,0,P|303:140|307:178,1,74.9999977111816
236,166,16495,2,0,P|213:104|239:52,1,119.999996337891
362,65,16924,2,0,P|387:97|390:130,2,59.9999981689453
297,135,17352,1,0,0:0:0:0:
164,274,17638,2,0,P|119:232|107:175,1,119.999996337891
194,168,18067,2,0,P|208:201|229:220,1,59.9999981689453
281,151,18352,1,0,0:0:0:0:
215,87,18495,2,0,P|270:61|327:71,1,119.999996337891
281,151,18924,2,0,P|251:172|224:179,1,59.9999981689453
142,143,19210,1,0,0:0:0:0:
215,87,19352,2,0,P|270:61|327:71,1,119.999996337891
447,141,20210,1,0,0:0:0:0:
471,193,20495,1,0,0:0:0:0:
454,227,20781,1,0,0:0:0:0:
284,48,30210,5,0,0:0:0:0:
213,225,30495,5,0,0:0:0:0:
157,305,30638,2,0,B|118:279|120:233,1,79.9999999999999
308,210,31067,5,0,0:0:0:0:
405,218,31210,2,0,B|402:264|361:285,1,79.9999999999999
249,136,31638,5,0,0:0:0:0:
208,47,31781,2,0,B|249:26|288:51,1,79.9999999999999
326,179,32210,5,0,0:0:0:0:
256,220,32353,1,0,0:0:0:0:
187,258,32496,1,0,0:0:0:0:
110,52,32781,5,0,0:0:0:0:
221,117,32924,1,0,0:0:0:0:
110,181,33067,1,0,0:0:0:0:
242,118,33353,5,0,0:0:0:0:
340,201,33496,1,0,0:0:0:0:
219,245,33638,1,0,0:0:0:0:
363,202,33924,5,0,0:0:0:0:
445,301,34067,1,0,0:0:0:0:
318,323,34209,1,0,0:0:0:0:
145,197,34495,1,0,0:0:0:0:
38,79,34781,5,0,0:0:0:0:
194,45,35067,1,0,0:0:0:0:
124,206,35352,1,0,0:0:0:0:
285,101,35638,1,0,0:0:0:0:
262,307,35924,1,0,0:0:0:0:
152,111,36210,1,0,0:0:0:0:
384,168,36495,1,0,0:0:0:0:
169,307,36781,1,0,0:0:0:0:
62,63,37067,5,0,0:0:0:0:
168,36,37210,1,0,0:0:0:0:
40,44,37352,1,0,0:0:0:0:
189,63,37495,1,0,0:0:0:0:
130,148,37638,6,0,L|138:195,1,40
198,266,37781,2,0,L|209:218,1,40
264,145,37924,2,0,L|277:190,1,40
332,263,38067,2,0,L|348:217,1,40
385,261,39352,5,0,0:0:0:0:
185,238,39495,1,0,0:0:0:0:
383,144,39638,2,0,L|402:33,1,99.9999999999999
224,172,39924,2,0,B|268:196|268:196|318:188,1,99.9999999999999
383,144,40209,1,0,0:0:0:0:
167,118,40352,1,0,0:0:0:0:
112,277,40495,6,0,B|104:227|104:227|129:183,1,99.9999999999999
277,94,40781,1,0,0:0:0:0:
404,167,40924,1,0,0:0:0:0:
275,242,41067,1,0,0:0:0:0:
303,83,41210,1,0,0:0:0:0:
398,197,41353,1,0,0:0:0:0:
253,223,41496,1,0,0:0:0:0:
156,109,41638,6,0,B|116:139|116:139|105:189,1,99.9999999999999
235,321,41924,2,0,L|252:223,1,99.9999999999999
156,109,42210,2,0,L|173:207,1,99.9999999999999
327,335,42495,1,0,0:0:0:0:
241,144,42637,1,0,0:0:0:0:
121,303,42781,6,0,B|126:253|126:253|164:218,1,99.9999999999999
328,123,43067,2,0,L|345:221,1,99.9999999999999
219,316,43352,2,0,L|236:218,1,99.9999999999999
430,165,43638,2,0,L|413:263,1,99.9999999999999
248,148,43923,5,0,0:0:0:0:
99,282,44066,1,0,0:0:0:0:
298,254,44210,2,0,B|343:232|343:232|363:184,1,99.9999999999999
162,187,44495,2,0,B|116:208|116:208|96:256,1,99.9999999999999
283,327,44780,1,0,0:0:0:0:
248,148,44923,1,0,0:0:0:0:
42,190,45067,6,0,L|59:92,1,99.9999999999999
165,63,45352,1,0,0:0:0:0:
262,117,45495,1,0,0:0:0:0:
357,171,45638,1,0,0:0:0:0:
208,212,45781,1,0,0:0:0:0:
262,117,45924,1,0,0:0:0:0:
316,20,46067,1,0,0:0:0:0:
504,95,46210,6,0,B|462:67|462:67|410:73,1,99.9999999999999
303,266,46495,2,0,B|344:293|344:293|396:287,1,99.9999999999999
442,155,46780,1,0,0:0:0:0:
341,57,46923,1,0,0:0:0:0:
201,78,47067,1,0,0:0:0:0:
139,204,47210,1,0,0:0:0:0:
241,312,47352,6,0,L|143:295,1,99.9999999999999
35,188,47638,2,0,B|77:161|77:161|95:114,1,99.9999999999999
188,58,47924,2,0,B|236:69|236:69|282:48,1,99.9999999999999
385,110,48210,2,0,B|421:143|421:143|470:149,1,99.9999999999999
419,313,48495,5,0,0:0:0:0:
334,189,48638,1,0,0:0:0:0:
201,118,48781,2,0,L|184:215,1,99.9999999999999
251,323,49067,2,0,L|268:225,1,99.9999999999999
263,74,49352,1,0,0:0:0:0:
124,154,49495,1,0,0:0:0:0:
180,303,49638,2,0,B|131:287|131:287|102:246,1,99.9999999999999
131,184,54210,2,0,L|230:166,1,99.9999999999999
355,37,54495,1,0,0:0:0:0:
292,205,54638,1,0,0:0:0:0:
280,25,54781,1,0,0:0:0:0:
363,184,54924,1,0,0:0:0:0:
221,72,55067,1,0,0:0:0:0:
395,117,55210,1,0,0:0:0:0:
444,213,55352,2,0,B|412:255|412:255|364:268,1,99.9999999999999
207,237,55638,2,0,L|189:138,1,99.9999999999999
216,71,57352,1,0,0:0:0:0:
211,55,57495,1,0,0:0:0:0:
207,42,57638,1,0,0:0:0:0:
159,219,57924,2,0,B|84:251|84:251|22:204,1,150.000005722046
29,209,58210,2,0,B|38:128|38:128|110:97,1,150.000005722046
100,100,58495,2,0,B|165:148|165:148|234:107,1,150.000005722046
159,219,59067,2,0,B|84:251|84:251|22:204,1,150.000005722046
29,209,59353,2,0,B|38:128|38:128|110:97,1,150.000005722046
100,100,59638,2,0,B|165:148|165:148|234:107,1,150.000005722046
256,215,60210,1,0,0:0:0:0:
256,215,60495,1,0,0:0:0:0:
256,215,60781,1,0,0:0:0:0:
256,215,60924,1,0,0:0:0:0:
256,215,61352,1,0,0:0:0:0:
256,215,61638,1,0,0:0:0:0:
256,215,61924,1,0,0:0:0:0:
256,215,62495,1,0,0:0:0:0:
256,215,62638,1,0,0:0:0:0:
256,215,62781,1,0,0:0:0:0:
256,215,62924,1,0,0:0:0:0:
256,215,63067,1,0,0:0:0:0:
256,215,63210,1,0,0:0:0:0:
256,215,63638,1,0,0:0:0:0:
256,215,63781,1,0,0:0:0:0:
256,215,63924,1,0,0:0:0:0:
256,215,64067,1,0,0:0:0:0:
256,215,64210,1,0,0:0:0:0:
256,215,64352,1,0,0:0:0:0:
256,215,64781,1,0,0:0:0:0:
256,215,65067,1,0,0:0:0:0:
256,215,65352,1,0,0:0:0:0:
256,215,65495,1,0,0:0:0:0:
256,215,65781,1,0,0:0:0:0:
256,215,65924,1,0,0:0:0:0:
256,215,66067,1,0,0:0:0:0:
256,215,66210,1,0,0:0:0:0:
256,215,66352,1,0,0:0:0:0:
256,215,66495,1,0,0:0:0:0:
256,215,66638,1,0,0:0:0:0:
256,215,67067,1,0,0:0:0:0:
256,215,67210,1,0,0:0:0:0:
256,215,67353,1,0,0:0:0:0:
256,215,67496,1,0,0:0:0:0:
256,215,67639,1,0,0:0:0:0:
256,215,67782,1,0,0:0:0:0:
256,215,68210,1,0,0:0:0:0:
256,215,68353,1,0,0:0:0:0:
256,215,68496,1,0,0:0:0:0:
256,215,68639,1,0,0:0:0:0:
256,215,68782,1,0,0:0:0:0:
256,215,68924,1,0,0:0:0:0:
256,215,69353,1,0,0:0:0:0:
256,215,69639,1,0,0:0:0:0:
256,215,69924,1,0,0:0:0:0:
256,215,70067,1,0,0:0:0:0:
256,215,70495,1,0,0:0:0:0:
256,215,70781,1,0,0:0:0:0:
256,215,71067,1,0,0:0:0:0:
256,215,71638,1,0,0:0:0:0:
256,215,71781,1,0,0:0:0:0:
256,215,71924,1,0,0:0:0:0:
256,215,72067,1,0,0:0:0:0:
256,215,72210,1,0,0:0:0:0:
256,215,72353,1,0,0:0:0:0:
256,215,72638,1,0,0:0:0:0:
256,215,72781,1,0,0:0:0:0:
256,215,72924,1,0,0:0:0:0:
256,215,73067,1,0,0:0:0:0:
256,215,73210,1,0,0:0:0:0:
256,215,73352,1,0,0:0:0:0:
256,215,73495,1,0,0:0:0:0:
256,215,73924,1,0,0:0:0:0:
256,215,74210,1,0,0:0:0:0:
256,215,74495,1,0,0:0:0:0:
256,215,74638,1,0,0:0:0:0:
256,215,74924,1,0,0:0:0:0:
256,215,75067,1,0,0:0:0:0:
256,215,75210,1,0,0:0:0:0:
256,215,75352,1,0,0:0:0:0:
256,215,75495,1,0,0:0:0:0:
256,215,75638,1,0,0:0:0:0:
256,215,75781,1,0,0:0:0:0:
266,212,75924,1,0,0:0:0:0:
256,215,76352,1,0,0:0:0:0:
256,215,76495,1,0,0:0:0:0:
256,213,76924,1,0,0:0:0:0:
256,215,77067,1,0,0:0:0:0:
256,215,77495,1,0,0:0:0:0:
256,213,77638,1,0,0:0:0:0:
256,213,77924,1,0,0:0:0:0:
256,215,78067,1,0,0:0:0:0:
256,215,78210,1,0,0:0:0:0:
256,213,78638,1,0,0:0:0:0:
256,213,78781,1,0,0:0:0:0:
256,215,79210,1,0,0:0:0:0:
257,218,79352,1,0,0:0:0:0:
257,218,79781,1,0,0:0:0:0:
256,215,79924,1,0,0:0:0:0:
256,215,80210,1,0,0:0:0:0:
257,218,80352,1,0,0:0:0:0:
257,218,80495,1,0,0:0:0:0:
256,215,80924,1,0,0:0:0:0:
256,215,81067,1,0,0:0:0:0:
257,218,81495,1,0,0:0:0:0:
256,215,81638,1,0,0:0:0:0:
256,215,82067,1,0,0:0:0:0:
257,218,82210,1,0,0:0:0:0:
257,218,82495,1,0,0:0:0:0:
256,215,82638,1,0,0:0:0:0:
256,215,82781,1,0,0:0:0:0:
263,214,83210,1,0,0:0:0:0:
263,214,83352,1,0,0:0:0:0:
262,214,83781,1,0,0:0:0:0:
263,214,83924,1,0,0:0:0:0:
249,211,84352,1,0,0:0:0:0:
249,211,84495,1,0,0:0:0:0:
249,211,84781,1,0,0:0:0:0:
249,211,84924,1,0,0:0:0:0:
259,168,130781,5,0,0:0:0:0:
259,168,130924,1,0,0:0:0:0:
259,168,131067,1,0,0:0:0:0:
259,168,131210,1,0,0:0:0:0:
259,168,131352,1,0,0:0:0:0:
259,168,131495,1,0,0:0:0:0:
259,168,131638,1,0,0:0:0:0:
259,168,131781,1,0,0:0:0:0:
259,168,131924,1,0,0:0:0:0:
259,168,132067,1,0,0:0:0:0:
259,168,132210,1,0,0:0:0:0:
259,168,132352,1,0,0:0:0:0:
259,168,132495,1,0,0:0:0:0:
259,168,132638,1,0,0:0:0:0:
259,168,132781,1,0,0:0:0:0:
259,168,132924,1,0,0:0:0:0:
259,168,133067,1,0,0:0:0:0:
259,168,133210,1,0,0:0:0:0:
259,168,133352,1,0,0:0:0:0:
259,168,133495,1,0,0:0:0:0:
259,168,133638,1,0,0:0:0:0:
259,168,133781,1,0,0:0:0:0:
259,168,133924,1,0,0:0:0:0:
259,168,134067,1,0,0:0:0:0:
259,168,134210,1,0,0:0:0:0:
259,168,134352,1,0,0:0:0:0:
259,168,134495,1,0,0:0:0:0:
259,168,134638,1,0,0:0:0:0:
259,168,134781,1,0,0:0:0:0:
259,168,134924,1,0,0:0:0:0:
259,168,135067,1,0,0:0:0:0:
254,163,135210,1,0,0:0:0:0:
254,163,135352,1,0,0:0:0:0:
259,168,135495,1,0,0:0:0:0:
259,168,135638,1,0,0:0:0:0:
259,168,135781,1,0,0:0:0:0:
259,168,135924,1,0,0:0:0:0:
254,163,136067,1,0,0:0:0:0:
254,163,136245,1,0,0:0:0:0:
261,158,136424,1,0,0:0:0:0:
261,158,136567,1,0,0:0:0:0:
261,158,136745,1,0,0:0:0:0:
258,158,136924,1,0,0:0:0:0:
268,159,137102,1,0,0:0:0:0:
268,159,137281,1,0,0:0:0:0:
268,159,137460,1,0,0:0:0:0:
268,159,137674,1,0,0:0:0:0:
268,159,137852,1,0,0:0:0:0:
268,159,138067,1,0,0:0:0:0:
259,168,138281,1,0,0:0:0:0:
259,168,138495,1,0,0:0:0:0:
259,168,138745,1,0,0:0:0:0:
259,168,138959,1,0,0:0:0:0:
259,168,139209,1,0,0:0:0:0:
259,168,139459,1,0,0:0:0:0:
259,168,139745,1,0,0:0:0:0:
259,168,140031,1,0,0:0:0:0:
259,168,140316,1,0,0:0:0:0:
259,168,140638,1,0,0:0:0:0:
259,168,140995,1,0,0:0:0:0:
259,168,141316,1,0,0:0:0:0:
259,168,141710,1,0,0:0:0:0:
259,168,142102,1,0,0:0:0:0:
259,168,142567,1,0,0:0:0:0:
259,168,142924,5,0,0:0:0:0:
259,168,144531,1,0,0:0:0:0:
259,168,144960,1,0,0:0:0:0:
259,168,145602,1,0,0:0:0:0:
259,168,145960,1,0,0:0:0:0:
259,168,146960,1,0,0:0:0:0:
259,168,147960,1,0,0:0:0:0:
259,168,148531,1,0,0:0:0:0:
259,168,149531,1,0,0:0:0:0:
259,168,149960,1,0,0:0:0:0:
259,168,151495,1,0,0:0:0:0:
259,168,152388,1,0,0:0:0:0:
259,168,152745,1,0,0:0:0:0:
259,168,153638,1,0,0:0:0:0:
259,168,154460,1,0,0:0:0:0:
259,168,155138,1,0,0:0:0:0:
259,168,155745,1,0,0:0:0:0:
259,168,156210,1,0,0:0:0:0:
