osu file format v14

[General]
AudioFilename: CANDY CANES full version.mp3
AudioLeadIn: 0
PreviewTime: -1
Countdown: 1
SampleSet: Soft
StackLeniency: 0.7
Mode: 3
LetterboxInBreaks: 0
SpecialStyle: 0
WidescreenStoryboard: 0

[Editor]
DistanceSpacing: 1.5
BeatDivisor: 4
GridSize: 4
TimelineZoom: 2.7

[Metadata]
Title:CANDY CANES (Full ver.)
TitleUnicode:CANDY CANES (Full ver.)
Artist:Jacksfilms
ArtistUnicode:Jacksfilms
Creator:Asrielly
Version:stab stab stab stab stab stab stab stab stab stab stab stab stab stab stab stab
Source:
Tags:Devilchilly youtube dingus christmas memes meme original quads spam
BeatmapID:896752
BeatmapSetID:413538

[Difficulty]
HPDrainRate:8
CircleSize:4
OverallDifficulty:8
ApproachRate:5
SliderMultiplier:1.4
SliderTickRate:1

[Events]
//Background and Video events
0,0,"maxresdefault.jpg",0,0
Video,0,"CANDY CANES full version.mp4"
//Break Periods
//Storyboard Layer 0 (Background)
//Storyboard Layer 1 (Fail)
//Storyboard Layer 2 (Pass)
//Storyboard Layer 3 (Foreground)
//Storyboard Sound Samples

[TimingPoints]
1807.37078651685,337.078651685393,4,2,0,10,1,0

[HitObjects]
64,192,121,5,0,0:0:0:0:
448,192,121,1,0,0:0:0:0:
192,192,290,1,0,0:0:0:0:
448,192,459,1,0,0:0:0:0:
320,192,459,1,0,0:0:0:0:
192,192,627,1,0,0:0:0:0:
448,192,796,1,0,0:0:0:0:
64,192,796,1,0,0:0:0:0:
320,192,964,1,0,0:0:0:0:
192,192,1133,1,0,0:0:0:0:
64,192,1133,1,0,0:0:0:0:
448,192,1301,1,0,0:0:0:0:
320,192,1470,1,0,0:0:0:0:
64,192,1470,1,0,0:0:0:0:
192,192,1638,1,0,0:0:0:0:
448,192,1807,1,0,0:0:0:0:
320,192,1807,1,0,0:0:0:0:
192,192,1975,1,0,0:0:0:0:
64,192,2144,1,0,0:0:0:0:
320,192,2144,1,0,0:0:0:0:
192,192,2312,1,0,0:0:0:0:
448,192,2481,1,0,0:0:0:0:
320,192,2481,1,0,0:0:0:0:
192,192,2650,1,0,0:0:0:0:
448,192,2818,1,0,0:0:0:0:
64,192,2818,1,0,0:0:0:0:
192,192,2987,1,0,0:0:0:0:
448,192,3155,1,0,0:0:0:0:
320,192,3155,1,0,0:0:0:0:
192,192,3324,1,0,0:0:0:0:
64,192,3324,1,0,0:0:0:0:
320,192,3492,1,0,0:0:0:0:
64,192,3661,1,0,0:0:0:0:
448,192,3661,1,0,0:0:0:0:
192,192,3829,1,0,0:0:0:0:
320,192,3998,1,0,0:0:0:0:
64,192,3998,1,0,0:0:0:0:
192,192,4166,1,0,0:0:0:0:
448,192,4335,1,0,0:0:0:0:
64,192,4335,1,0,0:0:0:0:
320,192,4504,1,0,0:0:0:0:
192,192,4504,1,0,0:0:0:0:
448,192,4672,1,0,0:0:0:0:
320,192,4841,1,0,0:0:0:0:
192,192,4841,1,0,0:0:0:0:
448,192,5009,1,0,0:0:0:0:
64,192,5009,1,0,0:0:0:0:
320,192,5178,1,0,0:0:0:0:
192,192,5346,1,0,0:0:0:0:
448,192,5346,1,0,0:0:0:0:
320,192,5515,1,0,0:0:0:0:
448,192,5515,1,0,0:0:0:0:
64,192,5515,1,0,0:0:0:0:
192,192,5683,1,0,0:0:0:0:
320,192,5852,1,0,0:0:0:0:
192,192,5852,1,0,0:0:0:0:
64,192,5852,1,0,0:0:0:0:
320,192,6020,1,0,0:0:0:0:
448,192,6189,1,0,0:0:0:0:
192,192,6189,1,0,0:0:0:0:
64,192,6189,1,0,0:0:0:0:
320,192,6357,1,0,0:0:0:0:
448,192,6526,1,0,0:0:0:0:
192,192,6526,1,0,0:0:0:0:
64,192,6526,1,0,0:0:0:0:
320,192,6695,1,0,0:0:0:0:
192,192,6863,1,0,0:0:0:0:
448,192,6863,1,0,0:0:0:0:
64,192,6863,128,0,8211:0:0:0:0:
320,192,7032,1,0,0:0:0:0:
448,192,7200,1,0,0:0:0:0:
192,192,7200,1,0,0:0:0:0:
320,192,7369,1,0,0:0:0:0:
320,192,7537,1,0,0:0:0:0:
448,192,7537,1,0,0:0:0:0:
192,192,7706,1,0,0:0:0:0:
448,192,7874,1,0,0:0:0:0:
320,192,7874,1,0,0:0:0:0:
192,192,8043,1,0,0:0:0:0:
448,192,8211,1,0,0:0:0:0:
320,192,8211,1,0,0:0:0:0:
192,192,8211,1,0,0:0:0:0:
320,192,8380,1,0,0:0:0:0:
448,192,8380,1,0,0:0:0:0:
64,192,8380,1,0,0:0:0:0:
192,192,8380,1,0,0:0:0:0:
320,192,8548,1,0,0:0:0:0:
448,192,8548,1,0,0:0:0:0:
64,192,8548,1,0,0:0:0:0:
192,192,8548,1,0,0:0:0:0:
320,192,8717,1,0,0:0:0:0:
448,192,8717,1,0,0:0:0:0:
64,192,8717,1,0,0:0:0:0:
192,192,8717,1,0,0:0:0:0:
320,192,8886,1,0,0:0:0:0:
448,192,8886,1,0,0:0:0:0:
64,192,8886,1,0,0:0:0:0:
192,192,8886,1,0,0:0:0:0:
320,192,9054,1,0,0:0:0:0:
448,192,9054,1,0,0:0:0:0:
64,192,9054,1,0,0:0:0:0:
192,192,9054,1,0,0:0:0:0:
320,192,9223,1,0,0:0:0:0:
448,192,9223,1,0,0:0:0:0:
64,192,9223,1,0,0:0:0:0:
192,192,9223,1,0,0:0:0:0:
320,192,9391,1,0,0:0:0:0:
448,192,9391,1,0,0:0:0:0:
64,192,9391,1,0,0:0:0:0:
192,192,9391,1,0,0:0:0:0:
320,192,9560,1,0,0:0:0:0:
448,192,9560,1,0,0:0:0:0:
64,192,9560,1,0,0:0:0:0:
192,192,9560,1,0,0:0:0:0:
320,192,9728,1,0,0:0:0:0:
448,192,9728,1,0,0:0:0:0:
64,192,9728,1,0,0:0:0:0:
192,192,9728,1,0,0:0:0:0:
320,192,9897,1,0,0:0:0:0:
448,192,9897,1,0,0:0:0:0:
64,192,9897,1,0,0:0:0:0:
192,192,9897,1,0,0:0:0:0:
320,192,10065,1,0,0:0:0:0:
448,192,10065,1,0,0:0:0:0:
64,192,10065,1,0,0:0:0:0:
192,192,10065,1,0,0:0:0:0:
320,192,10234,1,0,0:0:0:0:
448,192,10234,1,0,0:0:0:0:
64,192,10234,1,0,0:0:0:0:
192,192,10234,1,0,0:0:0:0:
320,192,10402,1,0,0:0:0:0:
448,192,10402,1,0,0:0:0:0:
64,192,10402,1,0,0:0:0:0:
192,192,10402,1,0,0:0:0:0:
320,192,10571,1,0,0:0:0:0:
448,192,10571,1,0,0:0:0:0:
64,192,10571,1,0,0:0:0:0:
192,192,10571,1,0,0:0:0:0:
320,192,10739,1,0,0:0:0:0:
448,192,10739,1,0,0:0:0:0:
64,192,10739,1,0,0:0:0:0:
192,192,10739,1,0,0:0:0:0:
64,192,10908,1,0,0:0:0:0:
192,192,10908,1,0,0:0:0:0:
320,192,10908,1,0,0:0:0:0:
448,192,10908,1,0,0:0:0:0:
320,192,11077,1,0,0:0:0:0:
448,192,11077,1,0,0:0:0:0:
64,192,11077,1,0,0:0:0:0:
192,192,11077,1,0,0:0:0:0:
64,192,11245,1,0,0:0:0:0:
192,192,11245,1,0,0:0:0:0:
320,192,11245,1,0,0:0:0:0:
448,192,11245,1,0,0:0:0:0:
320,192,11414,1,0,0:0:0:0:
448,192,11414,1,0,0:0:0:0:
64,192,11414,1,0,0:0:0:0:
192,192,11414,1,0,0:0:0:0:
64,192,11582,1,0,0:0:0:0:
192,192,11582,1,0,0:0:0:0:
320,192,11582,1,0,0:0:0:0:
448,192,11582,1,0,0:0:0:0:
320,192,11751,1,0,0:0:0:0:
448,192,11751,1,0,0:0:0:0:
64,192,11751,1,0,0:0:0:0:
192,192,11751,1,0,0:0:0:0:
320,192,11919,1,0,0:0:0:0:
448,192,11919,1,0,0:0:0:0:
64,192,11919,1,0,0:0:0:0:
192,192,11919,1,0,0:0:0:0:
320,192,12088,1,0,0:0:0:0:
448,192,12088,1,0,0:0:0:0:
64,192,12088,1,0,0:0:0:0:
192,192,12088,1,0,0:0:0:0:
320,192,12256,1,0,0:0:0:0:
448,192,12256,1,0,0:0:0:0:
64,192,12256,1,0,0:0:0:0:
192,192,12256,1,0,0:0:0:0:
320,192,12425,1,0,0:0:0:0:
448,192,12425,1,0,0:0:0:0:
64,192,12425,1,0,0:0:0:0:
192,192,12425,1,0,0:0:0:0:
320,192,12593,1,0,0:0:0:0:
448,192,12593,1,0,0:0:0:0:
64,192,12593,1,0,0:0:0:0:
192,192,12593,1,0,0:0:0:0:
320,192,12762,1,0,0:0:0:0:
448,192,12762,1,0,0:0:0:0:
64,192,12762,1,0,0:0:0:0:
192,192,12762,1,0,0:0:0:0:
64,192,12930,1,0,0:0:0:0:
192,192,12930,1,0,0:0:0:0:
320,192,12930,1,0,0:0:0:0:
448,192,12930,1,0,0:0:0:0:
320,192,13099,1,0,0:0:0:0:
448,192,13099,1,0,0:0:0:0:
64,192,13099,1,0,0:0:0:0:
192,192,13099,1,0,0:0:0:0:
64,192,13268,1,0,0:0:0:0:
192,192,13268,1,0,0:0:0:0:
320,192,13268,1,0,0:0:0:0:
448,192,13268,1,0,0:0:0:0:
320,192,13436,1,0,0:0:0:0:
448,192,13436,1,0,0:0:0:0:
64,192,13436,1,0,0:0:0:0:
192,192,13436,1,0,0:0:0:0:
64,192,13605,1,0,0:0:0:0:
192,192,13605,1,0,0:0:0:0:
320,192,13605,1,0,0:0:0:0:
448,192,13605,1,0,0:0:0:0:
320,192,13773,1,0,0:0:0:0:
448,192,13773,1,0,0:0:0:0:
64,192,13773,1,0,0:0:0:0:
192,192,13773,1,0,0:0:0:0:
320,192,13942,1,0,0:0:0:0:
448,192,13942,1,0,0:0:0:0:
64,192,13942,1,0,0:0:0:0:
192,192,13942,1,0,0:0:0:0:
320,192,14110,1,0,0:0:0:0:
448,192,14110,1,0,0:0:0:0:
64,192,14110,1,0,0:0:0:0:
192,192,14110,1,0,0:0:0:0:
320,192,14279,1,0,0:0:0:0:
448,192,14279,1,0,0:0:0:0:
64,192,14279,1,0,0:0:0:0:
192,192,14279,1,0,0:0:0:0:
320,192,14447,1,0,0:0:0:0:
448,192,14447,1,0,0:0:0:0:
64,192,14447,1,0,0:0:0:0:
192,192,14447,1,0,0:0:0:0:
320,192,14616,1,0,0:0:0:0:
448,192,14616,1,0,0:0:0:0:
64,192,14616,1,0,0:0:0:0:
192,192,14616,1,0,0:0:0:0:
320,192,14784,1,0,0:0:0:0:
448,192,14784,1,0,0:0:0:0:
64,192,14784,1,0,0:0:0:0:
192,192,14784,1,0,0:0:0:0:
64,192,14953,1,0,0:0:0:0:
192,192,14953,1,0,0:0:0:0:
320,192,14953,1,0,0:0:0:0:
448,192,14953,1,0,0:0:0:0:
320,192,15121,1,0,0:0:0:0:
448,192,15121,1,0,0:0:0:0:
64,192,15121,1,0,0:0:0:0:
192,192,15121,1,0,0:0:0:0:
64,192,15290,1,0,0:0:0:0:
192,192,15290,1,0,0:0:0:0:
320,192,15290,1,0,0:0:0:0:
448,192,15290,1,0,0:0:0:0:
320,192,15459,1,0,0:0:0:0:
448,192,15459,1,0,0:0:0:0:
64,192,15459,1,0,0:0:0:0:
192,192,15459,1,0,0:0:0:0:
64,192,15627,1,0,0:0:0:0:
192,192,15627,1,0,0:0:0:0:
320,192,15627,1,0,0:0:0:0:
448,192,15627,1,0,0:0:0:0:
320,192,15796,1,0,0:0:0:0:
448,192,15796,1,0,0:0:0:0:
64,192,15796,1,0,0:0:0:0:
192,192,15796,1,0,0:0:0:0:
320,192,15964,1,0,0:0:0:0:
448,192,15964,1,0,0:0:0:0:
64,192,15964,1,0,0:0:0:0:
192,192,15964,1,0,0:0:0:0:
320,192,16133,1,0,0:0:0:0:
448,192,16133,1,0,0:0:0:0:
64,192,16133,1,0,0:0:0:0:
192,192,16133,1,0,0:0:0:0:
320,192,16301,1,0,0:0:0:0:
448,192,16301,1,0,0:0:0:0:
64,192,16301,1,0,0:0:0:0:
192,192,16301,1,0,0:0:0:0:
320,192,16470,1,0,0:0:0:0:
448,192,16470,1,0,0:0:0:0:
64,192,16470,1,0,0:0:0:0:
192,192,16470,1,0,0:0:0:0:
320,192,16638,1,0,0:0:0:0:
448,192,16638,1,0,0:0:0:0:
64,192,16638,1,0,0:0:0:0:
192,192,16638,1,0,0:0:0:0:
320,192,16807,1,0,0:0:0:0:
448,192,16807,1,0,0:0:0:0:
64,192,16807,1,0,0:0:0:0:
192,192,16807,1,0,0:0:0:0:
320,192,16975,1,0,0:0:0:0:
448,192,16975,1,0,0:0:0:0:
64,192,16975,1,0,0:0:0:0:
192,192,16975,1,0,0:0:0:0:
320,192,17144,1,0,0:0:0:0:
448,192,17144,1,0,0:0:0:0:
64,192,17144,1,0,0:0:0:0:
192,192,17144,1,0,0:0:0:0:
320,192,17312,1,0,0:0:0:0:
448,192,17312,1,0,0:0:0:0:
64,192,17312,1,0,0:0:0:0:
192,192,17312,1,0,0:0:0:0:
320,192,17481,1,0,0:0:0:0:
448,192,17481,1,0,0:0:0:0:
64,192,17481,1,0,0:0:0:0:
192,192,17481,1,0,0:0:0:0:
320,192,17650,1,0,0:0:0:0:
448,192,17650,1,0,0:0:0:0:
64,192,17650,1,0,0:0:0:0:
192,192,17650,1,0,0:0:0:0:
320,192,17818,1,0,0:0:0:0:
448,192,17818,1,0,0:0:0:0:
64,192,17818,1,0,0:0:0:0:
192,192,17818,1,0,0:0:0:0:
320,192,17987,1,0,0:0:0:0:
448,192,17987,1,0,0:0:0:0:
64,192,17987,1,0,0:0:0:0:
192,192,17987,1,0,0:0:0:0:
320,192,18155,1,0,0:0:0:0:
448,192,18155,1,0,0:0:0:0:
64,192,18155,1,0,0:0:0:0:
192,192,18155,1,0,0:0:0:0:
320,192,18324,1,0,0:0:0:0:
448,192,18324,1,0,0:0:0:0:
64,192,18324,1,0,0:0:0:0:
192,192,18324,1,0,0:0:0:0:
320,192,18492,1,0,0:0:0:0:
448,192,18492,1,0,0:0:0:0:
64,192,18492,1,0,0:0:0:0:
192,192,18492,1,0,0:0:0:0:
320,192,18661,1,0,0:0:0:0:
448,192,18661,1,0,0:0:0:0:
64,192,18661,1,0,0:0:0:0:
192,192,18661,1,0,0:0:0:0:
320,192,18829,1,0,0:0:0:0:
448,192,18829,1,0,0:0:0:0:
64,192,18829,1,0,0:0:0:0:
192,192,18829,1,0,0:0:0:0:
320,192,18998,1,0,0:0:0:0:
448,192,18998,1,0,0:0:0:0:
64,192,18998,1,0,0:0:0:0:
192,192,18998,1,0,0:0:0:0:
320,192,19166,1,0,0:0:0:0:
448,192,19166,1,0,0:0:0:0:
64,192,19166,1,0,0:0:0:0:
192,192,19166,1,0,0:0:0:0:
64,192,19335,1,0,0:0:0:0:
192,192,19335,1,0,0:0:0:0:
320,192,19335,1,0,0:0:0:0:
448,192,19335,1,0,0:0:0:0:
320,192,19504,1,0,0:0:0:0:
448,192,19504,1,0,0:0:0:0:
64,192,19504,1,0,0:0:0:0:
192,192,19504,1,0,0:0:0:0:
64,192,19672,1,0,0:0:0:0:
192,192,19672,1,0,0:0:0:0:
320,192,19672,1,0,0:0:0:0:
448,192,19672,1,0,0:0:0:0:
320,192,19841,1,0,0:0:0:0:
448,192,19841,1,0,0:0:0:0:
64,192,19841,1,0,0:0:0:0:
192,192,19841,1,0,0:0:0:0:
64,192,20009,1,0,0:0:0:0:
192,192,20009,1,0,0:0:0:0:
320,192,20009,1,0,0:0:0:0:
448,192,20009,1,0,0:0:0:0:
320,192,20178,1,0,0:0:0:0:
448,192,20178,1,0,0:0:0:0:
64,192,20178,1,0,0:0:0:0:
192,192,20178,1,0,0:0:0:0:
320,192,20346,1,0,0:0:0:0:
448,192,20346,1,0,0:0:0:0:
64,192,20346,1,0,0:0:0:0:
192,192,20346,1,0,0:0:0:0:
320,192,20515,1,0,0:0:0:0:
448,192,20515,1,0,0:0:0:0:
64,192,20515,1,0,0:0:0:0:
192,192,20515,1,0,0:0:0:0:
320,192,20683,1,0,0:0:0:0:
448,192,20683,1,0,0:0:0:0:
64,192,20683,1,0,0:0:0:0:
192,192,20683,1,0,0:0:0:0:
320,192,20852,1,0,0:0:0:0:
448,192,20852,1,0,0:0:0:0:
64,192,20852,1,0,0:0:0:0:
192,192,20852,1,0,0:0:0:0:
320,192,21020,1,0,0:0:0:0:
448,192,21020,1,0,0:0:0:0:
64,192,21020,1,0,0:0:0:0:
192,192,21020,1,0,0:0:0:0:
320,192,21189,1,0,0:0:0:0:
448,192,21189,1,0,0:0:0:0:
64,192,21189,1,0,0:0:0:0:
192,192,21189,1,0,0:0:0:0:
64,192,21357,1,0,0:0:0:0:
192,192,21357,1,0,0:0:0:0:
320,192,21357,1,0,0:0:0:0:
448,192,21357,1,0,0:0:0:0:
320,192,21526,1,0,0:0:0:0:
448,192,21526,1,0,0:0:0:0:
64,192,21526,1,0,0:0:0:0:
192,192,21526,1,0,0:0:0:0:
64,192,21695,1,0,0:0:0:0:
192,192,21695,1,0,0:0:0:0:
320,192,21695,1,0,0:0:0:0:
448,192,21695,1,0,0:0:0:0:
320,192,21863,1,0,0:0:0:0:
448,192,21863,1,0,0:0:0:0:
64,192,21863,1,0,0:0:0:0:
192,192,21863,1,0,0:0:0:0:
64,192,22032,1,0,0:0:0:0:
192,192,22032,1,0,0:0:0:0:
320,192,22032,1,0,0:0:0:0:
448,192,22032,1,0,0:0:0:0:
320,192,22200,1,0,0:0:0:0:
448,192,22200,1,0,0:0:0:0:
64,192,22200,1,0,0:0:0:0:
192,192,22200,1,0,0:0:0:0:
320,192,22369,1,0,0:0:0:0:
448,192,22369,1,0,0:0:0:0:
64,192,22369,1,0,0:0:0:0:
192,192,22369,1,0,0:0:0:0:
320,192,22537,1,0,0:0:0:0:
448,192,22537,1,0,0:0:0:0:
64,192,22537,1,0,0:0:0:0:
192,192,22537,1,0,0:0:0:0:
320,192,22706,1,0,0:0:0:0:
448,192,22706,1,0,0:0:0:0:
64,192,22706,1,0,0:0:0:0:
192,192,22706,1,0,0:0:0:0:
320,192,22874,1,0,0:0:0:0:
448,192,22874,1,0,0:0:0:0:
64,192,22874,1,0,0:0:0:0:
192,192,22874,1,0,0:0:0:0:
320,192,23043,1,0,0:0:0:0:
448,192,23043,1,0,0:0:0:0:
64,192,23043,1,0,0:0:0:0:
192,192,23043,1,0,0:0:0:0:
320,192,23211,1,0,0:0:0:0:
448,192,23211,1,0,0:0:0:0:
64,192,23211,1,0,0:0:0:0:
192,192,23211,1,0,0:0:0:0:
64,192,23380,1,0,0:0:0:0:
192,192,23380,1,0,0:0:0:0:
320,192,23380,1,0,0:0:0:0:
448,192,23380,1,0,0:0:0:0:
320,192,23548,1,0,0:0:0:0:
448,192,23548,1,0,0:0:0:0:
64,192,23548,1,0,0:0:0:0:
192,192,23548,1,0,0:0:0:0:
64,192,23717,1,0,0:0:0:0:
192,192,23717,1,0,0:0:0:0:
320,192,23717,1,0,0:0:0:0:
448,192,23717,1,0,0:0:0:0:
320,192,23886,1,0,0:0:0:0:
448,192,23886,1,0,0:0:0:0:
64,192,23886,1,0,0:0:0:0:
192,192,23886,1,0,0:0:0:0:
64,192,24054,1,0,0:0:0:0:
192,192,24054,1,0,0:0:0:0:
320,192,24054,1,0,0:0:0:0:
448,192,24054,1,0,0:0:0:0:
320,192,24223,1,0,0:0:0:0:
448,192,24223,1,0,0:0:0:0:
64,192,24223,1,0,0:0:0:0:
192,192,24223,1,0,0:0:0:0:
320,192,24391,1,0,0:0:0:0:
448,192,24391,1,0,0:0:0:0:
64,192,24391,1,0,0:0:0:0:
192,192,24391,1,0,0:0:0:0:
320,192,24560,1,0,0:0:0:0:
448,192,24560,1,0,0:0:0:0:
64,192,24560,1,0,0:0:0:0:
192,192,24560,1,0,0:0:0:0:
320,192,24728,1,0,0:0:0:0:
448,192,24728,1,0,0:0:0:0:
64,192,24728,1,0,0:0:0:0:
192,192,24728,1,0,0:0:0:0:
320,192,24897,1,0,0:0:0:0:
448,192,24897,1,0,0:0:0:0:
64,192,24897,1,0,0:0:0:0:
192,192,24897,1,0,0:0:0:0:
320,192,25065,1,0,0:0:0:0:
448,192,25065,1,0,0:0:0:0:
64,192,25065,1,0,0:0:0:0:
192,192,25065,1,0,0:0:0:0:
64,192,25234,1,0,0:0:0:0:
192,192,25234,1,0,0:0:0:0:
320,192,25234,1,0,0:0:0:0:
448,192,25234,1,0,0:0:0:0:
64,192,25402,1,0,0:0:0:0:
192,192,25402,1,0,0:0:0:0:
320,192,25402,1,0,0:0:0:0:
448,192,25402,1,0,0:0:0:0:
64,192,25571,1,0,0:0:0:0:
192,192,25571,1,0,0:0:0:0:
320,192,25571,1,0,0:0:0:0:
448,192,25571,1,0,0:0:0:0:
64,192,25739,1,0,0:0:0:0:
192,192,25739,1,0,0:0:0:0:
320,192,25739,1,0,0:0:0:0:
448,192,25739,1,0,0:0:0:0:
64,192,25908,1,0,0:0:0:0:
192,192,25908,1,0,0:0:0:0:
320,192,25908,1,0,0:0:0:0:
448,192,25908,1,0,0:0:0:0:
64,192,26077,1,0,0:0:0:0:
192,192,26077,1,0,0:0:0:0:
320,192,26077,1,0,0:0:0:0:
448,192,26077,1,0,0:0:0:0:
64,192,26245,1,0,0:0:0:0:
192,192,26245,1,0,0:0:0:0:
320,192,26245,1,0,0:0:0:0:
448,192,26245,1,0,0:0:0:0:
64,192,26414,1,0,0:0:0:0:
192,192,26414,1,0,0:0:0:0:
320,192,26414,1,0,0:0:0:0:
448,192,26414,1,0,0:0:0:0:
64,192,26582,1,0,0:0:0:0:
192,192,26582,1,0,0:0:0:0:
320,192,26582,1,0,0:0:0:0:
448,192,26582,1,0,0:0:0:0:
64,192,26751,1,0,0:0:0:0:
192,192,26751,1,0,0:0:0:0:
320,192,26751,1,0,0:0:0:0:
448,192,26751,1,0,0:0:0:0:
64,192,26919,1,0,0:0:0:0:
192,192,26919,1,0,0:0:0:0:
320,192,26919,1,0,0:0:0:0:
448,192,26919,1,0,0:0:0:0:
64,192,27088,1,0,0:0:0:0:
192,192,27088,1,0,0:0:0:0:
320,192,27088,1,0,0:0:0:0:
448,192,27088,1,0,0:0:0:0:
64,192,27256,1,0,0:0:0:0:
192,192,27256,1,0,0:0:0:0:
320,192,27256,1,0,0:0:0:0:
448,192,27256,1,0,0:0:0:0:
64,192,27425,1,0,0:0:0:0:
192,192,27425,1,0,0:0:0:0:
320,192,27425,1,0,0:0:0:0:
448,192,27425,1,0,0:0:0:0:
64,192,27593,1,0,0:0:0:0:
192,192,27593,1,0,0:0:0:0:
320,192,27593,1,0,0:0:0:0:
448,192,27593,1,0,0:0:0:0:
320,192,27762,1,0,0:0:0:0:
448,192,27762,1,0,0:0:0:0:
64,192,27762,1,0,0:0:0:0:
192,192,27762,1,0,0:0:0:0:
64,192,27930,1,0,0:0:0:0:
192,192,27930,1,0,0:0:0:0:
320,192,27930,1,0,0:0:0:0:
448,192,27930,1,0,0:0:0:0:
320,192,28099,1,0,0:0:0:0:
448,192,28099,1,0,0:0:0:0:
64,192,28099,1,0,0:0:0:0:
192,192,28099,1,0,0:0:0:0:
64,192,28268,1,0,0:0:0:0:
192,192,28268,1,0,0:0:0:0:
320,192,28268,1,0,0:0:0:0:
448,192,28268,1,0,0:0:0:0:
320,192,28436,1,0,0:0:0:0:
448,192,28436,1,0,0:0:0:0:
64,192,28436,1,0,0:0:0:0:
192,192,28436,1,0,0:0:0:0:
64,192,28605,1,0,0:0:0:0:
192,192,28605,1,0,0:0:0:0:
320,192,28605,1,0,0:0:0:0:
448,192,28605,1,0,0:0:0:0:
64,192,28773,1,0,0:0:0:0:
192,192,28773,1,0,0:0:0:0:
320,192,28773,1,0,0:0:0:0:
448,192,28773,1,0,0:0:0:0:
64,192,28942,1,0,0:0:0:0:
192,192,28942,1,0,0:0:0:0:
320,192,28942,1,0,0:0:0:0:
448,192,28942,1,0,0:0:0:0:
64,192,29110,1,0,0:0:0:0:
192,192,29110,1,0,0:0:0:0:
320,192,29110,1,0,0:0:0:0:
448,192,29110,1,0,0:0:0:0:
64,192,29279,1,0,0:0:0:0:
192,192,29279,1,0,0:0:0:0:
320,192,29279,1,0,0:0:0:0:
448,192,29279,1,0,0:0:0:0:
64,192,29447,1,0,0:0:0:0:
192,192,29447,1,0,0:0:0:0:
320,192,29447,1,0,0:0:0:0:
448,192,29447,1,0,0:0:0:0:
64,192,29616,1,0,0:0:0:0:
192,192,29616,1,0,0:0:0:0:
320,192,29616,1,0,0:0:0:0:
448,192,29616,1,0,0:0:0:0:
320,192,29784,1,0,0:0:0:0:
448,192,29784,1,0,0:0:0:0:
64,192,29784,1,0,0:0:0:0:
192,192,29784,1,0,0:0:0:0:
64,192,29953,1,0,0:0:0:0:
192,192,29953,1,0,0:0:0:0:
320,192,29953,1,0,0:0:0:0:
448,192,29953,1,0,0:0:0:0:
320,192,30121,1,0,0:0:0:0:
448,192,30121,1,0,0:0:0:0:
64,192,30121,1,0,0:0:0:0:
192,192,30121,1,0,0:0:0:0:
64,192,30290,1,0,0:0:0:0:
192,192,30290,1,0,0:0:0:0:
320,192,30290,1,0,0:0:0:0:
448,192,30290,1,0,0:0:0:0:
320,192,30459,1,0,0:0:0:0:
448,192,30459,1,0,0:0:0:0:
64,192,30459,1,0,0:0:0:0:
192,192,30459,1,0,0:0:0:0:
64,192,30627,1,0,0:0:0:0:
192,192,30627,1,0,0:0:0:0:
320,192,30627,1,0,0:0:0:0:
448,192,30627,1,0,0:0:0:0:
64,192,30796,1,0,0:0:0:0:
192,192,30796,1,0,0:0:0:0:
320,192,30796,1,0,0:0:0:0:
448,192,30796,1,0,0:0:0:0:
64,192,30964,1,0,0:0:0:0:
192,192,30964,1,0,0:0:0:0:
320,192,30964,1,0,0:0:0:0:
448,192,30964,1,0,0:0:0:0:
64,192,31133,1,0,0:0:0:0:
192,192,31133,1,0,0:0:0:0:
320,192,31133,1,0,0:0:0:0:
448,192,31133,1,0,0:0:0:0:
64,192,31301,1,0,0:0:0:0:
192,192,31301,1,0,0:0:0:0:
320,192,31301,1,0,0:0:0:0:
448,192,31301,1,0,0:0:0:0:
64,192,31470,1,0,0:0:0:0:
192,192,31470,1,0,0:0:0:0:
320,192,31470,1,0,0:0:0:0:
448,192,31470,1,0,0:0:0:0:
64,192,31638,1,0,0:0:0:0:
192,192,31638,1,0,0:0:0:0:
320,192,31638,1,0,0:0:0:0:
448,192,31638,1,0,0:0:0:0:
320,192,31807,1,0,0:0:0:0:
448,192,31807,1,0,0:0:0:0:
64,192,31807,1,0,0:0:0:0:
192,192,31807,1,0,0:0:0:0:
64,192,31975,1,0,0:0:0:0:
192,192,31975,1,0,0:0:0:0:
320,192,31975,1,0,0:0:0:0:
448,192,31975,1,0,0:0:0:0:
320,192,32144,1,0,0:0:0:0:
448,192,32144,1,0,0:0:0:0:
64,192,32144,1,0,0:0:0:0:
192,192,32144,1,0,0:0:0:0:
64,192,32312,1,0,0:0:0:0:
192,192,32312,1,0,0:0:0:0:
320,192,32312,1,0,0:0:0:0:
448,192,32312,1,0,0:0:0:0:
320,192,32481,1,0,0:0:0:0:
448,192,32481,1,0,0:0:0:0:
64,192,32481,1,0,0:0:0:0:
192,192,32481,1,0,0:0:0:0:
64,192,32650,1,0,0:0:0:0:
192,192,32650,1,0,0:0:0:0:
320,192,32650,1,0,0:0:0:0:
448,192,32650,1,0,0:0:0:0:
64,192,32818,1,0,0:0:0:0:
192,192,32818,1,0,0:0:0:0:
320,192,32818,1,0,0:0:0:0:
448,192,32818,1,0,0:0:0:0:
64,192,32987,1,0,0:0:0:0:
192,192,32987,1,0,0:0:0:0:
320,192,32987,1,0,0:0:0:0:
448,192,32987,1,0,0:0:0:0:
64,192,33155,1,0,0:0:0:0:
192,192,33155,1,0,0:0:0:0:
320,192,33155,1,0,0:0:0:0:
448,192,33155,1,0,0:0:0:0:
64,192,33324,1,0,0:0:0:0:
192,192,33324,1,0,0:0:0:0:
320,192,33324,1,0,0:0:0:0:
448,192,33324,1,0,0:0:0:0:
64,192,33492,1,0,0:0:0:0:
192,192,33492,1,0,0:0:0:0:
320,192,33492,1,0,0:0:0:0:
448,192,33492,1,0,0:0:0:0:
320,192,33661,1,0,0:0:0:0:
448,192,33661,1,0,0:0:0:0:
64,192,33661,1,0,0:0:0:0:
192,192,33661,1,0,0:0:0:0:
320,192,33829,1,0,0:0:0:0:
448,192,33829,1,0,0:0:0:0:
64,192,33829,1,0,0:0:0:0:
192,192,33829,1,0,0:0:0:0:
320,192,33998,1,0,0:0:0:0:
448,192,33998,1,0,0:0:0:0:
64,192,33998,1,0,0:0:0:0:
192,192,33998,1,0,0:0:0:0:
320,192,34166,1,0,0:0:0:0:
448,192,34166,1,0,0:0:0:0:
64,192,34166,1,0,0:0:0:0:
192,192,34166,1,0,0:0:0:0:
320,192,34335,1,0,0:0:0:0:
448,192,34335,1,0,0:0:0:0:
64,192,34335,1,0,0:0:0:0:
192,192,34335,1,0,0:0:0:0:
320,192,34503,1,0,0:0:0:0:
448,192,34503,1,0,0:0:0:0:
64,192,34503,1,0,0:0:0:0:
192,192,34503,1,0,0:0:0:0:
320,192,34672,1,0,0:0:0:0:
448,192,34672,1,0,0:0:0:0:
64,192,34672,1,0,0:0:0:0:
192,192,34672,1,0,0:0:0:0:
320,192,34841,1,0,0:0:0:0:
448,192,34841,1,0,0:0:0:0:
64,192,34841,1,0,0:0:0:0:
192,192,34841,1,0,0:0:0:0:
320,192,35009,1,0,0:0:0:0:
448,192,35009,1,0,0:0:0:0:
64,192,35009,1,0,0:0:0:0:
192,192,35009,1,0,0:0:0:0:
320,192,35178,1,0,0:0:0:0:
448,192,35178,1,0,0:0:0:0:
64,192,35178,1,0,0:0:0:0:
192,192,35178,1,0,0:0:0:0:
320,192,35346,1,0,0:0:0:0:
448,192,35346,1,0,0:0:0:0:
64,192,35346,1,0,0:0:0:0:
192,192,35346,1,0,0:0:0:0:
320,192,35515,1,0,0:0:0:0:
448,192,35515,1,0,0:0:0:0:
64,192,35515,1,0,0:0:0:0:
192,192,35515,1,0,0:0:0:0:
320,192,35683,1,0,0:0:0:0:
448,192,35683,1,0,0:0:0:0:
64,192,35683,1,0,0:0:0:0:
192,192,35683,1,0,0:0:0:0:
320,192,35852,1,0,0:0:0:0:
448,192,35852,1,0,0:0:0:0:
64,192,35852,1,0,0:0:0:0:
192,192,35852,1,0,0:0:0:0:
320,192,36020,1,0,0:0:0:0:
448,192,36020,1,0,0:0:0:0:
64,192,36020,1,0,0:0:0:0:
192,192,36020,1,0,0:0:0:0:
64,192,36189,1,0,0:0:0:0:
192,192,36189,1,0,0:0:0:0:
320,192,36189,1,0,0:0:0:0:
448,192,36189,1,0,0:0:0:0:
320,192,36357,1,0,0:0:0:0:
448,192,36357,1,0,0:0:0:0:
64,192,36357,1,0,0:0:0:0:
192,192,36357,1,0,0:0:0:0:
64,192,36526,1,0,0:0:0:0:
192,192,36526,1,0,0:0:0:0:
320,192,36526,1,0,0:0:0:0:
448,192,36526,1,0,0:0:0:0:
320,192,36695,1,0,0:0:0:0:
448,192,36695,1,0,0:0:0:0:
64,192,36695,1,0,0:0:0:0:
192,192,36695,1,0,0:0:0:0:
64,192,36863,1,0,0:0:0:0:
192,192,36863,1,0,0:0:0:0:
320,192,36863,1,0,0:0:0:0:
448,192,36863,1,0,0:0:0:0:
320,192,37032,1,0,0:0:0:0:
448,192,37032,1,0,0:0:0:0:
64,192,37032,1,0,0:0:0:0:
192,192,37032,1,0,0:0:0:0:
320,192,37200,1,0,0:0:0:0:
448,192,37200,1,0,0:0:0:0:
64,192,37200,1,0,0:0:0:0:
192,192,37200,1,0,0:0:0:0:
320,192,37369,1,0,0:0:0:0:
448,192,37369,1,0,0:0:0:0:
64,192,37369,1,0,0:0:0:0:
192,192,37369,1,0,0:0:0:0:
320,192,37537,1,0,0:0:0:0:
448,192,37537,1,0,0:0:0:0:
64,192,37537,1,0,0:0:0:0:
192,192,37537,1,0,0:0:0:0:
320,192,37706,1,0,0:0:0:0:
448,192,37706,1,0,0:0:0:0:
64,192,37706,1,0,0:0:0:0:
192,192,37706,1,0,0:0:0:0:
320,192,37874,1,0,0:0:0:0:
448,192,37874,1,0,0:0:0:0:
64,192,37874,1,0,0:0:0:0:
192,192,37874,1,0,0:0:0:0:
320,192,38043,1,0,0:0:0:0:
448,192,38043,1,0,0:0:0:0:
64,192,38043,1,0,0:0:0:0:
192,192,38043,1,0,0:0:0:0:
64,192,38211,1,0,0:0:0:0:
192,192,38211,1,0,0:0:0:0:
320,192,38211,1,0,0:0:0:0:
448,192,38211,1,0,0:0:0:0:
320,192,38380,1,0,0:0:0:0:
448,192,38380,1,0,0:0:0:0:
64,192,38380,1,0,0:0:0:0:
192,192,38380,1,0,0:0:0:0:
64,192,38548,1,0,0:0:0:0:
192,192,38548,1,0,0:0:0:0:
320,192,38548,1,0,0:0:0:0:
448,192,38548,1,0,0:0:0:0:
320,192,38717,1,0,0:0:0:0:
448,192,38717,1,0,0:0:0:0:
64,192,38717,1,0,0:0:0:0:
192,192,38717,1,0,0:0:0:0:
64,192,38886,1,0,0:0:0:0:
192,192,38886,1,0,0:0:0:0:
320,192,38886,1,0,0:0:0:0:
448,192,38886,1,0,0:0:0:0:
320,192,39054,1,0,0:0:0:0:
448,192,39054,1,0,0:0:0:0:
64,192,39054,1,0,0:0:0:0:
192,192,39054,1,0,0:0:0:0:
320,192,39223,1,0,0:0:0:0:
448,192,39223,1,0,0:0:0:0:
64,192,39223,1,0,0:0:0:0:
192,192,39223,1,0,0:0:0:0:
320,192,39391,1,0,0:0:0:0:
448,192,39391,1,0,0:0:0:0:
64,192,39391,1,0,0:0:0:0:
192,192,39391,1,0,0:0:0:0:
320,192,39560,1,0,0:0:0:0:
448,192,39560,1,0,0:0:0:0:
64,192,39560,1,0,0:0:0:0:
192,192,39560,1,0,0:0:0:0:
320,192,39728,1,0,0:0:0:0:
448,192,39728,1,0,0:0:0:0:
64,192,39728,1,0,0:0:0:0:
192,192,39728,1,0,0:0:0:0:
320,192,39897,1,0,0:0:0:0:
448,192,39897,1,0,0:0:0:0:
64,192,39897,1,0,0:0:0:0:
192,192,39897,1,0,0:0:0:0:
320,192,40065,1,0,0:0:0:0:
448,192,40065,1,0,0:0:0:0:
64,192,40065,1,0,0:0:0:0:
192,192,40065,1,0,0:0:0:0:
64,192,40234,1,0,0:0:0:0:
192,192,40234,1,0,0:0:0:0:
320,192,40234,1,0,0:0:0:0:
448,192,40234,1,0,0:0:0:0:
320,192,40402,1,0,0:0:0:0:
448,192,40402,1,0,0:0:0:0:
64,192,40402,1,0,0:0:0:0:
192,192,40402,1,0,0:0:0:0:
64,192,40571,1,0,0:0:0:0:
192,192,40571,1,0,0:0:0:0:
320,192,40571,1,0,0:0:0:0:
448,192,40571,1,0,0:0:0:0:
320,192,40739,1,0,0:0:0:0:
448,192,40739,1,0,0:0:0:0:
64,192,40739,1,0,0:0:0:0:
192,192,40739,1,0,0:0:0:0:
64,192,40908,1,0,0:0:0:0:
192,192,40908,1,0,0:0:0:0:
320,192,40908,1,0,0:0:0:0:
448,192,40908,1,0,0:0:0:0:
320,192,41077,1,0,0:0:0:0:
448,192,41077,1,0,0:0:0:0:
64,192,41077,1,0,0:0:0:0:
192,192,41077,1,0,0:0:0:0:
320,192,41245,1,0,0:0:0:0:
448,192,41245,1,0,0:0:0:0:
64,192,41245,1,0,0:0:0:0:
192,192,41245,1,0,0:0:0:0:
320,192,41414,1,0,0:0:0:0:
448,192,41414,1,0,0:0:0:0:
64,192,41414,1,0,0:0:0:0:
192,192,41414,1,0,0:0:0:0:
320,192,41582,1,0,0:0:0:0:
448,192,41582,1,0,0:0:0:0:
64,192,41582,1,0,0:0:0:0:
192,192,41582,1,0,0:0:0:0:
320,192,41751,1,0,0:0:0:0:
448,192,41751,1,0,0:0:0:0:
64,192,41751,1,0,0:0:0:0:
192,192,41751,1,0,0:0:0:0:
320,192,41919,1,0,0:0:0:0:
448,192,41919,1,0,0:0:0:0:
64,192,41919,1,0,0:0:0:0:
192,192,41919,1,0,0:0:0:0:
64,192,42088,1,0,0:0:0:0:
192,192,42088,1,0,0:0:0:0:
320,192,42088,1,0,0:0:0:0:
448,192,42088,1,0,0:0:0:0:
64,192,42256,1,0,0:0:0:0:
192,192,42256,1,0,0:0:0:0:
320,192,42256,1,0,0:0:0:0:
448,192,42256,1,0,0:0:0:0:
64,192,42425,1,0,0:0:0:0:
192,192,42425,1,0,0:0:0:0:
320,192,42425,1,0,0:0:0:0:
448,192,42425,1,0,0:0:0:0:
64,192,42593,1,0,0:0:0:0:
192,192,42593,1,0,0:0:0:0:
320,192,42593,1,0,0:0:0:0:
448,192,42593,1,0,0:0:0:0:
64,192,42762,1,0,0:0:0:0:
192,192,42762,1,0,0:0:0:0:
320,192,42762,1,0,0:0:0:0:
448,192,42762,1,0,0:0:0:0:
64,192,42930,1,0,0:0:0:0:
192,192,42930,1,0,0:0:0:0:
320,192,42930,1,0,0:0:0:0:
448,192,42930,1,0,0:0:0:0:
64,192,43099,1,0,0:0:0:0:
192,192,43099,1,0,0:0:0:0:
320,192,43099,1,0,0:0:0:0:
448,192,43099,1,0,0:0:0:0:
64,192,43268,1,0,0:0:0:0:
192,192,43268,1,0,0:0:0:0:
320,192,43268,1,0,0:0:0:0:
448,192,43268,1,0,0:0:0:0:
64,192,43436,1,0,0:0:0:0:
192,192,43436,1,0,0:0:0:0:
320,192,43436,1,0,0:0:0:0:
448,192,43436,1,0,0:0:0:0:
64,192,43605,1,0,0:0:0:0:
192,192,43605,1,0,0:0:0:0:
320,192,43605,1,0,0:0:0:0:
448,192,43605,1,0,0:0:0:0:
64,192,43773,1,0,0:0:0:0:
192,192,43773,1,0,0:0:0:0:
320,192,43773,1,0,0:0:0:0:
448,192,43773,1,0,0:0:0:0:
64,192,43942,1,0,0:0:0:0:
192,192,43942,1,0,0:0:0:0:
320,192,43942,1,0,0:0:0:0:
448,192,43942,1,0,0:0:0:0:
64,192,44110,1,0,0:0:0:0:
192,192,44110,1,0,0:0:0:0:
320,192,44110,1,0,0:0:0:0:
448,192,44110,1,0,0:0:0:0:
64,192,44279,1,0,0:0:0:0:
192,192,44279,1,0,0:0:0:0:
320,192,44279,1,0,0:0:0:0:
448,192,44279,1,0,0:0:0:0:
64,192,44447,1,0,0:0:0:0:
192,192,44447,1,0,0:0:0:0:
320,192,44447,1,0,0:0:0:0:
448,192,44447,1,0,0:0:0:0:
320,192,44616,1,0,0:0:0:0:
448,192,44616,1,0,0:0:0:0:
64,192,44616,1,0,0:0:0:0:
192,192,44616,1,0,0:0:0:0:
64,192,44784,1,0,0:0:0:0:
192,192,44784,1,0,0:0:0:0:
320,192,44784,1,0,0:0:0:0:
448,192,44784,1,0,0:0:0:0:
320,192,44953,1,0,0:0:0:0:
448,192,44953,1,0,0:0:0:0:
64,192,44953,1,0,0:0:0:0:
192,192,44953,1,0,0:0:0:0:
64,192,45121,1,0,0:0:0:0:
192,192,45121,1,0,0:0:0:0:
320,192,45121,1,0,0:0:0:0:
448,192,45121,1,0,0:0:0:0:
320,192,45290,1,0,0:0:0:0:
448,192,45290,1,0,0:0:0:0:
64,192,45290,1,0,0:0:0:0:
192,192,45290,1,0,0:0:0:0:
64,192,45459,1,0,0:0:0:0:
192,192,45459,1,0,0:0:0:0:
320,192,45459,1,0,0:0:0:0:
448,192,45459,1,0,0:0:0:0:
64,192,45627,1,0,0:0:0:0:
192,192,45627,1,0,0:0:0:0:
320,192,45627,1,0,0:0:0:0:
448,192,45627,1,0,0:0:0:0:
64,192,45796,1,0,0:0:0:0:
192,192,45796,1,0,0:0:0:0:
320,192,45796,1,0,0:0:0:0:
448,192,45796,1,0,0:0:0:0:
64,192,45964,1,0,0:0:0:0:
192,192,45964,1,0,0:0:0:0:
320,192,45964,1,0,0:0:0:0:
448,192,45964,1,0,0:0:0:0:
64,192,46133,1,0,0:0:0:0:
192,192,46133,1,0,0:0:0:0:
320,192,46133,1,0,0:0:0:0:
448,192,46133,1,0,0:0:0:0:
64,192,46301,1,0,0:0:0:0:
192,192,46301,1,0,0:0:0:0:
320,192,46301,1,0,0:0:0:0:
448,192,46301,1,0,0:0:0:0:
64,192,46470,1,0,0:0:0:0:
192,192,46470,1,0,0:0:0:0:
320,192,46470,1,0,0:0:0:0:
448,192,46470,1,0,0:0:0:0:
320,192,46638,1,0,0:0:0:0:
448,192,46638,1,0,0:0:0:0:
64,192,46638,1,0,0:0:0:0:
192,192,46638,1,0,0:0:0:0:
64,192,46807,1,0,0:0:0:0:
192,192,46807,1,0,0:0:0:0:
320,192,46807,1,0,0:0:0:0:
448,192,46807,1,0,0:0:0:0:
320,192,46975,1,0,0:0:0:0:
448,192,46975,1,0,0:0:0:0:
64,192,46975,1,0,0:0:0:0:
192,192,46975,1,0,0:0:0:0:
64,192,47144,1,0,0:0:0:0:
192,192,47144,1,0,0:0:0:0:
320,192,47144,1,0,0:0:0:0:
448,192,47144,1,0,0:0:0:0:
320,192,47312,1,0,0:0:0:0:
448,192,47312,1,0,0:0:0:0:
64,192,47312,1,0,0:0:0:0:
192,192,47312,1,0,0:0:0:0:
64,192,47481,1,0,0:0:0:0:
192,192,47481,1,0,0:0:0:0:
320,192,47481,1,0,0:0:0:0:
448,192,47481,1,0,0:0:0:0:
64,192,47650,1,0,0:0:0:0:
192,192,47650,1,0,0:0:0:0:
320,192,47650,1,0,0:0:0:0:
448,192,47650,1,0,0:0:0:0:
64,192,47818,1,0,0:0:0:0:
192,192,47818,1,0,0:0:0:0:
320,192,47818,1,0,0:0:0:0:
448,192,47818,1,0,0:0:0:0:
64,192,47987,1,0,0:0:0:0:
192,192,47987,1,0,0:0:0:0:
320,192,47987,1,0,0:0:0:0:
448,192,47987,1,0,0:0:0:0:
64,192,48155,1,0,0:0:0:0:
192,192,48155,1,0,0:0:0:0:
320,192,48155,1,0,0:0:0:0:
448,192,48155,1,0,0:0:0:0:
64,192,48324,1,0,0:0:0:0:
192,192,48324,1,0,0:0:0:0:
320,192,48324,1,0,0:0:0:0:
448,192,48324,1,0,0:0:0:0:
64,192,48492,1,0,0:0:0:0:
192,192,48492,1,0,0:0:0:0:
320,192,48492,1,0,0:0:0:0:
448,192,48492,1,0,0:0:0:0:
320,192,48661,1,0,0:0:0:0:
448,192,48661,1,0,0:0:0:0:
64,192,48661,1,0,0:0:0:0:
192,192,48661,1,0,0:0:0:0:
64,192,48829,1,0,0:0:0:0:
192,192,48829,1,0,0:0:0:0:
320,192,48829,1,0,0:0:0:0:
448,192,48829,1,0,0:0:0:0:
320,192,48998,1,0,0:0:0:0:
448,192,48998,1,0,0:0:0:0:
64,192,48998,1,0,0:0:0:0:
192,192,48998,1,0,0:0:0:0:
64,192,49166,1,0,0:0:0:0:
192,192,49166,1,0,0:0:0:0:
320,192,49166,1,0,0:0:0:0:
448,192,49166,1,0,0:0:0:0:
320,192,49335,1,0,0:0:0:0:
448,192,49335,1,0,0:0:0:0:
64,192,49335,1,0,0:0:0:0:
192,192,49335,1,0,0:0:0:0:
64,192,49503,1,0,0:0:0:0:
192,192,49503,1,0,0:0:0:0:
320,192,49503,1,0,0:0:0:0:
448,192,49503,1,0,0:0:0:0:
64,192,49672,1,0,0:0:0:0:
192,192,49672,1,0,0:0:0:0:
320,192,49672,1,0,0:0:0:0:
448,192,49672,1,0,0:0:0:0:
64,192,49841,1,0,0:0:0:0:
192,192,49841,1,0,0:0:0:0:
320,192,49841,1,0,0:0:0:0:
448,192,49841,1,0,0:0:0:0:
64,192,50009,1,0,0:0:0:0:
192,192,50009,1,0,0:0:0:0:
320,192,50009,1,0,0:0:0:0:
448,192,50009,1,0,0:0:0:0:
64,192,50178,1,0,0:0:0:0:
192,192,50178,1,0,0:0:0:0:
320,192,50178,1,0,0:0:0:0:
448,192,50178,1,0,0:0:0:0:
64,192,50346,1,0,0:0:0:0:
192,192,50346,1,0,0:0:0:0:
320,192,50346,1,0,0:0:0:0:
448,192,50346,1,0,0:0:0:0:
320,192,50515,1,0,0:0:0:0:
448,192,50515,1,0,0:0:0:0:
64,192,50515,1,0,0:0:0:0:
192,192,50515,1,0,0:0:0:0:
320,192,50683,1,0,0:0:0:0:
448,192,50683,1,0,0:0:0:0:
64,192,50683,1,0,0:0:0:0:
192,192,50683,1,0,0:0:0:0:
320,192,50852,1,0,0:0:0:0:
448,192,50852,1,0,0:0:0:0:
64,192,50852,1,0,0:0:0:0:
192,192,50852,1,0,0:0:0:0:
320,192,51020,1,0,0:0:0:0:
448,192,51020,1,0,0:0:0:0:
64,192,51020,1,0,0:0:0:0:
192,192,51020,1,0,0:0:0:0:
320,192,51189,1,0,0:0:0:0:
448,192,51189,1,0,0:0:0:0:
64,192,51189,1,0,0:0:0:0:
192,192,51189,1,0,0:0:0:0:
320,192,51357,1,0,0:0:0:0:
448,192,51357,1,0,0:0:0:0:
64,192,51357,1,0,0:0:0:0:
192,192,51357,1,0,0:0:0:0:
320,192,51526,1,0,0:0:0:0:
448,192,51526,1,0,0:0:0:0:
64,192,51526,1,0,0:0:0:0:
192,192,51526,1,0,0:0:0:0:
320,192,51695,1,0,0:0:0:0:
448,192,51695,1,0,0:0:0:0:
64,192,51695,1,0,0:0:0:0:
192,192,51695,1,0,0:0:0:0:
320,192,51863,1,0,0:0:0:0:
448,192,51863,1,0,0:0:0:0:
64,192,51863,1,0,0:0:0:0:
192,192,51863,1,0,0:0:0:0:
320,192,52032,1,0,0:0:0:0:
448,192,52032,1,0,0:0:0:0:
64,192,52032,1,0,0:0:0:0:
192,192,52032,1,0,0:0:0:0:
320,192,52200,1,0,0:0:0:0:
448,192,52200,1,0,0:0:0:0:
64,192,52200,1,0,0:0:0:0:
192,192,52200,1,0,0:0:0:0:
320,192,52369,1,0,0:0:0:0:
448,192,52369,1,0,0:0:0:0:
64,192,52369,1,0,0:0:0:0:
192,192,52369,1,0,0:0:0:0:
320,192,52537,1,0,0:0:0:0:
448,192,52537,1,0,0:0:0:0:
64,192,52537,1,0,0:0:0:0:
192,192,52537,1,0,0:0:0:0:
320,192,52706,1,0,0:0:0:0:
448,192,52706,1,0,0:0:0:0:
64,192,52706,1,0,0:0:0:0:
192,192,52706,1,0,0:0:0:0:
320,192,52874,1,0,0:0:0:0:
448,192,52874,1,0,0:0:0:0:
64,192,52874,1,0,0:0:0:0:
192,192,52874,1,0,0:0:0:0:
64,192,53043,1,0,0:0:0:0:
192,192,53043,1,0,0:0:0:0:
320,192,53043,1,0,0:0:0:0:
448,192,53043,1,0,0:0:0:0:
320,192,53211,1,0,0:0:0:0:
448,192,53211,1,0,0:0:0:0:
64,192,53211,1,0,0:0:0:0:
192,192,53211,1,0,0:0:0:0:
64,192,53380,1,0,0:0:0:0:
192,192,53380,1,0,0:0:0:0:
320,192,53380,1,0,0:0:0:0:
448,192,53380,1,0,0:0:0:0:
320,192,53548,1,0,0:0:0:0:
448,192,53548,1,0,0:0:0:0:
64,192,53548,1,0,0:0:0:0:
192,192,53548,1,0,0:0:0:0:
64,192,53717,1,0,0:0:0:0:
192,192,53717,1,0,0:0:0:0:
320,192,53717,1,0,0:0:0:0:
448,192,53717,1,0,0:0:0:0:
320,192,53886,1,0,0:0:0:0:
448,192,53886,1,0,0:0:0:0:
64,192,53886,1,0,0:0:0:0:
192,192,53886,1,0,0:0:0:0:
320,192,54054,1,0,0:0:0:0:
448,192,54054,1,0,0:0:0:0:
64,192,54054,1,0,0:0:0:0:
192,192,54054,1,0,0:0:0:0:
320,192,54223,1,0,0:0:0:0:
448,192,54223,1,0,0:0:0:0:
64,192,54223,1,0,0:0:0:0:
192,192,54223,1,0,0:0:0:0:
320,192,54391,1,0,0:0:0:0:
448,192,54391,1,0,0:0:0:0:
64,192,54391,1,0,0:0:0:0:
192,192,54391,1,0,0:0:0:0:
320,192,54560,1,0,0:0:0:0:
448,192,54560,1,0,0:0:0:0:
64,192,54560,1,0,0:0:0:0:
192,192,54560,1,0,0:0:0:0:
320,192,54728,1,0,0:0:0:0:
448,192,54728,1,0,0:0:0:0:
64,192,54728,1,0,0:0:0:0:
192,192,54728,1,0,0:0:0:0:
320,192,54897,1,0,0:0:0:0:
448,192,54897,1,0,0:0:0:0:
64,192,54897,1,0,0:0:0:0:
192,192,54897,1,0,0:0:0:0:
64,192,55065,1,0,0:0:0:0:
192,192,55065,1,0,0:0:0:0:
320,192,55065,1,0,0:0:0:0:
448,192,55065,1,0,0:0:0:0:
320,192,55234,1,0,0:0:0:0:
448,192,55234,1,0,0:0:0:0:
64,192,55234,1,0,0:0:0:0:
192,192,55234,1,0,0:0:0:0:
64,192,55402,1,0,0:0:0:0:
192,192,55402,1,0,0:0:0:0:
320,192,55402,1,0,0:0:0:0:
448,192,55402,1,0,0:0:0:0:
320,192,55571,1,0,0:0:0:0:
448,192,55571,1,0,0:0:0:0:
64,192,55571,1,0,0:0:0:0:
192,192,55571,1,0,0:0:0:0:
64,192,55739,1,0,0:0:0:0:
192,192,55739,1,0,0:0:0:0:
320,192,55739,1,0,0:0:0:0:
448,192,55739,1,0,0:0:0:0:
320,192,55908,1,0,0:0:0:0:
448,192,55908,1,0,0:0:0:0:
64,192,55908,1,0,0:0:0:0:
192,192,55908,1,0,0:0:0:0:
320,192,56077,1,0,0:0:0:0:
448,192,56077,1,0,0:0:0:0:
64,192,56077,1,0,0:0:0:0:
192,192,56077,1,0,0:0:0:0:
320,192,56245,1,0,0:0:0:0:
448,192,56245,1,0,0:0:0:0:
64,192,56245,1,0,0:0:0:0:
192,192,56245,1,0,0:0:0:0:
320,192,56414,1,0,0:0:0:0:
448,192,56414,1,0,0:0:0:0:
64,192,56414,1,0,0:0:0:0:
192,192,56414,1,0,0:0:0:0:
320,192,56582,1,0,0:0:0:0:
448,192,56582,1,0,0:0:0:0:
64,192,56582,1,0,0:0:0:0:
192,192,56582,1,0,0:0:0:0:
320,192,56751,1,0,0:0:0:0:
448,192,56751,1,0,0:0:0:0:
64,192,56751,1,0,0:0:0:0:
192,192,56751,1,0,0:0:0:0:
320,192,56919,1,0,0:0:0:0:
448,192,56919,1,0,0:0:0:0:
64,192,56919,1,0,0:0:0:0:
192,192,56919,1,0,0:0:0:0:
64,192,57088,1,0,0:0:0:0:
192,192,57088,1,0,0:0:0:0:
320,192,57088,1,0,0:0:0:0:
448,192,57088,1,0,0:0:0:0:
320,192,57256,1,0,0:0:0:0:
448,192,57256,1,0,0:0:0:0:
64,192,57256,1,0,0:0:0:0:
192,192,57256,1,0,0:0:0:0:
64,192,57425,1,0,0:0:0:0:
192,192,57425,1,0,0:0:0:0:
320,192,57425,1,0,0:0:0:0:
448,192,57425,1,0,0:0:0:0:
320,192,57593,1,0,0:0:0:0:
448,192,57593,1,0,0:0:0:0:
64,192,57593,1,0,0:0:0:0:
192,192,57593,1,0,0:0:0:0:
64,192,57762,1,0,0:0:0:0:
192,192,57762,1,0,0:0:0:0:
320,192,57762,1,0,0:0:0:0:
448,192,57762,1,0,0:0:0:0:
320,192,57930,1,0,0:0:0:0:
448,192,57930,1,0,0:0:0:0:
64,192,57930,1,0,0:0:0:0:
192,192,57930,1,0,0:0:0:0:
320,192,58099,1,0,0:0:0:0:
448,192,58099,1,0,0:0:0:0:
64,192,58099,1,0,0:0:0:0:
192,192,58099,1,0,0:0:0:0:
320,192,58268,1,0,0:0:0:0:
448,192,58268,1,0,0:0:0:0:
64,192,58268,1,0,0:0:0:0:
192,192,58268,1,0,0:0:0:0:
320,192,58436,1,0,0:0:0:0:
448,192,58436,1,0,0:0:0:0:
64,192,58436,1,0,0:0:0:0:
192,192,58436,1,0,0:0:0:0:
320,192,58605,1,0,0:0:0:0:
448,192,58605,1,0,0:0:0:0:
64,192,58605,1,0,0:0:0:0:
192,192,58605,1,0,0:0:0:0:
320,192,58773,1,0,0:0:0:0:
448,192,58773,1,0,0:0:0:0:
64,192,58773,1,0,0:0:0:0:
192,192,58773,1,0,0:0:0:0:
64,192,58942,1,0,0:0:0:0:
192,192,58942,1,0,0:0:0:0:
320,192,58942,1,0,0:0:0:0:
448,192,58942,1,0,0:0:0:0:
64,192,59110,1,0,0:0:0:0:
192,192,59110,1,0,0:0:0:0:
320,192,59110,1,0,0:0:0:0:
448,192,59110,1,0,0:0:0:0:
64,192,59279,1,0,0:0:0:0:
192,192,59279,1,0,0:0:0:0:
320,192,59279,1,0,0:0:0:0:
448,192,59279,1,0,0:0:0:0:
64,192,59447,1,0,0:0:0:0:
192,192,59447,1,0,0:0:0:0:
320,192,59447,1,0,0:0:0:0:
448,192,59447,1,0,0:0:0:0:
64,192,59616,1,0,0:0:0:0:
192,192,59616,1,0,0:0:0:0:
320,192,59616,1,0,0:0:0:0:
448,192,59616,1,0,0:0:0:0:
64,192,59784,1,0,0:0:0:0:
192,192,59784,1,0,0:0:0:0:
320,192,59784,1,0,0:0:0:0:
448,192,59784,1,0,0:0:0:0:
64,192,59953,1,0,0:0:0:0:
192,192,59953,1,0,0:0:0:0:
320,192,59953,1,0,0:0:0:0:
448,192,59953,1,0,0:0:0:0:
64,192,60121,1,0,0:0:0:0:
192,192,60121,1,0,0:0:0:0:
320,192,60121,1,0,0:0:0:0:
448,192,60121,1,0,0:0:0:0:
64,192,60290,1,0,0:0:0:0:
192,192,60290,1,0,0:0:0:0:
320,192,60290,1,0,0:0:0:0:
448,192,60290,1,0,0:0:0:0:
64,192,60459,1,0,0:0:0:0:
192,192,60459,1,0,0:0:0:0:
320,192,60459,1,0,0:0:0:0:
448,192,60459,1,0,0:0:0:0:
64,192,60627,1,0,0:0:0:0:
192,192,60627,1,0,0:0:0:0:
320,192,60627,1,0,0:0:0:0:
448,192,60627,1,0,0:0:0:0:
64,192,60796,1,0,0:0:0:0:
192,192,60796,1,0,0:0:0:0:
320,192,60796,1,0,0:0:0:0:
448,192,60796,1,0,0:0:0:0:
64,192,60964,1,0,0:0:0:0:
192,192,60964,1,0,0:0:0:0:
320,192,60964,1,0,0:0:0:0:
448,192,60964,1,0,0:0:0:0:
64,192,61133,1,0,0:0:0:0:
192,192,61133,1,0,0:0:0:0:
320,192,61133,1,0,0:0:0:0:
448,192,61133,1,0,0:0:0:0:
64,192,61301,1,0,0:0:0:0:
192,192,61301,1,0,0:0:0:0:
320,192,61301,1,0,0:0:0:0:
448,192,61301,1,0,0:0:0:0:
320,192,61470,1,0,0:0:0:0:
448,192,61470,1,0,0:0:0:0:
64,192,61470,1,0,0:0:0:0:
192,192,61470,1,0,0:0:0:0:
64,192,61638,1,0,0:0:0:0:
192,192,61638,1,0,0:0:0:0:
320,192,61638,1,0,0:0:0:0:
448,192,61638,1,0,0:0:0:0:
320,192,61807,1,0,0:0:0:0:
448,192,61807,1,0,0:0:0:0:
64,192,61807,1,0,0:0:0:0:
192,192,61807,1,0,0:0:0:0:
64,192,61975,1,0,0:0:0:0:
192,192,61975,1,0,0:0:0:0:
320,192,61975,1,0,0:0:0:0:
448,192,61975,1,0,0:0:0:0:
320,192,62144,1,0,0:0:0:0:
448,192,62144,1,0,0:0:0:0:
64,192,62144,1,0,0:0:0:0:
192,192,62144,1,0,0:0:0:0:
64,192,62312,1,0,0:0:0:0:
192,192,62312,1,0,0:0:0:0:
320,192,62312,1,0,0:0:0:0:
448,192,62312,1,0,0:0:0:0:
64,192,62481,1,0,0:0:0:0:
192,192,62481,1,0,0:0:0:0:
320,192,62481,1,0,0:0:0:0:
448,192,62481,1,0,0:0:0:0:
64,192,62650,1,0,0:0:0:0:
192,192,62650,1,0,0:0:0:0:
320,192,62650,1,0,0:0:0:0:
448,192,62650,1,0,0:0:0:0:
64,192,62818,1,0,0:0:0:0:
192,192,62818,1,0,0:0:0:0:
320,192,62818,1,0,0:0:0:0:
448,192,62818,1,0,0:0:0:0:
64,192,62987,1,0,0:0:0:0:
192,192,62987,1,0,0:0:0:0:
320,192,62987,1,0,0:0:0:0:
448,192,62987,1,0,0:0:0:0:
64,192,63155,1,0,0:0:0:0:
192,192,63155,1,0,0:0:0:0:
320,192,63155,1,0,0:0:0:0:
448,192,63155,1,0,0:0:0:0:
64,192,63324,1,0,0:0:0:0:
192,192,63324,1,0,0:0:0:0:
320,192,63324,1,0,0:0:0:0:
448,192,63324,1,0,0:0:0:0:
320,192,63492,1,0,0:0:0:0:
448,192,63492,1,0,0:0:0:0:
64,192,63492,1,0,0:0:0:0:
192,192,63492,1,0,0:0:0:0:
64,192,63661,1,0,0:0:0:0:
192,192,63661,1,0,0:0:0:0:
320,192,63661,1,0,0:0:0:0:
448,192,63661,1,0,0:0:0:0:
320,192,63829,1,0,0:0:0:0:
448,192,63829,1,0,0:0:0:0:
64,192,63829,1,0,0:0:0:0:
192,192,63829,1,0,0:0:0:0:
64,192,63998,1,0,0:0:0:0:
192,192,63998,1,0,0:0:0:0:
320,192,63998,1,0,0:0:0:0:
448,192,63998,1,0,0:0:0:0:
320,192,64166,1,0,0:0:0:0:
448,192,64166,1,0,0:0:0:0:
64,192,64166,1,0,0:0:0:0:
192,192,64166,1,0,0:0:0:0:
64,192,64335,1,0,0:0:0:0:
192,192,64335,1,0,0:0:0:0:
320,192,64335,1,0,0:0:0:0:
448,192,64335,1,0,0:0:0:0:
64,192,64503,1,0,0:0:0:0:
192,192,64503,1,0,0:0:0:0:
320,192,64503,1,0,0:0:0:0:
448,192,64503,1,0,0:0:0:0:
64,192,64672,1,0,0:0:0:0:
192,192,64672,1,0,0:0:0:0:
320,192,64672,1,0,0:0:0:0:
448,192,64672,1,0,0:0:0:0:
64,192,64841,1,0,0:0:0:0:
192,192,64841,1,0,0:0:0:0:
320,192,64841,1,0,0:0:0:0:
448,192,64841,1,0,0:0:0:0:
64,192,65009,1,0,0:0:0:0:
192,192,65009,1,0,0:0:0:0:
320,192,65009,1,0,0:0:0:0:
448,192,65009,1,0,0:0:0:0:
64,192,65178,1,0,0:0:0:0:
192,192,65178,1,0,0:0:0:0:
320,192,65178,1,0,0:0:0:0:
448,192,65178,1,0,0:0:0:0:
64,192,65346,1,0,0:0:0:0:
192,192,65346,1,0,0:0:0:0:
320,192,65346,1,0,0:0:0:0:
448,192,65346,1,0,0:0:0:0:
320,192,65515,1,0,0:0:0:0:
448,192,65515,1,0,0:0:0:0:
64,192,65515,1,0,0:0:0:0:
192,192,65515,1,0,0:0:0:0:
64,192,65683,1,0,0:0:0:0:
192,192,65683,1,0,0:0:0:0:
320,192,65683,1,0,0:0:0:0:
448,192,65683,1,0,0:0:0:0:
320,192,65852,1,0,0:0:0:0:
448,192,65852,1,0,0:0:0:0:
64,192,65852,1,0,0:0:0:0:
192,192,65852,1,0,0:0:0:0:
64,192,66020,1,0,0:0:0:0:
192,192,66020,1,0,0:0:0:0:
320,192,66020,1,0,0:0:0:0:
448,192,66020,1,0,0:0:0:0:
320,192,66189,1,0,0:0:0:0:
448,192,66189,1,0,0:0:0:0:
64,192,66189,1,0,0:0:0:0:
192,192,66189,1,0,0:0:0:0:
64,192,66357,1,0,0:0:0:0:
192,192,66357,1,0,0:0:0:0:
320,192,66357,1,0,0:0:0:0:
448,192,66357,1,0,0:0:0:0:
64,192,66526,1,0,0:0:0:0:
192,192,66526,1,0,0:0:0:0:
320,192,66526,1,0,0:0:0:0:
448,192,66526,1,0,0:0:0:0:
64,192,66695,1,0,0:0:0:0:
192,192,66695,1,0,0:0:0:0:
320,192,66695,1,0,0:0:0:0:
448,192,66695,1,0,0:0:0:0:
64,192,66863,1,0,0:0:0:0:
192,192,66863,1,0,0:0:0:0:
320,192,66863,1,0,0:0:0:0:
448,192,66863,1,0,0:0:0:0:
64,192,67032,1,0,0:0:0:0:
192,192,67032,1,0,0:0:0:0:
320,192,67032,1,0,0:0:0:0:
448,192,67032,1,0,0:0:0:0:
64,192,67200,1,0,0:0:0:0:
192,192,67200,1,0,0:0:0:0:
320,192,67200,1,0,0:0:0:0:
448,192,67200,1,0,0:0:0:0:
320,192,67369,1,0,0:0:0:0:
448,192,67369,1,0,0:0:0:0:
64,192,67369,1,0,0:0:0:0:
192,192,67369,1,0,0:0:0:0:
320,192,67537,1,0,0:0:0:0:
448,192,67537,1,0,0:0:0:0:
64,192,67537,1,0,0:0:0:0:
192,192,67537,1,0,0:0:0:0:
320,192,67706,1,0,0:0:0:0:
448,192,67706,1,0,0:0:0:0:
64,192,67706,1,0,0:0:0:0:
192,192,67706,1,0,0:0:0:0:
320,192,67874,1,0,0:0:0:0:
448,192,67874,1,0,0:0:0:0:
64,192,67874,1,0,0:0:0:0:
192,192,67874,1,0,0:0:0:0:
320,192,68043,1,0,0:0:0:0:
448,192,68043,1,0,0:0:0:0:
64,192,68043,1,0,0:0:0:0:
192,192,68043,1,0,0:0:0:0:
320,192,68211,1,0,0:0:0:0:
448,192,68211,1,0,0:0:0:0:
64,192,68211,1,0,0:0:0:0:
192,192,68211,1,0,0:0:0:0:
320,192,68380,1,0,0:0:0:0:
448,192,68380,1,0,0:0:0:0:
64,192,68380,1,0,0:0:0:0:
192,192,68380,1,0,0:0:0:0:
320,192,68548,1,0,0:0:0:0:
448,192,68548,1,0,0:0:0:0:
64,192,68548,1,0,0:0:0:0:
192,192,68548,1,0,0:0:0:0:
320,192,68717,1,0,0:0:0:0:
448,192,68717,1,0,0:0:0:0:
64,192,68717,1,0,0:0:0:0:
192,192,68717,1,0,0:0:0:0:
320,192,68886,1,0,0:0:0:0:
448,192,68886,1,0,0:0:0:0:
64,192,68886,1,0,0:0:0:0:
192,192,68886,1,0,0:0:0:0:
320,192,69054,1,0,0:0:0:0:
448,192,69054,1,0,0:0:0:0:
64,192,69054,1,0,0:0:0:0:
192,192,69054,1,0,0:0:0:0:
320,192,69223,1,0,0:0:0:0:
448,192,69223,1,0,0:0:0:0:
64,192,69223,1,0,0:0:0:0:
192,192,69223,1,0,0:0:0:0:
320,192,69391,1,0,0:0:0:0:
448,192,69391,1,0,0:0:0:0:
64,192,69391,1,0,0:0:0:0:
192,192,69391,1,0,0:0:0:0:
320,192,69560,1,0,0:0:0:0:
448,192,69560,1,0,0:0:0:0:
64,192,69560,1,0,0:0:0:0:
192,192,69560,1,0,0:0:0:0:
320,192,69728,1,0,0:0:0:0:
448,192,69728,1,0,0:0:0:0:
64,192,69728,1,0,0:0:0:0:
192,192,69728,1,0,0:0:0:0:
64,192,69897,1,0,0:0:0:0:
192,192,69897,1,0,0:0:0:0:
320,192,69897,1,0,0:0:0:0:
448,192,69897,1,0,0:0:0:0:
320,192,70065,1,0,0:0:0:0:
448,192,70065,1,0,0:0:0:0:
64,192,70065,1,0,0:0:0:0:
192,192,70065,1,0,0:0:0:0:
64,192,70234,1,0,0:0:0:0:
192,192,70234,1,0,0:0:0:0:
320,192,70234,1,0,0:0:0:0:
448,192,70234,1,0,0:0:0:0:
320,192,70402,1,0,0:0:0:0:
448,192,70402,1,0,0:0:0:0:
64,192,70402,1,0,0:0:0:0:
192,192,70402,1,0,0:0:0:0:
64,192,70571,1,0,0:0:0:0:
192,192,70571,1,0,0:0:0:0:
320,192,70571,1,0,0:0:0:0:
448,192,70571,1,0,0:0:0:0:
320,192,70739,1,0,0:0:0:0:
448,192,70739,1,0,0:0:0:0:
64,192,70739,1,0,0:0:0:0:
192,192,70739,1,0,0:0:0:0:
320,192,70908,1,0,0:0:0:0:
448,192,70908,1,0,0:0:0:0:
64,192,70908,1,0,0:0:0:0:
192,192,70908,1,0,0:0:0:0:
320,192,71077,1,0,0:0:0:0:
448,192,71077,1,0,0:0:0:0:
64,192,71077,1,0,0:0:0:0:
192,192,71077,1,0,0:0:0:0:
320,192,71245,1,0,0:0:0:0:
448,192,71245,1,0,0:0:0:0:
64,192,71245,1,0,0:0:0:0:
192,192,71245,1,0,0:0:0:0:
320,192,71414,1,0,0:0:0:0:
448,192,71414,1,0,0:0:0:0:
64,192,71414,1,0,0:0:0:0:
192,192,71414,1,0,0:0:0:0:
320,192,71582,1,0,0:0:0:0:
448,192,71582,1,0,0:0:0:0:
64,192,71582,1,0,0:0:0:0:
192,192,71582,1,0,0:0:0:0:
320,192,71751,1,0,0:0:0:0:
448,192,71751,1,0,0:0:0:0:
64,192,71751,1,0,0:0:0:0:
192,192,71751,1,0,0:0:0:0:
64,192,71919,1,0,0:0:0:0:
192,192,71919,1,0,0:0:0:0:
320,192,71919,1,0,0:0:0:0:
448,192,71919,1,0,0:0:0:0:
320,192,72088,1,0,0:0:0:0:
448,192,72088,1,0,0:0:0:0:
64,192,72088,1,0,0:0:0:0:
192,192,72088,1,0,0:0:0:0:
64,192,72256,1,0,0:0:0:0:
192,192,72256,1,0,0:0:0:0:
320,192,72256,1,0,0:0:0:0:
448,192,72256,1,0,0:0:0:0:
320,192,72425,1,0,0:0:0:0:
448,192,72425,1,0,0:0:0:0:
64,192,72425,1,0,0:0:0:0:
192,192,72425,1,0,0:0:0:0:
64,192,72593,1,0,0:0:0:0:
192,192,72593,1,0,0:0:0:0:
320,192,72593,1,0,0:0:0:0:
448,192,72593,1,0,0:0:0:0:
320,192,72762,1,0,0:0:0:0:
448,192,72762,1,0,0:0:0:0:
64,192,72762,1,0,0:0:0:0:
192,192,72762,1,0,0:0:0:0:
320,192,72930,1,0,0:0:0:0:
448,192,72930,1,0,0:0:0:0:
64,192,72930,1,0,0:0:0:0:
192,192,72930,1,0,0:0:0:0:
320,192,73099,1,0,0:0:0:0:
448,192,73099,1,0,0:0:0:0:
64,192,73099,1,0,0:0:0:0:
192,192,73099,1,0,0:0:0:0:
320,192,73268,1,0,0:0:0:0:
448,192,73268,1,0,0:0:0:0:
64,192,73268,1,0,0:0:0:0:
192,192,73268,1,0,0:0:0:0:
320,192,73436,1,0,0:0:0:0:
448,192,73436,1,0,0:0:0:0:
64,192,73436,1,0,0:0:0:0:
192,192,73436,1,0,0:0:0:0:
320,192,73605,1,0,0:0:0:0:
448,192,73605,1,0,0:0:0:0:
64,192,73605,1,0,0:0:0:0:
192,192,73605,1,0,0:0:0:0:
320,192,73773,1,0,0:0:0:0:
448,192,73773,1,0,0:0:0:0:
64,192,73773,1,0,0:0:0:0:
192,192,73773,1,0,0:0:0:0:
64,192,73942,1,0,0:0:0:0:
192,192,73942,1,0,0:0:0:0:
320,192,73942,1,0,0:0:0:0:
448,192,73942,1,0,0:0:0:0:
320,192,74110,1,0,0:0:0:0:
448,192,74110,1,0,0:0:0:0:
64,192,74110,1,0,0:0:0:0:
192,192,74110,1,0,0:0:0:0:
64,192,74279,1,0,0:0:0:0:
192,192,74279,1,0,0:0:0:0:
320,192,74279,1,0,0:0:0:0:
448,192,74279,1,0,0:0:0:0:
320,192,74447,1,0,0:0:0:0:
448,192,74447,1,0,0:0:0:0:
64,192,74447,1,0,0:0:0:0:
192,192,74447,1,0,0:0:0:0:
64,192,74616,1,0,0:0:0:0:
192,192,74616,1,0,0:0:0:0:
320,192,74616,1,0,0:0:0:0:
448,192,74616,1,0,0:0:0:0:
320,192,74784,1,0,0:0:0:0:
448,192,74784,1,0,0:0:0:0:
64,192,74784,1,0,0:0:0:0:
192,192,74784,1,0,0:0:0:0:
320,192,74953,1,0,0:0:0:0:
448,192,74953,1,0,0:0:0:0:
64,192,74953,1,0,0:0:0:0:
192,192,74953,1,0,0:0:0:0:
320,192,75121,1,0,0:0:0:0:
448,192,75121,1,0,0:0:0:0:
64,192,75121,1,0,0:0:0:0:
192,192,75121,1,0,0:0:0:0:
320,192,75290,1,0,0:0:0:0:
448,192,75290,1,0,0:0:0:0:
64,192,75290,1,0,0:0:0:0:
192,192,75290,1,0,0:0:0:0:
320,192,75459,1,0,0:0:0:0:
448,192,75459,1,0,0:0:0:0:
64,192,75459,1,0,0:0:0:0:
192,192,75459,1,0,0:0:0:0:
320,192,75627,1,0,0:0:0:0:
448,192,75627,1,0,0:0:0:0:
64,192,75627,1,0,0:0:0:0:
192,192,75627,1,0,0:0:0:0:
64,192,75796,1,0,0:0:0:0:
192,192,75796,1,0,0:0:0:0:
320,192,75796,1,0,0:0:0:0:
448,192,75796,1,0,0:0:0:0:
64,192,75964,1,0,0:0:0:0:
192,192,75964,1,0,0:0:0:0:
320,192,75964,1,0,0:0:0:0:
448,192,75964,1,0,0:0:0:0:
64,192,76133,1,0,0:0:0:0:
192,192,76133,1,0,0:0:0:0:
320,192,76133,1,0,0:0:0:0:
448,192,76133,1,0,0:0:0:0:
64,192,76301,1,0,0:0:0:0:
192,192,76301,1,0,0:0:0:0:
320,192,76301,1,0,0:0:0:0:
448,192,76301,1,0,0:0:0:0:
64,192,76470,1,0,0:0:0:0:
192,192,76470,1,0,0:0:0:0:
320,192,76470,1,0,0:0:0:0:
448,192,76470,1,0,0:0:0:0:
64,192,76638,1,0,0:0:0:0:
192,192,76638,1,0,0:0:0:0:
320,192,76638,1,0,0:0:0:0:
448,192,76638,1,0,0:0:0:0:
64,192,76807,1,0,0:0:0:0:
192,192,76807,1,0,0:0:0:0:
320,192,76807,1,0,0:0:0:0:
448,192,76807,1,0,0:0:0:0:
64,192,76975,1,0,0:0:0:0:
192,192,76975,1,0,0:0:0:0:
320,192,76975,1,0,0:0:0:0:
448,192,76975,1,0,0:0:0:0:
64,192,77144,1,0,0:0:0:0:
192,192,77144,1,0,0:0:0:0:
320,192,77144,1,0,0:0:0:0:
448,192,77144,1,0,0:0:0:0:
64,192,77312,1,0,0:0:0:0:
192,192,77312,1,0,0:0:0:0:
320,192,77312,1,0,0:0:0:0:
448,192,77312,1,0,0:0:0:0:
64,192,77481,1,0,0:0:0:0:
192,192,77481,1,0,0:0:0:0:
320,192,77481,1,0,0:0:0:0:
448,192,77481,1,0,0:0:0:0:
64,192,77650,1,0,0:0:0:0:
192,192,77650,1,0,0:0:0:0:
320,192,77650,1,0,0:0:0:0:
448,192,77650,1,0,0:0:0:0:
64,192,77818,1,0,0:0:0:0:
192,192,77818,1,0,0:0:0:0:
320,192,77818,1,0,0:0:0:0:
448,192,77818,1,0,0:0:0:0:
64,192,77987,1,0,0:0:0:0:
192,192,77987,1,0,0:0:0:0:
320,192,77987,1,0,0:0:0:0:
448,192,77987,1,0,0:0:0:0:
64,192,78155,1,0,0:0:0:0:
192,192,78155,1,0,0:0:0:0:
320,192,78155,1,0,0:0:0:0:
448,192,78155,1,0,0:0:0:0:
320,192,78324,1,0,0:0:0:0:
448,192,78324,1,0,0:0:0:0:
64,192,78324,1,0,0:0:0:0:
192,192,78324,1,0,0:0:0:0:
64,192,78492,1,0,0:0:0:0:
192,192,78492,1,0,0:0:0:0:
320,192,78492,1,0,0:0:0:0:
448,192,78492,1,0,0:0:0:0:
320,192,78661,1,0,0:0:0:0:
448,192,78661,1,0,0:0:0:0:
64,192,78661,1,0,0:0:0:0:
192,192,78661,1,0,0:0:0:0:
64,192,78829,1,0,0:0:0:0:
192,192,78829,1,0,0:0:0:0:
320,192,78829,1,0,0:0:0:0:
448,192,78829,1,0,0:0:0:0:
320,192,78998,1,0,0:0:0:0:
448,192,78998,1,0,0:0:0:0:
64,192,78998,1,0,0:0:0:0:
192,192,78998,1,0,0:0:0:0:
64,192,79166,1,0,0:0:0:0:
192,192,79166,1,0,0:0:0:0:
320,192,79166,1,0,0:0:0:0:
448,192,79166,1,0,0:0:0:0:
64,192,79335,1,0,0:0:0:0:
192,192,79335,1,0,0:0:0:0:
320,192,79335,1,0,0:0:0:0:
448,192,79335,1,0,0:0:0:0:
64,192,79504,1,0,0:0:0:0:
192,192,79504,1,0,0:0:0:0:
320,192,79504,1,0,0:0:0:0:
448,192,79504,1,0,0:0:0:0:
64,192,79672,1,0,0:0:0:0:
192,192,79672,1,0,0:0:0:0:
320,192,79672,1,0,0:0:0:0:
448,192,79672,1,0,0:0:0:0:
64,192,79841,1,0,0:0:0:0:
192,192,79841,1,0,0:0:0:0:
320,192,79841,1,0,0:0:0:0:
448,192,79841,1,0,0:0:0:0:
64,192,80009,1,0,0:0:0:0:
192,192,80009,1,0,0:0:0:0:
320,192,80009,1,0,0:0:0:0:
448,192,80009,1,0,0:0:0:0:
64,192,80178,1,0,0:0:0:0:
192,192,80178,1,0,0:0:0:0:
320,192,80178,1,0,0:0:0:0:
448,192,80178,1,0,0:0:0:0:
320,192,80346,1,0,0:0:0:0:
448,192,80346,1,0,0:0:0:0:
64,192,80346,1,0,0:0:0:0:
192,192,80346,1,0,0:0:0:0:
64,192,80515,1,0,0:0:0:0:
192,192,80515,1,0,0:0:0:0:
320,192,80515,1,0,0:0:0:0:
448,192,80515,1,0,0:0:0:0:
320,192,80683,1,0,0:0:0:0:
448,192,80683,1,0,0:0:0:0:
64,192,80683,1,0,0:0:0:0:
192,192,80683,1,0,0:0:0:0:
64,192,80852,1,0,0:0:0:0:
192,192,80852,1,0,0:0:0:0:
320,192,80852,1,0,0:0:0:0:
448,192,80852,1,0,0:0:0:0:
320,192,81020,1,0,0:0:0:0:
448,192,81020,1,0,0:0:0:0:
64,192,81020,1,0,0:0:0:0:
192,192,81020,1,0,0:0:0:0:
64,192,81189,1,0,0:0:0:0:
192,192,81189,1,0,0:0:0:0:
320,192,81189,1,0,0:0:0:0:
448,192,81189,1,0,0:0:0:0:
64,192,81357,1,0,0:0:0:0:
192,192,81357,1,0,0:0:0:0:
320,192,81357,1,0,0:0:0:0:
448,192,81357,1,0,0:0:0:0:
64,192,81526,1,0,0:0:0:0:
192,192,81526,1,0,0:0:0:0:
320,192,81526,1,0,0:0:0:0:
448,192,81526,1,0,0:0:0:0:
64,192,81695,1,0,0:0:0:0:
192,192,81695,1,0,0:0:0:0:
320,192,81695,1,0,0:0:0:0:
448,192,81695,1,0,0:0:0:0:
64,192,81863,1,0,0:0:0:0:
192,192,81863,1,0,0:0:0:0:
320,192,81863,1,0,0:0:0:0:
448,192,81863,1,0,0:0:0:0:
64,192,82032,1,0,0:0:0:0:
192,192,82032,1,0,0:0:0:0:
320,192,82032,1,0,0:0:0:0:
448,192,82032,1,0,0:0:0:0:
64,192,82200,1,0,0:0:0:0:
192,192,82200,1,0,0:0:0:0:
320,192,82200,1,0,0:0:0:0:
448,192,82200,1,0,0:0:0:0:
320,192,82369,1,0,0:0:0:0:
448,192,82369,1,0,0:0:0:0:
64,192,82369,1,0,0:0:0:0:
192,192,82369,1,0,0:0:0:0:
64,192,82537,1,0,0:0:0:0:
192,192,82537,1,0,0:0:0:0:
320,192,82537,1,0,0:0:0:0:
448,192,82537,1,0,0:0:0:0:
320,192,82706,1,0,0:0:0:0:
448,192,82706,1,0,0:0:0:0:
64,192,82706,1,0,0:0:0:0:
192,192,82706,1,0,0:0:0:0:
64,192,82874,1,0,0:0:0:0:
192,192,82874,1,0,0:0:0:0:
320,192,82874,1,0,0:0:0:0:
448,192,82874,1,0,0:0:0:0:
320,192,83043,1,0,0:0:0:0:
448,192,83043,1,0,0:0:0:0:
64,192,83043,1,0,0:0:0:0:
192,192,83043,1,0,0:0:0:0:
64,192,83211,1,0,0:0:0:0:
192,192,83211,1,0,0:0:0:0:
320,192,83211,1,0,0:0:0:0:
448,192,83211,1,0,0:0:0:0:
64,192,83380,1,0,0:0:0:0:
192,192,83380,1,0,0:0:0:0:
320,192,83380,1,0,0:0:0:0:
448,192,83380,1,0,0:0:0:0:
64,192,83548,1,0,0:0:0:0:
192,192,83548,1,0,0:0:0:0:
320,192,83548,1,0,0:0:0:0:
448,192,83548,1,0,0:0:0:0:
64,192,83717,1,0,0:0:0:0:
192,192,83717,1,0,0:0:0:0:
320,192,83717,1,0,0:0:0:0:
448,192,83717,1,0,0:0:0:0:
64,192,83886,1,0,0:0:0:0:
192,192,83886,1,0,0:0:0:0:
320,192,83886,1,0,0:0:0:0:
448,192,83886,1,0,0:0:0:0:
64,192,84054,1,0,0:0:0:0:
192,192,84054,1,0,0:0:0:0:
320,192,84054,1,0,0:0:0:0:
448,192,84054,1,0,0:0:0:0:
320,192,84223,1,0,0:0:0:0:
448,192,84223,1,0,0:0:0:0:
64,192,84223,1,0,0:0:0:0:
192,192,84223,1,0,0:0:0:0:
320,192,84391,1,0,0:0:0:0:
448,192,84391,1,0,0:0:0:0:
64,192,84391,1,0,0:0:0:0:
192,192,84391,1,0,0:0:0:0:
320,192,84560,1,0,0:0:0:0:
448,192,84560,1,0,0:0:0:0:
64,192,84560,1,0,0:0:0:0:
192,192,84560,1,0,0:0:0:0:
320,192,84728,1,0,0:0:0:0:
448,192,84728,1,0,0:0:0:0:
64,192,84728,1,0,0:0:0:0:
192,192,84728,1,0,0:0:0:0:
320,192,84897,1,0,0:0:0:0:
448,192,84897,1,0,0:0:0:0:
64,192,84897,1,0,0:0:0:0:
192,192,84897,1,0,0:0:0:0:
320,192,85065,1,0,0:0:0:0:
448,192,85065,1,0,0:0:0:0:
64,192,85065,1,0,0:0:0:0:
192,192,85065,1,0,0:0:0:0:
320,192,85234,1,0,0:0:0:0:
448,192,85234,1,0,0:0:0:0:
64,192,85234,1,0,0:0:0:0:
192,192,85234,1,0,0:0:0:0:
320,192,85402,1,0,0:0:0:0:
448,192,85402,1,0,0:0:0:0:
64,192,85402,1,0,0:0:0:0:
192,192,85402,1,0,0:0:0:0:
320,192,85571,1,0,0:0:0:0:
448,192,85571,1,0,0:0:0:0:
64,192,85571,1,0,0:0:0:0:
192,192,85571,1,0,0:0:0:0:
320,192,85739,1,0,0:0:0:0:
448,192,85739,1,0,0:0:0:0:
64,192,85739,1,0,0:0:0:0:
192,192,85739,1,0,0:0:0:0:
320,192,85908,1,0,0:0:0:0:
448,192,85908,1,0,0:0:0:0:
64,192,85908,1,0,0:0:0:0:
192,192,85908,1,0,0:0:0:0:
320,192,86077,1,0,0:0:0:0:
448,192,86077,1,0,0:0:0:0:
64,192,86077,1,0,0:0:0:0:
192,192,86077,1,0,0:0:0:0:
320,192,86245,1,0,0:0:0:0:
448,192,86245,1,0,0:0:0:0:
64,192,86245,1,0,0:0:0:0:
192,192,86245,1,0,0:0:0:0:
320,192,86414,1,0,0:0:0:0:
448,192,86414,1,0,0:0:0:0:
64,192,86414,1,0,0:0:0:0:
192,192,86414,1,0,0:0:0:0:
320,192,86582,1,0,0:0:0:0:
448,192,86582,1,0,0:0:0:0:
64,192,86582,1,0,0:0:0:0:
192,192,86582,1,0,0:0:0:0:
64,192,86751,1,0,0:0:0:0:
192,192,86751,1,0,0:0:0:0:
320,192,86751,1,0,0:0:0:0:
448,192,86751,1,0,0:0:0:0:
320,192,86919,1,0,0:0:0:0:
448,192,86919,1,0,0:0:0:0:
64,192,86919,1,0,0:0:0:0:
192,192,86919,1,0,0:0:0:0:
64,192,87088,1,0,0:0:0:0:
192,192,87088,1,0,0:0:0:0:
320,192,87088,1,0,0:0:0:0:
448,192,87088,1,0,0:0:0:0:
320,192,87256,1,0,0:0:0:0:
448,192,87256,1,0,0:0:0:0:
64,192,87256,1,0,0:0:0:0:
192,192,87256,1,0,0:0:0:0:
64,192,87425,1,0,0:0:0:0:
192,192,87425,1,0,0:0:0:0:
320,192,87425,1,0,0:0:0:0:
448,192,87425,1,0,0:0:0:0:
320,192,87593,1,0,0:0:0:0:
448,192,87593,1,0,0:0:0:0:
64,192,87593,1,0,0:0:0:0:
192,192,87593,1,0,0:0:0:0:
320,192,87762,1,0,0:0:0:0:
448,192,87762,1,0,0:0:0:0:
64,192,87762,1,0,0:0:0:0:
192,192,87762,1,0,0:0:0:0:
320,192,87930,1,0,0:0:0:0:
448,192,87930,1,0,0:0:0:0:
64,192,87930,1,0,0:0:0:0:
192,192,87930,1,0,0:0:0:0:
320,192,88099,1,0,0:0:0:0:
448,192,88099,1,0,0:0:0:0:
64,192,88099,1,0,0:0:0:0:
192,192,88099,1,0,0:0:0:0:
320,192,88268,1,0,0:0:0:0:
448,192,88268,1,0,0:0:0:0:
64,192,88268,1,0,0:0:0:0:
192,192,88268,1,0,0:0:0:0:
320,192,88436,1,0,0:0:0:0:
448,192,88436,1,0,0:0:0:0:
64,192,88436,1,0,0:0:0:0:
192,192,88436,1,0,0:0:0:0:
320,192,88605,1,0,0:0:0:0:
448,192,88605,1,0,0:0:0:0:
64,192,88605,1,0,0:0:0:0:
192,192,88605,1,0,0:0:0:0:
64,192,88773,1,0,0:0:0:0:
192,192,88773,1,0,0:0:0:0:
320,192,88773,1,0,0:0:0:0:
448,192,88773,1,0,0:0:0:0:
320,192,88942,1,0,0:0:0:0:
448,192,88942,1,0,0:0:0:0:
64,192,88942,1,0,0:0:0:0:
192,192,88942,1,0,0:0:0:0:
64,192,89110,1,0,0:0:0:0:
192,192,89110,1,0,0:0:0:0:
320,192,89110,1,0,0:0:0:0:
448,192,89110,1,0,0:0:0:0:
320,192,89279,1,0,0:0:0:0:
448,192,89279,1,0,0:0:0:0:
64,192,89279,1,0,0:0:0:0:
192,192,89279,1,0,0:0:0:0:
64,192,89447,1,0,0:0:0:0:
192,192,89447,1,0,0:0:0:0:
320,192,89447,1,0,0:0:0:0:
448,192,89447,1,0,0:0:0:0:
320,192,89616,1,0,0:0:0:0:
448,192,89616,1,0,0:0:0:0:
64,192,89616,1,0,0:0:0:0:
192,192,89616,1,0,0:0:0:0:
320,192,89784,1,0,0:0:0:0:
448,192,89784,1,0,0:0:0:0:
64,192,89784,1,0,0:0:0:0:
192,192,89784,1,0,0:0:0:0:
320,192,89953,1,0,0:0:0:0:
448,192,89953,1,0,0:0:0:0:
64,192,89953,1,0,0:0:0:0:
192,192,89953,1,0,0:0:0:0:
320,192,90121,1,0,0:0:0:0:
448,192,90121,1,0,0:0:0:0:
64,192,90121,1,0,0:0:0:0:
192,192,90121,1,0,0:0:0:0:
320,192,90290,1,0,0:0:0:0:
448,192,90290,1,0,0:0:0:0:
64,192,90290,1,0,0:0:0:0:
192,192,90290,1,0,0:0:0:0:
320,192,90459,1,0,0:0:0:0:
448,192,90459,1,0,0:0:0:0:
64,192,90459,1,0,0:0:0:0:
192,192,90459,1,0,0:0:0:0:
320,192,90627,1,0,0:0:0:0:
448,192,90627,1,0,0:0:0:0:
64,192,90627,1,0,0:0:0:0:
192,192,90627,1,0,0:0:0:0:
64,192,90796,1,0,0:0:0:0:
192,192,90796,1,0,0:0:0:0:
320,192,90796,1,0,0:0:0:0:
448,192,90796,1,0,0:0:0:0:
320,192,90964,1,0,0:0:0:0:
448,192,90964,1,0,0:0:0:0:
64,192,90964,1,0,0:0:0:0:
192,192,90964,1,0,0:0:0:0:
64,192,91133,1,0,0:0:0:0:
192,192,91133,1,0,0:0:0:0:
320,192,91133,1,0,0:0:0:0:
448,192,91133,1,0,0:0:0:0:
320,192,91301,1,0,0:0:0:0:
448,192,91301,1,0,0:0:0:0:
64,192,91301,1,0,0:0:0:0:
192,192,91301,1,0,0:0:0:0:
64,192,91470,1,0,0:0:0:0:
192,192,91470,1,0,0:0:0:0:
320,192,91470,1,0,0:0:0:0:
448,192,91470,1,0,0:0:0:0:
320,192,91638,1,0,0:0:0:0:
448,192,91638,1,0,0:0:0:0:
64,192,91638,1,0,0:0:0:0:
192,192,91638,1,0,0:0:0:0:
320,192,91807,1,0,0:0:0:0:
448,192,91807,1,0,0:0:0:0:
64,192,91807,1,0,0:0:0:0:
192,192,91807,1,0,0:0:0:0:
320,192,91975,1,0,0:0:0:0:
448,192,91975,1,0,0:0:0:0:
64,192,91975,1,0,0:0:0:0:
192,192,91975,1,0,0:0:0:0:
320,192,92144,1,0,0:0:0:0:
448,192,92144,1,0,0:0:0:0:
64,192,92144,1,0,0:0:0:0:
192,192,92144,1,0,0:0:0:0:
320,192,92312,1,0,0:0:0:0:
448,192,92312,1,0,0:0:0:0:
64,192,92312,1,0,0:0:0:0:
192,192,92312,1,0,0:0:0:0:
320,192,92481,1,0,0:0:0:0:
448,192,92481,1,0,0:0:0:0:
64,192,92481,1,0,0:0:0:0:
192,192,92481,1,0,0:0:0:0:
64,192,92650,1,0,0:0:0:0:
192,192,92650,1,0,0:0:0:0:
320,192,92650,1,0,0:0:0:0:
448,192,92650,1,0,0:0:0:0:
64,192,92818,1,0,0:0:0:0:
192,192,92818,1,0,0:0:0:0:
320,192,92818,1,0,0:0:0:0:
448,192,92818,1,0,0:0:0:0:
64,192,92987,1,0,0:0:0:0:
192,192,92987,1,0,0:0:0:0:
320,192,92987,1,0,0:0:0:0:
448,192,92987,1,0,0:0:0:0:
64,192,93155,1,0,0:0:0:0:
192,192,93155,1,0,0:0:0:0:
320,192,93155,1,0,0:0:0:0:
448,192,93155,1,0,0:0:0:0:
64,192,93324,1,0,0:0:0:0:
192,192,93324,1,0,0:0:0:0:
320,192,93324,1,0,0:0:0:0:
448,192,93324,1,0,0:0:0:0:
64,192,93492,1,0,0:0:0:0:
192,192,93492,1,0,0:0:0:0:
320,192,93492,1,0,0:0:0:0:
448,192,93492,1,0,0:0:0:0:
64,192,93661,1,0,0:0:0:0:
192,192,93661,1,0,0:0:0:0:
320,192,93661,1,0,0:0:0:0:
448,192,93661,1,0,0:0:0:0:
64,192,93829,1,0,0:0:0:0:
192,192,93829,1,0,0:0:0:0:
320,192,93829,1,0,0:0:0:0:
448,192,93829,1,0,0:0:0:0:
64,192,93998,1,0,0:0:0:0:
192,192,93998,1,0,0:0:0:0:
320,192,93998,1,0,0:0:0:0:
448,192,93998,1,0,0:0:0:0:
64,192,94166,1,0,0:0:0:0:
192,192,94166,1,0,0:0:0:0:
320,192,94166,1,0,0:0:0:0:
448,192,94166,1,0,0:0:0:0:
64,192,94335,1,0,0:0:0:0:
192,192,94335,1,0,0:0:0:0:
320,192,94335,1,0,0:0:0:0:
448,192,94335,1,0,0:0:0:0:
