osu file format v14

[General]
AudioFilename: audio.mp3
AudioLeadIn: 0
PreviewTime: 76151
Countdown: 0
SampleSet: Normal
StackLeniency: 0.7
Mode: 3
LetterboxInBreaks: 0
SpecialStyle: 0
WidescreenStoryboard: 1

[Editor]
Bookmarks: 10326,32955,54898,76841,98783,120722
DistanceSpacing: 0.8
BeatDivisor: 8
GridSize: 4
TimelineZoom: 1.099999

[Metadata]
Title:Rubber Band
TitleUnicode:Rubber Band
Artist:Jackal Queenston
ArtistUnicode:Jackal Queenston
Creator:Midnaait
Version:mint's Hyper
Source:
Tags:Vulkin -mint- qqqant Renard Slop BEST OF LAPFOX VOL 2: The Killer's Notebook vulpvibe records trax emma essex halley labs electronic instrumental english looney tunes merrie melodies marvin the martian bugs bunny mad as a mars hare hare-way to the stars music Unmixed Short Version Edit
BeatmapID:2344321
BeatmapSetID:1112418

[Difficulty]
HPDrainRate:7.7
CircleSize:4
OverallDifficulty:7.3
ApproachRate:9
SliderMultiplier:1.4
SliderTickRate:1

[Events]
//Background and Video events
0,0,"purple_slider.jpg",0,0
//Break Periods
//Storyboard Layer 0 (Background)
//Storyboard Layer 1 (Fail)
//Storyboard Layer 2 (Pass)
//Storyboard Layer 3 (Foreground)
//Storyboard Layer 4 (Overlay)
//Storyboard Sound Samples

[TimingPoints]
37,342.857142857143,4,1,1,70,1,0
76837,-100,4,1,1,70,0,1
98094,-100,4,1,1,70,0,0

[HitObjects]
320,192,10322,5,0,0:0:0:0:
192,192,10408,1,0,0:0:0:0:
448,192,10494,1,0,0:0:0:70:tom2.wav
64,192,10579,1,0,0:0:0:70:tom2.wav
448,192,10665,1,0,0:0:0:70:tom1.wav
64,192,10751,1,0,0:0:0:70:tom1.wav
320,192,10837,1,0,0:0:0:70:tom3.wav
192,192,10922,1,0,0:0:0:70:tom3.wav
64,192,11008,1,0,0:0:0:70:cymbal.wav
320,192,11008,128,0,11265:0:0:0:0:
448,192,11008,1,0,0:0:0:0:
192,192,11179,1,0,0:0:0:0:
64,192,11351,1,0,0:0:0:70:clap.wav
320,192,11351,1,0,0:0:0:0:
320,192,11522,1,0,0:0:0:0:
448,192,11694,128,0,11951:0:0:0:0:
192,192,11865,1,0,0:0:0:0:
64,192,12037,1,0,0:0:0:70:clap.wav
320,192,12037,128,0,12294:0:0:0:0:
448,192,12208,1,0,0:0:0:0:
192,192,12379,1,0,0:0:0:0:
192,192,12551,1,0,0:0:0:0:
64,192,12722,1,0,0:0:0:70:clap.wav
320,192,12722,1,0,0:0:0:0:
320,192,12894,1,0,0:0:0:0:
64,192,13065,1,0,0:0:0:0:
64,192,13237,1,0,0:0:0:0:
192,192,13408,1,0,0:0:0:70:clap.wav
448,192,13408,1,0,0:0:0:0:
448,192,13579,1,0,0:0:0:0:
192,192,13751,128,0,14008:0:0:0:0:
320,192,13922,1,0,0:0:0:0:
192,192,14094,1,0,0:0:0:70:clap.wav
448,192,14094,1,0,0:0:0:0:
192,192,14265,1,0,0:0:0:0:
320,192,14437,128,0,14694:0:0:0:0:
64,192,14608,1,0,0:0:0:0:
192,192,14779,128,0,15037:0:0:0:70:clap.wav
448,192,14779,1,0,0:0:0:0:
320,192,14951,1,0,0:0:0:0:
64,192,15122,128,0,15379:0:0:0:0:
320,192,15294,1,0,0:0:0:0:
192,192,15465,1,0,0:0:0:70:clap.wav
448,192,15465,1,0,0:0:0:0:
64,192,15637,1,0,0:0:0:0:
448,192,15808,128,0,16065:0:0:0:0:
192,192,15979,1,0,0:0:0:0:
64,192,16151,1,0,0:0:0:70:clap.wav
320,192,16151,1,0,0:0:0:0:
448,192,16322,1,0,0:0:0:0:
320,192,16494,128,0,16751:0:0:0:0:
192,192,16665,1,0,0:0:0:0:
64,192,16837,1,0,0:0:0:70:clap.wav
320,192,16837,1,0,0:0:0:0:
320,192,17008,1,0,0:0:0:0:
448,192,17179,128,0,17437:0:0:0:0:
192,192,17351,1,0,0:0:0:0:
64,192,17522,1,0,0:0:0:70:clap.wav
320,192,17522,128,0,17779:0:0:0:0:
448,192,17694,1,0,0:0:0:0:
192,192,17865,1,0,0:0:0:0:
192,192,18037,1,0,0:0:0:0:
64,192,18208,1,0,0:0:0:70:clap.wav
320,192,18208,1,0,0:0:0:0:
320,192,18379,1,0,0:0:0:0:
64,192,18551,1,0,0:0:0:0:
64,192,18722,1,0,0:0:0:0:
192,192,18894,1,0,0:0:0:70:clap.wav
448,192,18894,1,0,0:0:0:0:
448,192,19065,1,0,0:0:0:0:
192,192,19237,128,0,19494:0:0:0:0:
320,192,19408,1,0,0:0:0:0:
192,192,19579,1,0,0:0:0:70:clap.wav
448,192,19579,1,0,0:0:0:0:
192,192,19751,1,0,0:0:0:0:
320,192,19922,128,0,20179:0:0:0:0:
64,192,20094,1,0,0:0:0:0:
192,192,20265,128,0,20522:0:0:0:70:clap.wav
448,192,20265,1,0,0:0:0:0:
320,192,20437,1,0,0:0:0:0:
64,192,20608,128,0,20865:0:0:0:0:
320,192,20779,1,0,0:0:0:0:
192,192,20951,1,0,0:0:0:70:clap.wav
448,192,20951,1,0,0:0:0:0:
64,192,21122,1,0,0:0:0:0:
320,192,21294,1,0,0:0:0:0:
192,192,21379,1,0,0:0:0:0:
448,192,21465,1,0,0:0:0:70:tom2.wav
64,192,21551,1,0,0:0:0:70:tom2.wav
448,192,21637,1,0,0:0:0:70:tom1.wav
64,192,21722,1,0,0:0:0:70:tom1.wav
320,192,21808,1,0,0:0:0:70:tom3.wav
192,192,21894,1,0,0:0:0:70:tom3.wav
64,192,21979,1,0,0:0:0:70:cymbal.wav
320,192,21979,128,0,22237:0:0:0:0:
448,192,21979,1,0,0:0:0:0:
192,192,22151,1,0,0:0:0:0:
64,192,22322,1,0,0:0:0:70:clap.wav
320,192,22322,1,0,0:0:0:0:
320,192,22494,1,0,0:0:0:0:
448,192,22665,128,0,22922:0:0:0:0:
192,192,22837,1,0,0:0:0:0:
64,192,23008,1,0,0:0:0:70:clap.wav
320,192,23008,128,0,23265:0:0:0:0:
448,192,23179,1,0,0:0:0:0:
192,192,23351,1,0,0:0:0:0:
192,192,23522,1,0,0:0:0:0:
64,192,23694,1,0,0:0:0:70:clap.wav
320,192,23694,1,0,0:0:0:0:
320,192,23865,1,0,0:0:0:0:
64,192,24037,1,0,0:0:0:0:
64,192,24208,1,0,0:0:0:0:
192,192,24379,1,0,0:0:0:70:clap.wav
448,192,24379,1,0,0:0:0:0:
448,192,24551,1,0,0:0:0:0:
192,192,24722,128,0,24979:0:0:0:0:
320,192,24894,1,0,0:0:0:0:
192,192,25065,1,0,0:0:0:70:clap.wav
448,192,25065,1,0,0:0:0:0:
192,192,25237,1,0,0:0:0:0:
320,192,25408,128,0,25665:0:0:0:0:
64,192,25579,1,0,0:0:0:0:
192,192,25751,128,0,26008:0:0:0:70:clap.wav
448,192,25751,1,0,0:0:0:0:
320,192,25922,1,0,0:0:0:0:
64,192,26094,128,0,26351:0:0:0:0:
320,192,26265,1,0,0:0:0:0:
192,192,26437,1,0,0:0:0:70:clap.wav
448,192,26437,1,0,0:0:0:0:
64,192,26608,1,0,0:0:0:0:
448,192,26779,128,0,27037:0:0:0:0:
192,192,26951,1,0,0:0:0:0:
64,192,27122,1,0,0:0:0:70:clap.wav
320,192,27122,1,0,0:0:0:0:
448,192,27294,1,0,0:0:0:0:
192,192,27465,1,0,0:0:0:0:
448,192,27551,1,0,0:0:0:0:
320,192,27637,1,0,0:0:0:0:
192,192,27722,1,0,0:0:0:0:
64,192,27808,1,0,0:0:0:70:clap.wav
448,192,27894,1,0,0:0:0:0:
64,192,27979,1,0,0:0:0:0:
320,192,28065,1,0,0:0:0:0:
448,192,28151,1,0,0:0:0:0:
192,192,28237,1,0,0:0:0:0:
320,192,28322,1,0,0:0:0:0:
448,192,28408,1,0,0:0:0:0:
64,192,28494,1,0,0:0:0:70:clap.wav
192,192,28579,1,0,0:0:0:0:
320,192,28665,1,0,0:0:0:0:
448,192,28751,1,0,0:0:0:0:
64,192,28837,1,0,0:0:0:0:
320,192,28922,1,0,0:0:0:0:
192,192,29008,1,0,0:0:0:0:
448,192,29094,1,0,0:0:0:0:
64,192,29179,1,0,0:0:0:70:clap.wav
320,192,29265,1,0,0:0:0:0:
192,192,29351,1,0,0:0:0:0:
448,192,29437,1,0,0:0:0:0:
64,192,29522,1,0,0:0:0:0:
192,192,29608,1,0,0:0:0:0:
320,192,29694,1,0,0:0:0:0:
448,192,29779,1,0,0:0:0:0:
192,192,29865,1,0,0:0:0:70:clap.wav
320,192,29951,1,0,0:0:0:0:
64,192,30037,1,0,0:0:0:0:
192,192,30122,1,0,0:0:0:0:
448,192,30208,1,0,0:0:0:0:
64,192,30294,1,0,0:0:0:0:
320,192,30379,1,0,0:0:0:0:
192,192,30465,1,0,0:0:0:0:
64,192,30551,1,0,0:0:0:70:clap.wav
448,192,30637,1,0,0:0:0:0:
320,192,30722,1,0,0:0:0:0:
192,192,30808,1,0,0:0:0:0:
448,192,30894,1,0,0:0:0:0:
64,192,30979,1,0,0:0:0:0:
192,192,31065,1,0,0:0:0:0:
320,192,31151,1,0,0:0:0:0:
448,192,31237,1,0,0:0:0:70:clap.wav
64,192,31322,1,0,0:0:0:0:
192,192,31408,1,0,0:0:0:0:
320,192,31494,1,0,0:0:0:0:
64,192,31579,128,0,31751:0:0:0:0:
192,192,31879,128,0,32437:0:0:0:0:
320,192,32265,128,0,32437:0:0:0:0:
64,192,32608,1,0,0:0:0:0:
448,192,32651,128,0,32865:0:0:0:0:
64,192,32951,1,0,0:0:0:70:kick.wav
192,192,32951,128,0,35008:0:0:0:70:cymbal.wav
448,192,32951,1,0,0:0:0:0:
320,192,33122,1,0,0:0:0:0:
64,192,33294,1,0,0:0:0:70:snare.wav
448,192,33294,1,0,0:0:0:0:
64,192,33465,1,0,0:0:0:0:
320,192,33637,1,0,0:0:0:0:
320,192,33808,1,0,0:0:0:70:kick.wav
448,192,33808,1,0,0:0:0:0:
64,192,33979,1,0,0:0:0:70:snare.wav
448,192,33979,1,0,0:0:0:0:
64,192,34151,1,0,0:0:0:0:
320,192,34322,1,0,0:0:0:70:kick.wav
448,192,34322,1,0,0:0:0:0:
320,192,34494,1,0,0:0:0:0:
64,192,34665,1,0,0:0:0:70:snare.wav
448,192,34665,1,0,0:0:0:0:
64,192,34837,1,0,0:0:0:0:
448,192,35008,128,0,35351:0:0:0:0:
64,192,35179,1,0,0:0:0:70:kick.wav
192,192,35179,1,0,0:0:0:0:
64,192,35351,1,0,0:0:0:70:snare.wav
320,192,35351,128,0,35694:0:0:0:0:
448,192,35522,1,0,0:0:0:0:
64,192,35694,128,0,37751:0:0:0:70:kick.wav
192,192,35694,1,0,0:0:0:0:
320,192,35865,1,0,0:0:0:0:
192,192,36037,1,0,0:0:0:70:snare.wav
448,192,36037,1,0,0:0:0:0:
192,192,36208,1,0,0:0:0:0:
320,192,36379,1,0,0:0:0:0:
320,192,36551,1,0,0:0:0:70:kick.wav
448,192,36551,1,0,0:0:0:0:
192,192,36722,1,0,0:0:0:70:snare.wav
448,192,36722,1,0,0:0:0:0:
192,192,36894,1,0,0:0:0:0:
320,192,37065,1,0,0:0:0:70:kick.wav
448,192,37065,1,0,0:0:0:0:
320,192,37237,1,0,0:0:0:0:
192,192,37408,1,0,0:0:0:70:snare.wav
448,192,37408,1,0,0:0:0:0:
192,192,37579,1,0,0:0:0:0:
320,192,37751,128,0,38094:0:0:0:0:
64,192,37922,1,0,0:0:0:70:kick.wav
192,192,37922,1,0,0:0:0:0:
192,192,38094,128,0,38437:0:0:0:70:snare.wav
448,192,38094,1,0,0:0:0:0:
64,192,38265,1,0,0:0:0:0:
320,192,38437,128,0,40494:0:0:0:70:kick.wav
448,192,38437,1,0,0:0:0:0:
192,192,38608,1,0,0:0:0:0:
64,192,38779,1,0,0:0:0:70:snare.wav
448,192,38779,1,0,0:0:0:0:
448,192,38951,1,0,0:0:0:0:
192,192,39122,1,0,0:0:0:0:
64,192,39294,1,0,0:0:0:70:kick.wav
192,192,39294,1,0,0:0:0:0:
64,192,39465,1,0,0:0:0:70:snare.wav
448,192,39465,1,0,0:0:0:0:
448,192,39637,1,0,0:0:0:0:
64,192,39808,1,0,0:0:0:70:kick.wav
192,192,39808,1,0,0:0:0:0:
192,192,39979,1,0,0:0:0:0:
64,192,40151,1,0,0:0:0:70:snare.wav
448,192,40151,1,0,0:0:0:0:
448,192,40322,1,0,0:0:0:0:
64,192,40494,128,0,40837:0:0:0:0:
320,192,40665,1,0,0:0:0:70:kick.wav
448,192,40665,1,0,0:0:0:0:
192,192,40837,128,0,41179:0:0:0:70:snare.wav
448,192,40837,1,0,0:0:0:0:
64,192,41008,1,0,0:0:0:0:
320,192,41179,1,0,0:0:0:70:kick.wav
448,192,41179,128,0,43237:0:0:0:0:
192,192,41351,1,0,0:0:0:0:
64,192,41522,1,0,0:0:0:70:snare.wav
320,192,41522,1,0,0:0:0:0:
320,192,41694,1,0,0:0:0:0:
192,192,41865,1,0,0:0:0:0:
64,192,42037,1,0,0:0:0:70:kick.wav
192,192,42037,1,0,0:0:0:0:
64,192,42208,1,0,0:0:0:70:snare.wav
320,192,42208,1,0,0:0:0:0:
320,192,42379,1,0,0:0:0:0:
64,192,42551,1,0,0:0:0:70:kick.wav
192,192,42551,1,0,0:0:0:0:
192,192,42722,1,0,0:0:0:0:
64,192,42894,1,0,0:0:0:70:snare.wav
320,192,42894,1,0,0:0:0:0:
320,192,43065,1,0,0:0:0:0:
192,192,43237,128,0,43579:0:0:0:0:
320,192,43408,1,0,0:0:0:70:kick.wav
448,192,43408,1,0,0:0:0:0:
64,192,43579,1,0,0:0:0:70:snare.wav
320,192,43579,128,0,43922:0:0:0:0:
448,192,43751,1,0,0:0:0:0:
64,192,43922,1,0,0:0:0:70:kick.wav
192,192,43922,128,0,45979:0:0:0:70:cymbal.wav
448,192,43922,1,0,0:0:0:0:
320,192,44094,1,0,0:0:0:0:
64,192,44265,1,0,0:0:0:70:snare.wav
448,192,44265,1,0,0:0:0:0:
64,192,44437,1,0,0:0:0:0:
320,192,44608,1,0,0:0:0:0:
320,192,44779,1,0,0:0:0:70:kick.wav
448,192,44779,1,0,0:0:0:0:
64,192,44951,1,0,0:0:0:70:snare.wav
448,192,44951,1,0,0:0:0:0:
64,192,45122,1,0,0:0:0:0:
320,192,45294,1,0,0:0:0:70:kick.wav
448,192,45294,1,0,0:0:0:0:
320,192,45465,1,0,0:0:0:0:
64,192,45637,1,0,0:0:0:70:snare.wav
448,192,45637,1,0,0:0:0:0:
64,192,45808,1,0,0:0:0:0:
448,192,45979,128,0,46322:0:0:0:0:
64,192,46151,1,0,0:0:0:70:kick.wav
192,192,46151,1,0,0:0:0:0:
64,192,46322,1,0,0:0:0:70:snare.wav
320,192,46322,128,0,46665:0:0:0:0:
448,192,46494,1,0,0:0:0:0:
64,192,46665,128,0,48722:0:0:0:70:kick.wav
192,192,46665,1,0,0:0:0:0:
320,192,46837,1,0,0:0:0:0:
192,192,47008,1,0,0:0:0:70:snare.wav
448,192,47008,1,0,0:0:0:0:
192,192,47179,1,0,0:0:0:0:
320,192,47351,1,0,0:0:0:0:
320,192,47522,1,0,0:0:0:70:kick.wav
448,192,47522,1,0,0:0:0:0:
192,192,47694,1,0,0:0:0:70:snare.wav
448,192,47694,1,0,0:0:0:0:
192,192,47865,1,0,0:0:0:0:
320,192,48037,1,0,0:0:0:70:kick.wav
448,192,48037,1,0,0:0:0:0:
320,192,48208,1,0,0:0:0:0:
192,192,48379,1,0,0:0:0:70:snare.wav
448,192,48379,1,0,0:0:0:0:
192,192,48551,1,0,0:0:0:0:
320,192,48722,128,0,49065:0:0:0:0:
64,192,48894,1,0,0:0:0:70:kick.wav
192,192,48894,1,0,0:0:0:0:
192,192,49065,128,0,49408:0:0:0:70:snare.wav
448,192,49065,1,0,0:0:0:0:
64,192,49237,1,0,0:0:0:0:
320,192,49408,1,0,0:0:0:70:kick.wav
448,192,49408,1,0,0:0:0:0:
64,192,49494,1,0,0:0:0:0:
192,192,49579,1,0,0:0:0:0:
320,192,49665,1,0,0:0:0:0:
448,192,49751,1,0,0:0:0:70:snare.wav
64,192,49837,1,0,0:0:0:0:
320,192,49922,1,0,0:0:0:0:
192,192,50008,1,0,0:0:0:0:
64,192,50094,1,0,0:0:0:0:
448,192,50179,1,0,0:0:0:0:
192,192,50265,1,0,0:0:0:70:kick.wav
320,192,50351,1,0,0:0:0:0:
64,192,50437,1,0,0:0:0:70:snare.wav
448,192,50522,1,0,0:0:0:0:
320,192,50608,1,0,0:0:0:0:
192,192,50694,1,0,0:0:0:0:
448,192,50779,1,0,0:0:0:70:kick.wav
64,192,50865,1,0,0:0:0:0:
192,192,50951,1,0,0:0:0:0:
320,192,51037,1,0,0:0:0:0:
64,192,51122,1,0,0:0:0:70:snare.wav
448,192,51208,1,0,0:0:0:0:
192,192,51294,1,0,0:0:0:0:
320,192,51379,1,0,0:0:0:0:
64,192,51465,1,0,0:0:0:0:
192,192,51551,1,0,0:0:0:0:
448,192,51637,1,0,0:0:0:70:kick.wav
320,192,51722,1,0,0:0:0:0:
64,192,51808,1,0,0:0:0:70:snare.wav
448,192,51894,1,0,0:0:0:0:
192,192,51979,1,0,0:0:0:0:
320,192,52065,1,0,0:0:0:0:
64,192,52151,1,0,0:0:0:70:kick.wav
448,192,52237,1,0,0:0:0:0:
320,192,52322,1,0,0:0:0:0:
192,192,52408,1,0,0:0:0:0:
448,192,52494,1,0,0:0:0:70:snare.wav
64,192,52579,1,0,0:0:0:0:
192,192,52665,1,0,0:0:0:0:
320,192,52751,1,0,0:0:0:0:
64,192,52837,1,0,0:0:0:0:
448,192,52922,1,0,0:0:0:0:
320,192,53008,1,0,0:0:0:70:kick.wav
192,192,53094,1,0,0:0:0:0:
64,192,53179,1,0,0:0:0:70:snare.wav
448,192,53265,1,0,0:0:0:0:
320,192,53351,1,0,0:0:0:0:
192,192,53437,1,0,0:0:0:0:
448,192,53522,1,0,0:0:0:70:kick.wav
64,192,53608,1,0,0:0:0:0:
320,192,53694,1,0,0:0:0:0:
192,192,53779,1,0,0:0:0:0:
64,192,53865,1,0,0:0:0:70:snare.wav
448,192,53951,1,0,0:0:0:0:
192,192,54037,1,0,0:0:0:0:
64,192,54122,1,0,0:0:0:0:
320,192,54208,1,0,0:0:0:0:
192,192,54294,1,0,0:0:0:0:
448,192,54379,1,0,0:0:0:70:tom2.wav
64,192,54465,1,0,0:0:0:70:tom2.wav
448,192,54551,1,0,0:0:0:70:tom1.wav
64,192,54637,1,0,0:0:0:70:tom1.wav
320,192,54722,1,0,0:0:0:70:tom3.wav
192,192,54808,1,0,0:0:0:70:tom3.wav
64,192,54894,128,0,56951:0:0:0:70:kick.wav
320,192,54894,1,0,0:0:0:70:cymbal.wav
448,192,54894,1,0,0:0:0:0:
320,192,55065,1,0,0:0:0:0:
192,192,55237,1,0,0:0:0:70:snare.wav
448,192,55237,1,0,0:0:0:0:
192,192,55408,1,0,0:0:0:0:
320,192,55579,1,0,0:0:0:0:
320,192,55751,1,0,0:0:0:70:kick.wav
448,192,55751,1,0,0:0:0:0:
192,192,55922,1,0,0:0:0:70:snare.wav
448,192,55922,1,0,0:0:0:0:
192,192,56094,1,0,0:0:0:0:
320,192,56265,1,0,0:0:0:70:kick.wav
448,192,56265,1,0,0:0:0:0:
320,192,56437,1,0,0:0:0:0:
192,192,56608,1,0,0:0:0:70:snare.wav
448,192,56608,1,0,0:0:0:0:
192,192,56779,1,0,0:0:0:0:
320,192,56951,128,0,57294:0:0:0:0:
64,192,57122,1,0,0:0:0:70:kick.wav
192,192,57122,1,0,0:0:0:0:
192,192,57294,128,0,57637:0:0:0:70:snare.wav
448,192,57294,1,0,0:0:0:0:
64,192,57465,1,0,0:0:0:0:
320,192,57637,1,0,0:0:0:70:kick.wav
448,192,57637,1,0,0:0:0:0:
64,192,57751,1,0,0:0:0:0:
320,192,57865,1,0,0:0:0:0:
192,192,57979,1,0,0:0:0:70:snare.wav
448,192,57979,1,0,0:0:0:0:
64,192,58094,1,0,0:0:0:0:
320,192,58208,1,0,0:0:0:0:
192,192,58322,1,0,0:0:0:0:
448,192,58437,1,0,0:0:0:0:
64,192,58494,1,0,0:0:0:70:kick.wav
192,192,58494,1,0,0:0:0:0:
320,192,58551,1,0,0:0:0:0:
64,192,58665,1,0,0:0:0:70:snare.wav
448,192,58665,1,0,0:0:0:0:
192,192,58779,1,0,0:0:0:0:
64,192,58894,1,0,0:0:0:0:
320,192,59008,1,0,0:0:0:70:kick.wav
448,192,59008,1,0,0:0:0:0:
64,192,59122,1,0,0:0:0:0:
320,192,59237,1,0,0:0:0:0:
192,192,59351,1,0,0:0:0:70:snare.wav
448,192,59351,1,0,0:0:0:0:
64,192,59465,1,0,0:0:0:0:
320,192,59579,1,0,0:0:0:0:
192,192,59694,1,0,0:0:0:0:
64,192,59808,1,0,0:0:0:0:
320,192,59865,1,0,0:0:0:70:kick.wav
448,192,59865,1,0,0:0:0:0:
192,192,59922,1,0,0:0:0:0:
64,192,60037,1,0,0:0:0:70:snare.wav
448,192,60037,1,0,0:0:0:0:
320,192,60151,1,0,0:0:0:0:
448,192,60265,1,0,0:0:0:0:
64,192,60379,128,0,62437:0:0:0:70:kick.wav
192,192,60379,1,0,0:0:0:0:
320,192,60551,1,0,0:0:0:0:
192,192,60722,1,0,0:0:0:70:snare.wav
448,192,60722,1,0,0:0:0:0:
192,192,60894,1,0,0:0:0:0:
320,192,61065,1,0,0:0:0:0:
320,192,61237,1,0,0:0:0:70:kick.wav
448,192,61237,1,0,0:0:0:0:
192,192,61408,1,0,0:0:0:70:snare.wav
448,192,61408,1,0,0:0:0:0:
192,192,61579,1,0,0:0:0:0:
320,192,61751,1,0,0:0:0:70:kick.wav
448,192,61751,1,0,0:0:0:0:
320,192,61922,1,0,0:0:0:0:
192,192,62094,1,0,0:0:0:70:snare.wav
448,192,62094,1,0,0:0:0:0:
192,192,62265,1,0,0:0:0:0:
320,192,62437,128,0,62779:0:0:0:0:
64,192,62608,1,0,0:0:0:70:kick.wav
192,192,62608,1,0,0:0:0:0:
192,192,62779,128,0,63122:0:0:0:70:snare.wav
448,192,62779,1,0,0:0:0:0:
64,192,62951,1,0,0:0:0:0:
320,192,63122,1,0,0:0:0:70:kick.wav
448,192,63122,1,0,0:0:0:0:
64,192,63294,1,0,0:0:0:0:
192,192,63465,1,0,0:0:0:70:snare.wav
448,192,63465,1,0,0:0:0:0:
64,192,63637,1,0,0:0:0:0:
320,192,63808,1,0,0:0:0:0:
64,192,63979,1,0,0:0:0:70:kick.wav
192,192,63979,1,0,0:0:0:0:
64,192,64151,1,0,0:0:0:70:snare.wav
448,192,64151,1,0,0:0:0:0:
320,192,64322,1,0,0:0:0:0:
64,192,64494,1,0,0:0:0:70:kick.wav
192,192,64494,1,0,0:0:0:0:
448,192,64665,1,0,0:0:0:0:
64,192,64837,1,0,0:0:0:70:snare.wav
320,192,64837,1,0,0:0:0:0:
448,192,65008,1,0,0:0:0:0:
192,192,65179,1,0,0:0:0:0:
64,192,65294,1,0,0:0:0:0:
320,192,65351,1,0,0:0:0:70:kick.wav
448,192,65351,1,0,0:0:0:0:
192,192,65408,1,0,0:0:0:0:
64,192,65522,1,0,0:0:0:70:snare.wav
448,192,65522,1,0,0:0:0:0:
320,192,65637,1,0,0:0:0:0:
448,192,65751,1,0,0:0:0:0:
64,192,65865,128,0,67922:0:0:0:70:kick.wav
192,192,65865,1,0,0:0:0:70:cymbal.wav
320,192,66037,1,0,0:0:0:0:
192,192,66208,1,0,0:0:0:70:snare.wav
448,192,66208,1,0,0:0:0:0:
192,192,66379,1,0,0:0:0:0:
320,192,66551,1,0,0:0:0:0:
320,192,66722,1,0,0:0:0:70:kick.wav
448,192,66722,1,0,0:0:0:0:
192,192,66894,1,0,0:0:0:70:snare.wav
448,192,66894,1,0,0:0:0:0:
192,192,67065,1,0,0:0:0:0:
320,192,67237,1,0,0:0:0:70:kick.wav
448,192,67237,1,0,0:0:0:0:
320,192,67408,1,0,0:0:0:0:
192,192,67579,1,0,0:0:0:70:snare.wav
448,192,67579,1,0,0:0:0:0:
192,192,67751,1,0,0:0:0:0:
320,192,67922,128,0,68265:0:0:0:0:
64,192,68094,1,0,0:0:0:70:kick.wav
192,192,68094,1,0,0:0:0:0:
192,192,68265,128,0,68608:0:0:0:70:snare.wav
448,192,68265,1,0,0:0:0:0:
64,192,68437,1,0,0:0:0:0:
320,192,68608,1,0,0:0:0:70:kick.wav
448,192,68608,1,0,0:0:0:0:
64,192,68722,1,0,0:0:0:0:
320,192,68837,1,0,0:0:0:0:
192,192,68951,1,0,0:0:0:70:snare.wav
448,192,68951,1,0,0:0:0:0:
64,192,69065,1,0,0:0:0:0:
320,192,69179,1,0,0:0:0:0:
192,192,69294,1,0,0:0:0:0:
448,192,69408,1,0,0:0:0:0:
64,192,69465,1,0,0:0:0:70:kick.wav
192,192,69465,1,0,0:0:0:0:
320,192,69522,1,0,0:0:0:0:
64,192,69637,1,0,0:0:0:70:snare.wav
448,192,69637,1,0,0:0:0:0:
192,192,69751,1,0,0:0:0:0:
64,192,69865,1,0,0:0:0:0:
320,192,69979,1,0,0:0:0:70:kick.wav
448,192,69979,1,0,0:0:0:0:
64,192,70094,1,0,0:0:0:0:
320,192,70208,1,0,0:0:0:0:
192,192,70322,1,0,0:0:0:70:snare.wav
448,192,70322,1,0,0:0:0:0:
64,192,70437,1,0,0:0:0:0:
320,192,70551,1,0,0:0:0:0:
192,192,70665,1,0,0:0:0:0:
64,192,70779,1,0,0:0:0:0:
320,192,70837,1,0,0:0:0:70:kick.wav
448,192,70837,1,0,0:0:0:0:
192,192,70894,1,0,0:0:0:0:
64,192,71008,1,0,0:0:0:70:snare.wav
448,192,71008,1,0,0:0:0:0:
320,192,71122,1,0,0:0:0:0:
192,192,71237,1,0,0:0:0:0:
320,192,71351,1,0,0:0:0:70:kick.wav
448,192,71351,1,0,0:0:0:0:
64,192,71437,1,0,0:0:0:0:
192,192,71522,1,0,0:0:0:0:
320,192,71608,1,0,0:0:0:0:
448,192,71694,1,0,0:0:0:70:snare.wav
64,192,71779,1,0,0:0:0:0:
192,192,71865,1,0,0:0:0:0:
320,192,71951,1,0,0:0:0:0:
64,192,72037,1,0,0:0:0:0:
448,192,72122,1,0,0:0:0:0:
320,192,72208,1,0,0:0:0:70:kick.wav
192,192,72294,1,0,0:0:0:0:
64,192,72379,1,0,0:0:0:70:snare.wav
448,192,72465,1,0,0:0:0:0:
320,192,72551,1,0,0:0:0:0:
192,192,72637,1,0,0:0:0:0:
448,192,72722,1,0,0:0:0:70:kick.wav
64,192,72808,1,0,0:0:0:0:
192,192,72894,1,0,0:0:0:0:
320,192,72979,1,0,0:0:0:0:
448,192,73065,1,0,0:0:0:70:snare.wav
64,192,73151,1,0,0:0:0:0:
192,192,73237,1,0,0:0:0:0:
320,192,73322,1,0,0:0:0:0:
64,192,73408,1,0,0:0:0:0:
448,192,73494,1,0,0:0:0:0:
192,192,73579,1,0,0:0:0:70:kick.wav
320,192,73665,1,0,0:0:0:0:
192,192,73751,1,0,0:0:0:70:snare.wav
448,192,73837,1,0,0:0:0:0:
64,192,73922,1,0,0:0:0:0:
192,192,74008,1,0,0:0:0:0:
320,192,74094,1,0,0:0:0:70:kick.wav
448,192,74094,1,0,0:0:0:0:
64,192,74265,1,0,0:0:0:0:
192,192,74437,1,0,0:0:0:70:snare.wav
448,192,74437,1,0,0:0:0:0:
64,192,74608,1,0,0:0:0:0:
320,192,74779,1,0,0:0:0:0:
64,192,74951,1,0,0:0:0:70:kick.wav
192,192,74951,1,0,0:0:0:0:
64,192,75122,1,0,0:0:0:70:snare.wav
448,192,75122,1,0,0:0:0:0:
320,192,75294,1,0,0:0:0:0:
64,192,75465,1,0,0:0:0:70:kick.wav
192,192,75465,1,0,0:0:0:0:
448,192,75637,1,0,0:0:0:0:
64,192,75808,1,0,0:0:0:70:snare.wav
320,192,75808,1,0,0:0:0:0:
448,192,75979,1,0,0:0:0:0:
192,192,76151,1,0,0:0:0:0:
320,192,76237,1,0,0:0:0:0:
64,192,76322,1,0,0:0:0:70:tom2.wav
448,192,76408,1,0,0:0:0:70:tom2.wav
64,192,76494,1,0,0:0:0:70:tom1.wav
448,192,76579,1,0,0:0:0:70:tom1.wav
192,192,76665,1,0,0:0:0:70:tom3.wav
320,192,76751,1,0,0:0:0:70:tom3.wav
64,192,76837,128,0,77008:0:0:0:70:kick.wav
192,192,76837,1,0,0:0:0:70:cymbal.wav
448,192,76837,1,0,0:0:0:0:
320,192,77008,128,0,77179:0:0:0:0:
192,192,77179,1,0,0:0:0:70:snare.wav
448,192,77179,1,0,0:0:0:0:
64,192,77351,1,0,0:0:0:0:
448,192,77522,128,0,77694:0:0:0:0:
64,192,77694,1,0,0:0:0:70:kick.wav
192,192,77694,1,0,0:0:0:0:
64,192,77865,1,0,0:0:0:70:snare.wav
448,192,77865,1,0,0:0:0:0:
320,192,78037,1,0,0:0:0:0:
192,192,78122,1,0,0:0:0:0:
320,192,78208,128,0,78379:0:0:0:70:kick.wav
448,192,78208,1,0,0:0:0:0:
64,192,78379,1,0,0:0:0:0:
192,192,78551,1,0,0:0:0:70:snare.wav
448,192,78551,128,0,78722:0:0:0:0:
64,192,78722,1,0,0:0:0:0:
320,192,78894,1,0,0:0:0:0:
64,192,79065,1,0,0:0:0:70:kick.wav
192,192,79065,1,0,0:0:0:0:
192,192,79237,1,0,0:0:0:70:snare.wav
448,192,79237,128,0,79408:0:0:0:0:
320,192,79408,1,0,0:0:0:0:
64,192,79579,128,0,79751:0:0:0:70:kick.wav
192,192,79579,1,0,0:0:0:0:
320,192,79751,128,0,79922:0:0:0:0:
192,192,79922,1,0,0:0:0:70:snare.wav
448,192,79922,1,0,0:0:0:0:
64,192,80094,1,0,0:0:0:0:
448,192,80265,128,0,80437:0:0:0:0:
64,192,80437,1,0,0:0:0:70:kick.wav
192,192,80437,1,0,0:0:0:0:
64,192,80608,1,0,0:0:0:70:snare.wav
448,192,80608,1,0,0:0:0:0:
320,192,80779,1,0,0:0:0:0:
192,192,80865,1,0,0:0:0:0:
320,192,80951,128,0,81122:0:0:0:70:kick.wav
448,192,80951,1,0,0:0:0:0:
64,192,81122,1,0,0:0:0:0:
192,192,81294,1,0,0:0:0:70:snare.wav
448,192,81294,128,0,81465:0:0:0:0:
64,192,81465,1,0,0:0:0:0:
320,192,81637,1,0,0:0:0:0:
64,192,81808,1,0,0:0:0:70:kick.wav
192,192,81808,1,0,0:0:0:0:
192,192,81979,1,0,0:0:0:70:snare.wav
448,192,81979,128,0,82151:0:0:0:0:
320,192,82151,1,0,0:0:0:0:
64,192,82322,128,0,82494:0:0:0:70:kick.wav
192,192,82322,1,0,0:0:0:0:
320,192,82494,128,0,82665:0:0:0:0:
192,192,82665,1,0,0:0:0:70:snare.wav
448,192,82665,1,0,0:0:0:0:
64,192,82837,1,0,0:0:0:0:
448,192,83008,128,0,83179:0:0:0:0:
64,192,83179,1,0,0:0:0:70:kick.wav
192,192,83179,1,0,0:0:0:0:
64,192,83351,1,0,0:0:0:70:snare.wav
448,192,83351,1,0,0:0:0:0:
320,192,83522,1,0,0:0:0:0:
192,192,83608,1,0,0:0:0:0:
320,192,83694,128,0,83865:0:0:0:70:kick.wav
448,192,83694,1,0,0:0:0:0:
64,192,83865,1,0,0:0:0:0:
192,192,84037,1,0,0:0:0:70:snare.wav
448,192,84037,128,0,84208:0:0:0:0:
64,192,84208,1,0,0:0:0:0:
320,192,84379,1,0,0:0:0:0:
64,192,84551,1,0,0:0:0:70:kick.wav
192,192,84551,1,0,0:0:0:0:
192,192,84722,1,0,0:0:0:70:snare.wav
448,192,84722,128,0,84894:0:0:0:0:
320,192,84894,1,0,0:0:0:0:
64,192,85065,128,0,85237:0:0:0:70:kick.wav
192,192,85065,1,0,0:0:0:0:
320,192,85237,128,0,85408:0:0:0:0:
192,192,85408,1,0,0:0:0:70:snare.wav
448,192,85408,1,0,0:0:0:0:
64,192,85579,1,0,0:0:0:0:
448,192,85751,128,0,85922:0:0:0:0:
64,192,85922,1,0,0:0:0:70:kick.wav
192,192,85922,1,0,0:0:0:0:
64,192,86094,1,0,0:0:0:70:snare.wav
448,192,86094,1,0,0:0:0:0:
320,192,86265,1,0,0:0:0:0:
192,192,86351,1,0,0:0:0:0:
320,192,86437,128,0,86608:0:0:0:70:kick.wav
448,192,86437,1,0,0:0:0:0:
64,192,86608,1,0,0:0:0:0:
192,192,86779,1,0,0:0:0:70:snare.wav
448,192,86779,128,0,86951:0:0:0:0:
64,192,86951,1,0,0:0:0:0:
320,192,87122,1,0,0:0:0:0:
64,192,87294,1,0,0:0:0:70:kick.wav
192,192,87294,1,0,0:0:0:0:
192,192,87465,1,0,0:0:0:70:snare.wav
448,192,87465,128,0,87637:0:0:0:0:
320,192,87637,1,0,0:0:0:0:
64,192,87808,128,0,87979:0:0:0:70:kick.wav
192,192,87808,1,0,0:0:0:70:cymbal.wav
448,192,87808,1,0,0:0:0:0:
320,192,87979,128,0,88151:0:0:0:0:
192,192,88151,1,0,0:0:0:70:snare.wav
448,192,88151,1,0,0:0:0:0:
64,192,88322,1,0,0:0:0:0:
448,192,88494,128,0,88665:0:0:0:0:
64,192,88665,1,0,0:0:0:70:kick.wav
192,192,88665,1,0,0:0:0:0:
64,192,88837,1,0,0:0:0:70:snare.wav
448,192,88837,1,0,0:0:0:0:
320,192,89008,1,0,0:0:0:0:
192,192,89094,1,0,0:0:0:0:
320,192,89179,128,0,89351:0:0:0:70:kick.wav
448,192,89179,1,0,0:0:0:0:
64,192,89351,1,0,0:0:0:0:
192,192,89522,1,0,0:0:0:70:snare.wav
448,192,89522,128,0,89694:0:0:0:0:
64,192,89694,1,0,0:0:0:0:
320,192,89865,1,0,0:0:0:0:
64,192,90037,1,0,0:0:0:70:kick.wav
192,192,90037,1,0,0:0:0:0:
192,192,90208,1,0,0:0:0:70:snare.wav
448,192,90208,128,0,90379:0:0:0:0:
320,192,90379,1,0,0:0:0:0:
64,192,90551,128,0,90722:0:0:0:70:kick.wav
192,192,90551,1,0,0:0:0:0:
320,192,90722,128,0,90894:0:0:0:0:
192,192,90894,1,0,0:0:0:70:snare.wav
448,192,90894,1,0,0:0:0:0:
64,192,91065,1,0,0:0:0:0:
448,192,91237,128,0,91408:0:0:0:0:
64,192,91408,1,0,0:0:0:70:kick.wav
192,192,91408,1,0,0:0:0:0:
64,192,91579,1,0,0:0:0:70:snare.wav
448,192,91579,1,0,0:0:0:0:
320,192,91751,1,0,0:0:0:0:
192,192,91837,1,0,0:0:0:0:
320,192,91922,128,0,92094:0:0:0:70:kick.wav
448,192,91922,1,0,0:0:0:0:
64,192,92094,1,0,0:0:0:0:
192,192,92265,1,0,0:0:0:70:snare.wav
448,192,92265,128,0,92437:0:0:0:0:
64,192,92437,1,0,0:0:0:0:
320,192,92608,1,0,0:0:0:0:
64,192,92779,1,0,0:0:0:70:kick.wav
192,192,92779,1,0,0:0:0:0:
192,192,92951,1,0,0:0:0:70:snare.wav
448,192,92951,128,0,93122:0:0:0:0:
320,192,93122,1,0,0:0:0:0:
64,192,93294,1,0,0:0:0:70:kick.wav
192,192,93294,1,0,0:0:0:0:
320,192,93379,1,0,0:0:0:0:
448,192,93465,1,0,0:0:0:0:
192,192,93551,1,0,0:0:0:0:
320,192,93637,1,0,0:0:0:70:snare.wav
64,192,93722,1,0,0:0:0:0:
192,192,93808,1,0,0:0:0:0:
448,192,93894,1,0,0:0:0:0:
320,192,93979,1,0,0:0:0:0:
64,192,94065,1,0,0:0:0:0:
448,192,94151,1,0,0:0:0:70:kick.wav
192,192,94237,1,0,0:0:0:0:
320,192,94322,1,0,0:0:0:70:snare.wav
64,192,94408,1,0,0:0:0:0:
192,192,94494,1,0,0:0:0:0:
448,192,94579,1,0,0:0:0:0:
64,192,94665,1,0,0:0:0:70:kick.wav
320,192,94751,1,0,0:0:0:0:
192,192,94837,1,0,0:0:0:0:
64,192,94922,1,0,0:0:0:0:
448,192,95008,1,0,0:0:0:70:snare.wav
320,192,95094,1,0,0:0:0:0:
192,192,95179,1,0,0:0:0:0:
64,192,95265,1,0,0:0:0:0:
448,192,95351,1,0,0:0:0:0:
192,192,95437,1,0,0:0:0:0:
320,192,95522,1,0,0:0:0:70:kick.wav
64,192,95608,1,0,0:0:0:0:
448,192,95694,1,0,0:0:0:70:snare.wav
320,192,95779,1,0,0:0:0:0:
192,192,95865,1,0,0:0:0:0:
448,192,95951,1,0,0:0:0:0:
64,192,96037,1,0,0:0:0:70:kick.wav
320,192,96122,1,0,0:0:0:0:
448,192,96208,1,0,0:0:0:0:
192,192,96294,1,0,0:0:0:0:
320,192,96379,1,0,0:0:0:70:snare.wav
64,192,96465,1,0,0:0:0:0:
192,192,96551,1,0,0:0:0:0:
448,192,96637,1,0,0:0:0:0:
320,192,96722,1,0,0:0:0:0:
64,192,96808,1,0,0:0:0:0:
448,192,96894,1,0,0:0:0:70:kick.wav
192,192,96979,1,0,0:0:0:0:
320,192,97065,1,0,0:0:0:70:snare.wav
64,192,97151,1,0,0:0:0:0:
192,192,97237,1,0,0:0:0:0:
448,192,97322,1,0,0:0:0:0:
64,192,97408,1,0,0:0:0:70:kick.wav
320,192,97494,1,0,0:0:0:0:
448,192,97579,1,0,0:0:0:0:
192,192,97708,128,0,98265:0:0:0:0:
320,192,98094,128,0,98265:0:0:0:0:
64,192,98437,1,0,0:0:0:0:
448,192,98479,128,0,98694:0:0:0:0:
64,192,98779,128,0,98951:0:0:0:70:cymbal.wav
192,192,98779,1,0,0:0:0:0:
448,192,98779,1,0,0:0:0:0:
320,192,98951,128,0,99122:0:0:0:0:
192,192,99122,1,0,0:0:0:70:clap.wav
448,192,99122,1,0,0:0:0:0:
64,192,99294,1,0,0:0:0:0:
448,192,99465,128,0,99637:0:0:0:0:
192,192,99637,1,0,0:0:0:0:
64,192,99808,1,0,0:0:0:70:clap.wav
448,192,99808,1,0,0:0:0:0:
320,192,99979,1,0,0:0:0:0:
192,192,100065,1,0,0:0:0:0:
320,192,100151,128,0,100322:0:0:0:0:
64,192,100322,1,0,0:0:0:0:
192,192,100494,1,0,0:0:0:70:clap.wav
448,192,100494,128,0,100665:0:0:0:0:
64,192,100665,1,0,0:0:0:0:
320,192,100837,1,0,0:0:0:0:
64,192,101008,1,0,0:0:0:0:
192,192,101179,1,0,0:0:0:70:clap.wav
448,192,101179,128,0,101351:0:0:0:0:
320,192,101351,1,0,0:0:0:0:
64,192,101522,128,0,101694:0:0:0:0:
320,192,101694,128,0,101865:0:0:0:0:
192,192,101865,1,0,0:0:0:70:clap.wav
448,192,101865,1,0,0:0:0:0:
64,192,102037,1,0,0:0:0:0:
448,192,102208,128,0,102379:0:0:0:0:
192,192,102379,1,0,0:0:0:0:
64,192,102551,1,0,0:0:0:70:clap.wav
448,192,102551,1,0,0:0:0:0:
320,192,102722,1,0,0:0:0:0:
192,192,102808,1,0,0:0:0:0:
320,192,102894,128,0,103065:0:0:0:0:
64,192,103065,1,0,0:0:0:0:
192,192,103237,1,0,0:0:0:70:clap.wav
448,192,103237,128,0,103408:0:0:0:0:
64,192,103408,1,0,0:0:0:0:
320,192,103579,1,0,0:0:0:0:
64,192,103751,1,0,0:0:0:0:
192,192,103922,1,0,0:0:0:70:clap.wav
448,192,103922,128,0,104094:0:0:0:0:
320,192,104094,1,0,0:0:0:0:
64,192,104265,128,0,104437:0:0:0:0:
320,192,104437,128,0,104608:0:0:0:0:
192,192,104608,1,0,0:0:0:70:clap.wav
448,192,104608,1,0,0:0:0:0:
64,192,104779,1,0,0:0:0:0:
448,192,104951,128,0,105122:0:0:0:0:
192,192,105122,1,0,0:0:0:0:
64,192,105294,1,0,0:0:0:70:clap.wav
448,192,105294,1,0,0:0:0:0:
320,192,105465,1,0,0:0:0:0:
192,192,105551,1,0,0:0:0:0:
320,192,105637,128,0,105808:0:0:0:0:
64,192,105808,1,0,0:0:0:0:
192,192,105979,1,0,0:0:0:70:clap.wav
448,192,105979,128,0,106151:0:0:0:0:
64,192,106151,1,0,0:0:0:0:
320,192,106322,1,0,0:0:0:0:
64,192,106494,1,0,0:0:0:0:
192,192,106665,1,0,0:0:0:70:clap.wav
448,192,106665,128,0,106837:0:0:0:0:
320,192,106837,1,0,0:0:0:0:
64,192,107008,128,0,107179:0:0:0:0:
320,192,107179,128,0,107351:0:0:0:0:
192,192,107351,1,0,0:0:0:70:clap.wav
448,192,107351,1,0,0:0:0:0:
64,192,107522,1,0,0:0:0:0:
448,192,107694,128,0,107865:0:0:0:0:
192,192,107865,1,0,0:0:0:0:
64,192,108037,1,0,0:0:0:70:clap.wav
448,192,108037,1,0,0:0:0:0:
320,192,108208,1,0,0:0:0:0:
192,192,108294,1,0,0:0:0:0:
320,192,108379,128,0,108551:0:0:0:0:
64,192,108551,1,0,0:0:0:0:
192,192,108722,1,0,0:0:0:70:clap.wav
448,192,108722,128,0,108894:0:0:0:0:
64,192,108894,1,0,0:0:0:0:
192,192,109065,1,0,0:0:0:0:
320,192,109151,1,0,0:0:0:0:
64,192,109237,1,0,0:0:0:70:tom2.wav
448,192,109322,1,0,0:0:0:70:tom2.wav
64,192,109408,1,0,0:0:0:70:tom1.wav
448,192,109494,1,0,0:0:0:70:tom1.wav
192,192,109579,1,0,0:0:0:70:tom3.wav
320,192,109665,1,0,0:0:0:70:tom3.wav
64,192,109751,128,0,109922:0:0:0:70:cymbal.wav
192,192,109751,1,0,0:0:0:0:
448,192,109751,1,0,0:0:0:0:
320,192,109922,128,0,110094:0:0:0:0:
192,192,110094,1,0,0:0:0:70:clap.wav
448,192,110094,1,0,0:0:0:0:
64,192,110265,1,0,0:0:0:0:
448,192,110437,128,0,110608:0:0:0:0:
192,192,110608,1,0,0:0:0:0:
64,192,110779,1,0,0:0:0:70:clap.wav
448,192,110779,1,0,0:0:0:0:
320,192,110951,1,0,0:0:0:0:
192,192,111037,1,0,0:0:0:0:
320,192,111122,128,0,111294:0:0:0:0:
64,192,111294,1,0,0:0:0:0:
192,192,111465,1,0,0:0:0:70:clap.wav
448,192,111465,128,0,111637:0:0:0:0:
64,192,111637,1,0,0:0:0:0:
320,192,111808,1,0,0:0:0:0:
64,192,111979,1,0,0:0:0:0:
192,192,112151,1,0,0:0:0:70:clap.wav
448,192,112151,128,0,112322:0:0:0:0:
320,192,112322,1,0,0:0:0:0:
64,192,112494,128,0,112665:0:0:0:0:
320,192,112665,128,0,112837:0:0:0:0:
192,192,112837,1,0,0:0:0:70:clap.wav
448,192,112837,1,0,0:0:0:0:
64,192,113008,1,0,0:0:0:0:
448,192,113179,128,0,113351:0:0:0:0:
192,192,113351,1,0,0:0:0:0:
64,192,113522,1,0,0:0:0:70:clap.wav
448,192,113522,1,0,0:0:0:0:
320,192,113694,1,0,0:0:0:0:
192,192,113779,1,0,0:0:0:0:
320,192,113865,128,0,114037:0:0:0:0:
64,192,114037,1,0,0:0:0:0:
192,192,114208,1,0,0:0:0:70:clap.wav
448,192,114208,128,0,114379:0:0:0:0:
64,192,114379,1,0,0:0:0:0:
320,192,114551,1,0,0:0:0:0:
64,192,114722,1,0,0:0:0:0:
192,192,114894,1,0,0:0:0:70:clap.wav
448,192,114894,128,0,115065:0:0:0:0:
320,192,115065,1,0,0:0:0:0:
64,192,115237,1,0,0:0:0:0:
320,192,115322,1,0,0:0:0:0:
448,192,115408,1,0,0:0:0:0:
192,192,115494,1,0,0:0:0:0:
320,192,115579,1,0,0:0:0:70:clap.wav
64,192,115665,1,0,0:0:0:0:
192,192,115751,1,0,0:0:0:0:
448,192,115837,1,0,0:0:0:0:
320,192,115922,1,0,0:0:0:0:
64,192,116008,1,0,0:0:0:0:
448,192,116094,1,0,0:0:0:0:
192,192,116179,1,0,0:0:0:0:
320,192,116265,1,0,0:0:0:70:clap.wav
64,192,116351,1,0,0:0:0:0:
192,192,116437,1,0,0:0:0:0:
448,192,116522,1,0,0:0:0:0:
64,192,116608,1,0,0:0:0:0:
320,192,116694,1,0,0:0:0:0:
192,192,116779,1,0,0:0:0:0:
64,192,116865,1,0,0:0:0:0:
448,192,116951,1,0,0:0:0:70:clap.wav
320,192,117037,1,0,0:0:0:0:
192,192,117122,1,0,0:0:0:0:
64,192,117208,1,0,0:0:0:0:
448,192,117294,1,0,0:0:0:0:
192,192,117379,1,0,0:0:0:0:
320,192,117465,1,0,0:0:0:0:
64,192,117551,1,0,0:0:0:0:
448,192,117637,1,0,0:0:0:70:clap.wav
320,192,117722,1,0,0:0:0:0:
192,192,117808,1,0,0:0:0:0:
448,192,117894,1,0,0:0:0:0:
64,192,117979,1,0,0:0:0:0:
320,192,118065,1,0,0:0:0:0:
448,192,118151,1,0,0:0:0:0:
192,192,118237,1,0,0:0:0:0:
320,192,118322,1,0,0:0:0:70:clap.wav
64,192,118408,1,0,0:0:0:0:
192,192,118494,1,0,0:0:0:0:
448,192,118579,1,0,0:0:0:0:
320,192,118665,1,0,0:0:0:0:
64,192,118751,1,0,0:0:0:0:
448,192,118837,1,0,0:0:0:0:
192,192,118922,1,0,0:0:0:0:
320,192,119008,1,0,0:0:0:70:clap.wav
64,192,119094,1,0,0:0:0:0:
192,192,119179,1,0,0:0:0:0:
448,192,119265,1,0,0:0:0:0:
320,192,119351,1,0,0:0:0:0:
64,192,119522,1,0,0:0:0:0:
192,192,119651,128,0,120208:0:0:0:0:
320,192,120037,128,0,120208:0:0:0:0:
64,192,120379,1,0,0:0:0:0:
448,192,120422,128,0,120637:0:0:0:0:
