osu file format v14

[General]
AudioFilename: audio.mp3
AudioLeadIn: 0
PreviewTime: 76151
Countdown: 0
SampleSet: Normal
StackLeniency: 0.7
Mode: 1
LetterboxInBreaks: 0
WidescreenStoryboard: 1

[Editor]
Bookmarks: 10326,32955,54898,76841,98783,120722
DistanceSpacing: 0.8
BeatDivisor: 4
GridSize: 4
TimelineZoom: 1.999999

[Metadata]
Title:Rubber Band
TitleUnicode:Rubber Band
Artist:Jackal Queenston
ArtistUnicode:Jackal Queenston
Creator:Midnaait
Version:Oni
Source:
Tags:Vulkin -mint- qqqant Renard Slop BEST OF LAPFOX VOL 2: The Killer's Notebook vulpvibe records trax emma essex halley labs electronic instrumental english looney tunes merrie melodies marvin the martian bugs bunny mad as a mars hare hare-way to the stars music Unmixed Short Version Edit
BeatmapID:2324625
BeatmapSetID:1112418

[Difficulty]
HPDrainRate:6
CircleSize:5
OverallDifficulty:6
ApproachRate:9
SliderMultiplier:1.4
SliderTickRate:1

[Events]
//Background and Video events
0,0,"purple_slider.jpg",0,0
//Break Periods
//Storyboard Layer 0 (Background)
//Storyboard Layer 1 (Fail)
//Storyboard Layer 2 (Pass)
//Storyboard Layer 3 (Foreground)
//Storyboard Layer 4 (Overlay)
//Storyboard Sound Samples

[TimingPoints]
37,342.857142857143,4,1,0,90,1,0
76837,-100,4,1,0,90,0,1
98094,-100,4,1,0,90,0,0

[HitObjects]
94,167,10322,5,0,0:0:0:0:
150,163,10408,1,0,0:0:0:0:
150,163,10494,1,8,0:0:0:0:
150,163,10579,1,8,0:0:0:0:
150,163,10665,1,8,0:0:0:0:
150,163,10837,1,0,0:0:0:0:
150,163,10922,1,0,0:0:0:0:
150,163,11008,1,8,0:0:0:0:
145,172,11351,1,8,0:0:0:0:
145,172,11522,1,0,0:0:0:0:
145,172,11694,1,8,0:0:0:0:
113,171,11779,1,8,0:0:0:0:
129,171,11865,1,0,0:0:0:0:
145,172,12037,1,8,0:0:0:0:
145,172,12379,1,0,0:0:0:0:
145,172,12551,1,0,0:0:0:0:
145,172,12722,1,8,0:0:0:0:
145,172,12894,1,0,0:0:0:0:
145,172,13065,1,8,0:0:0:0:
143,163,13151,1,8,0:0:0:0:
145,172,13237,1,0,0:0:0:0:
145,172,13408,1,8,0:0:0:0:
139,172,13579,1,0,0:0:0:0:
145,172,13751,1,0,0:0:0:0:
145,172,14094,1,8,0:0:0:0:
145,172,14265,1,0,0:0:0:0:
145,172,14437,1,8,0:0:0:0:
132,158,14522,1,8,0:0:0:0:
125,161,14608,1,0,0:0:0:0:
145,172,14779,1,8,0:0:0:0:
145,172,15122,1,0,0:0:0:0:
145,172,15294,1,0,0:0:0:0:
164,173,15465,1,8,0:0:0:0:
145,172,15637,1,0,0:0:0:0:
145,172,15808,1,0,0:0:0:0:
155,166,15894,1,8,0:0:0:0:
155,166,15979,1,0,0:0:0:0:
145,172,16151,1,8,0:0:0:0:
154,173,16322,1,0,0:0:0:0:
154,172,16408,1,0,0:0:0:0:
145,172,16494,1,0,0:0:0:0:
145,172,16837,1,8,0:0:0:0:
145,172,17008,1,0,0:0:0:0:
145,172,17179,1,8,0:0:0:0:
153,165,17265,1,8,0:0:0:0:
153,165,17351,1,0,0:0:0:0:
145,172,17522,1,8,0:0:0:0:
145,172,17865,1,0,0:0:0:0:
142,180,18037,1,0,0:0:0:0:
145,172,18208,1,8,0:0:0:0:
145,172,18379,1,0,0:0:0:0:
145,172,18551,1,8,0:0:0:0:
148,164,18637,1,8,0:0:0:0:
145,172,18722,1,0,0:0:0:0:
145,172,18894,1,8,0:0:0:0:
145,172,19065,1,0,0:0:0:0:
145,172,19237,1,0,0:0:0:0:
150,177,19579,1,8,0:0:0:0:
151,177,19751,1,0,0:0:0:0:
151,177,19922,1,8,0:0:0:0:
148,164,20008,1,8,0:0:0:0:
148,164,20094,1,0,0:0:0:0:
151,177,20265,1,8,0:0:0:0:
150,177,20608,1,0,0:0:0:0:
149,163,20779,1,0,0:0:0:0:
151,177,20951,1,8,0:0:0:0:
151,177,21294,1,0,0:0:0:0:
159,178,21379,1,0,0:0:0:0:
150,177,21465,1,8,0:0:0:0:
150,177,21551,1,8,0:0:0:0:
151,177,21637,1,8,0:0:0:0:
151,177,21808,1,0,0:0:0:0:
151,177,21894,1,0,0:0:0:0:
162,180,21979,1,8,0:0:0:0:
145,172,22322,1,8,0:0:0:0:
145,172,22494,1,0,0:0:0:0:
145,172,22665,1,8,0:0:0:0:
113,171,22751,1,8,0:0:0:0:
129,171,22837,1,0,0:0:0:0:
145,172,23008,1,8,0:0:0:0:
145,172,23351,1,0,0:0:0:0:
145,172,23522,1,0,0:0:0:0:
145,172,23694,1,8,0:0:0:0:
145,172,23865,1,0,0:0:0:0:
145,172,24037,1,8,0:0:0:0:
143,163,24122,1,8,0:0:0:0:
145,172,24208,1,0,0:0:0:0:
145,172,24379,1,8,0:0:0:0:
145,172,24551,1,0,0:0:0:0:
145,172,24722,1,0,0:0:0:0:
145,172,25065,1,8,0:0:0:0:
145,172,25237,1,0,0:0:0:0:
145,172,25408,1,8,0:0:0:0:
132,158,25494,1,8,0:0:0:0:
125,161,25579,1,0,0:0:0:0:
145,172,25751,1,8,0:0:0:0:
145,172,26094,1,0,0:0:0:0:
145,172,26265,1,0,0:0:0:0:
164,173,26437,1,8,0:0:0:0:
145,172,26608,1,0,0:0:0:0:
145,172,26779,1,8,0:0:0:0:
155,166,26865,1,8,0:0:0:0:
155,166,26951,1,0,0:0:0:0:
145,172,27122,1,8,0:0:0:0:
118,272,27465,1,8,0:0:0:0:
118,272,27637,1,0,0:0:0:0:
118,272,27722,1,0,0:0:0:0:
118,272,27808,1,8,0:0:0:0:
118,272,27979,1,0,0:0:0:0:
118,272,28151,1,8,0:0:0:0:
118,272,28237,1,8,0:0:0:0:
118,272,28322,1,0,0:0:0:0:
118,272,28494,1,8,0:0:0:0:
118,272,28579,1,8,0:0:0:0:
118,272,28665,1,0,0:0:0:0:
118,272,28751,1,0,0:0:0:0:
118,272,28837,1,8,0:0:0:0:
118,272,29008,1,0,0:0:0:0:
118,272,29094,1,0,0:0:0:0:
118,272,29179,1,8,0:0:0:0:
118,272,29351,1,0,0:0:0:0:
118,272,29522,1,8,0:0:0:0:
118,272,29608,1,8,0:0:0:0:
118,272,29694,1,0,0:0:0:0:
118,272,29779,1,0,0:0:0:0:
118,272,29865,1,8,0:0:0:0:
118,272,30037,1,0,0:0:0:0:
118,272,30208,1,0,0:0:0:0:
118,272,30379,1,0,0:0:0:0:
118,272,30465,1,0,0:0:0:0:
118,272,30551,1,8,0:0:0:0:
118,272,30637,1,8,0:0:0:0:
118,272,30722,1,0,0:0:0:0:
118,272,30894,1,8,0:0:0:0:
118,272,30979,1,0,0:0:0:0:
118,272,31065,1,0,0:0:0:0:
118,272,31151,1,0,0:0:0:0:
118,272,31237,1,8,0:0:0:0:
118,272,31408,1,0,0:0:0:0:
118,272,31494,1,8,0:0:0:0:
118,272,31579,1,0,0:0:0:0:
146,130,31922,2,0,L|266:218,1,140
150,247,32608,1,8,0:0:0:0:
150,163,32951,1,4,0:0:0:0:
145,172,33294,1,8,0:0:0:0:
145,172,33465,1,0,0:0:0:0:
145,172,33637,1,8,0:0:0:0:
113,171,33722,1,8,0:0:0:0:
129,171,33808,1,0,0:0:0:0:
145,172,33979,1,8,0:0:0:0:
145,172,34322,1,0,0:0:0:0:
145,172,34494,1,0,0:0:0:0:
145,172,34665,1,8,0:0:0:0:
145,172,34837,1,0,0:0:0:0:
160,163,34922,1,8,0:0:0:0:
173,158,35008,1,8,0:0:0:0:
143,163,35094,1,8,0:0:0:0:
145,172,35179,1,0,0:0:0:0:
145,172,35351,1,8,0:0:0:0:
145,172,35522,1,0,0:0:0:0:
145,172,35694,1,0,0:0:0:0:
145,172,36037,1,8,0:0:0:0:
145,172,36208,1,0,0:0:0:0:
159,156,36294,1,0,0:0:0:0:
145,172,36379,1,8,0:0:0:0:
132,158,36465,1,8,0:0:0:0:
125,161,36551,1,0,0:0:0:0:
145,172,36722,1,8,0:0:0:0:
145,172,37065,1,0,0:0:0:0:
145,172,37237,1,0,0:0:0:0:
164,173,37408,1,8,0:0:0:0:
145,172,37579,1,0,0:0:0:0:
145,172,37751,1,0,0:0:0:0:
155,166,37837,1,8,0:0:0:0:
155,166,37922,1,0,0:0:0:0:
145,172,38094,1,8,0:0:0:0:
154,173,38265,1,0,0:0:0:0:
154,172,38351,1,0,0:0:0:0:
145,172,38437,1,0,0:0:0:0:
145,172,38779,1,8,0:0:0:0:
145,172,38951,1,0,0:0:0:0:
145,172,39122,1,8,0:0:0:0:
153,165,39208,1,8,0:0:0:0:
153,165,39294,1,0,0:0:0:0:
145,172,39465,1,8,0:0:0:0:
145,172,39808,1,0,0:0:0:0:
142,180,39979,1,0,0:0:0:0:
148,164,40065,1,0,0:0:0:0:
145,172,40151,1,8,0:0:0:0:
145,172,40322,1,0,0:0:0:0:
145,172,40494,1,8,0:0:0:0:
148,164,40579,1,8,0:0:0:0:
145,172,40665,1,0,0:0:0:0:
145,172,40837,1,8,0:0:0:0:
145,172,41008,1,0,0:0:0:0:
145,172,41179,1,0,0:0:0:0:
150,177,41522,1,8,0:0:0:0:
151,177,41694,1,0,0:0:0:0:
141,163,41779,1,8,0:0:0:0:
151,177,41865,1,8,0:0:0:0:
148,164,41951,1,8,0:0:0:0:
148,164,42037,1,0,0:0:0:0:
151,177,42208,1,8,0:0:0:0:
150,177,42551,1,0,0:0:0:0:
149,163,42722,1,0,0:0:0:0:
151,177,42894,1,8,0:0:0:0:
142,158,43065,1,0,0:0:0:0:
151,177,43237,1,8,0:0:0:0:
159,178,43322,1,8,0:0:0:0:
150,177,43408,1,0,0:0:0:0:
148,164,43494,1,0,0:0:0:0:
151,177,43579,1,8,0:0:0:0:
151,177,43751,1,8,0:0:0:0:
162,180,43922,1,4,0:0:0:0:
145,172,44265,1,8,0:0:0:0:
145,172,44437,1,0,0:0:0:0:
145,172,44608,1,8,0:0:0:0:
113,171,44694,1,8,0:0:0:0:
129,171,44779,1,0,0:0:0:0:
145,172,44951,1,8,0:0:0:0:
145,172,45294,1,0,0:0:0:0:
156,179,45379,1,0,0:0:0:0:
145,172,45465,1,0,0:0:0:0:
145,172,45637,1,8,0:0:0:0:
145,172,45808,1,0,0:0:0:0:
145,172,45979,1,8,0:0:0:0:
145,172,46151,1,0,0:0:0:0:
143,163,46237,1,0,0:0:0:0:
145,172,46322,1,8,0:0:0:0:
145,172,46494,1,8,0:0:0:0:
145,172,46665,1,0,0:0:0:0:
145,172,47008,1,8,0:0:0:0:
145,172,47179,1,0,0:0:0:0:
159,150,47265,1,0,0:0:0:0:
145,172,47351,1,8,0:0:0:0:
132,158,47437,1,8,0:0:0:0:
125,161,47522,1,0,0:0:0:0:
145,172,47694,1,8,0:0:0:0:
145,172,48037,1,0,0:0:0:0:
145,172,48208,1,0,0:0:0:0:
164,173,48379,1,8,0:0:0:0:
145,172,48551,1,8,0:0:0:0:
151,149,48637,1,8,0:0:0:0:
145,172,48722,1,0,0:0:0:0:
155,166,48808,1,8,0:0:0:0:
143,180,48894,1,0,0:0:0:0:
145,172,49065,1,8,0:0:0:0:
118,272,49408,1,0,0:0:0:0:
118,272,49579,1,0,0:0:0:0:
118,272,49665,1,0,0:0:0:0:
118,272,49751,1,8,0:0:0:0:
118,272,49922,1,0,0:0:0:0:
118,272,50094,1,8,0:0:0:0:
118,272,50179,1,8,0:0:0:0:
118,272,50265,1,0,0:0:0:0:
118,272,50351,1,0,0:0:0:0:
118,272,50437,1,8,0:0:0:0:
118,272,50608,1,0,0:0:0:0:
118,272,50694,1,8,0:0:0:0:
118,272,50779,1,0,0:0:0:0:
118,272,50951,1,0,0:0:0:0:
118,272,51122,1,8,0:0:0:0:
118,272,51294,1,0,0:0:0:0:
118,272,51465,1,8,0:0:0:0:
118,272,51551,1,8,0:0:0:0:
118,272,51637,1,8,0:0:0:0:
118,272,51722,1,0,0:0:0:0:
118,272,51808,1,8,0:0:0:0:
118,272,51979,1,0,0:0:0:0:
118,272,52065,1,0,0:0:0:0:
118,272,52151,1,0,0:0:0:0:
118,272,52322,1,0,0:0:0:0:
118,272,52408,1,0,0:0:0:0:
118,272,52494,1,8,0:0:0:0:
118,272,52665,1,8,0:0:0:0:
118,272,52837,1,0,0:0:0:0:
118,272,52922,1,8,0:0:0:0:
118,272,53008,1,0,0:0:0:0:
118,272,53094,1,0,0:0:0:0:
118,272,53179,1,8,0:0:0:0:
118,272,53351,1,0,0:0:0:0:
118,272,53522,1,0,0:0:0:0:
102,267,53608,1,0,0:0:0:0:
102,267,53694,1,0,0:0:0:0:
103,265,53865,1,8,0:0:0:0:
103,266,53951,1,0,0:0:0:0:
119,264,54037,1,0,0:0:0:0:
139,274,54122,1,8,0:0:0:0:
134,249,54379,1,8,0:0:0:0:
131,248,54465,1,8,0:0:0:0:
131,249,54551,1,0,0:0:0:0:
131,249,54637,1,0,0:0:0:0:
132,248,54722,1,8,0:0:0:0:
150,163,54894,1,4,0:0:0:0:
145,172,55237,1,8,0:0:0:0:
145,172,55408,1,0,0:0:0:0:
119,164,55494,1,8,0:0:0:0:
145,172,55579,1,0,0:0:0:0:
129,171,55751,1,0,0:0:0:0:
145,172,55922,1,8,0:0:0:0:
145,172,56265,1,0,0:0:0:0:
145,172,56437,1,0,0:0:0:0:
145,172,56608,1,8,0:0:0:0:
145,172,56779,1,0,0:0:0:0:
160,163,56865,1,0,0:0:0:0:
173,158,56951,1,8,0:0:0:0:
143,163,57037,1,8,0:0:0:0:
145,172,57122,1,0,0:0:0:0:
145,172,57294,1,8,0:0:0:0:
145,172,57465,1,0,0:0:0:0:
145,172,57637,1,8,0:0:0:0:
145,172,57979,1,8,0:0:0:0:
145,172,58151,1,0,0:0:0:0:
132,158,58237,1,8,0:0:0:0:
145,172,58322,1,8,0:0:0:0:
125,161,58494,1,0,0:0:0:0:
145,172,58665,1,8,0:0:0:0:
145,172,59008,1,0,0:0:0:0:
145,172,59179,1,0,0:0:0:0:
164,173,59351,1,8,0:0:0:0:
145,172,59522,1,0,0:0:0:0:
145,172,59694,1,8,0:0:0:0:
155,166,59779,1,8,0:0:0:0:
155,166,59865,1,0,0:0:0:0:
151,149,59951,1,0,0:0:0:0:
145,172,60037,1,8,0:0:0:0:
154,173,60208,1,0,0:0:0:0:
145,172,60379,1,0,0:0:0:0:
145,172,60722,1,8,0:0:0:0:
145,172,60894,1,0,0:0:0:0:
150,171,60979,1,8,0:0:0:0:
145,172,61065,1,0,0:0:0:0:
153,165,61237,1,0,0:0:0:0:
145,172,61408,1,8,0:0:0:0:
145,172,61751,1,0,0:0:0:0:
142,180,61922,1,0,0:0:0:0:
145,172,62094,1,8,0:0:0:0:
145,172,62265,1,0,0:0:0:0:
145,172,62437,1,8,0:0:0:0:
148,164,62522,1,8,0:0:0:0:
145,172,62608,1,0,0:0:0:0:
148,164,62694,1,0,0:0:0:0:
145,172,62779,1,8,0:0:0:0:
145,172,63122,1,0,0:0:0:0:
132,159,63294,1,8,0:0:0:0:
150,177,63465,1,0,0:0:0:0:
151,177,63637,1,8,0:0:0:0:
151,177,63808,1,0,0:0:0:0:
154,164,63894,1,8,0:0:0:0:
148,164,63979,1,0,0:0:0:0:
151,177,64151,1,8,0:0:0:0:
148,164,64322,1,0,0:0:0:0:
154,164,64408,1,0,0:0:0:0:
150,177,64494,1,8,0:0:0:0:
149,163,64665,1,0,0:0:0:0:
151,177,64837,1,8,0:0:0:0:
142,158,65008,1,8,0:0:0:0:
151,177,65179,1,0,0:0:0:0:
157,176,65265,1,0,0:0:0:0:
150,177,65351,1,0,0:0:0:0:
148,164,65437,1,0,0:0:0:0:
151,177,65522,1,8,0:0:0:0:
162,180,65865,1,4,0:0:0:0:
145,172,66208,1,8,0:0:0:0:
145,172,66379,1,8,0:0:0:0:
119,164,66465,1,0,0:0:0:0:
145,172,66551,1,0,0:0:0:0:
129,171,66722,1,0,0:0:0:0:
145,172,66894,1,8,0:0:0:0:
145,172,67237,1,0,0:0:0:0:
145,172,67408,1,0,0:0:0:0:
145,172,67579,1,8,0:0:0:0:
145,172,67751,1,0,0:0:0:0:
160,163,67837,1,0,0:0:0:0:
173,158,67922,1,8,0:0:0:0:
143,163,68008,1,8,0:0:0:0:
145,172,68094,1,0,0:0:0:0:
145,172,68265,1,8,0:0:0:0:
179,165,68437,1,0,0:0:0:0:
145,172,68608,1,8,0:0:0:0:
145,172,68951,1,8,0:0:0:0:
145,172,69122,1,0,0:0:0:0:
145,172,69294,1,8,0:0:0:0:
132,158,69379,1,8,0:0:0:0:
125,161,69465,1,0,0:0:0:0:
145,172,69637,1,8,0:0:0:0:
145,172,69979,1,0,0:0:0:0:
145,172,70151,1,0,0:0:0:0:
164,173,70322,1,8,0:0:0:0:
145,172,70494,1,0,0:0:0:0:
145,172,70665,1,8,0:0:0:0:
155,166,70751,1,8,0:0:0:0:
155,166,70837,1,0,0:0:0:0:
151,149,70922,1,0,0:0:0:0:
145,172,71008,1,8,0:0:0:0:
118,272,71351,1,0,0:0:0:0:
118,272,71522,1,0,0:0:0:0:
118,272,71608,1,0,0:0:0:0:
118,272,71694,1,8,0:0:0:0:
118,272,71865,1,0,0:0:0:0:
118,272,72037,1,8,0:0:0:0:
118,272,72122,1,8,0:0:0:0:
118,272,72208,1,0,0:0:0:0:
118,272,72294,1,0,0:0:0:0:
118,272,72379,1,8,0:0:0:0:
118,272,72551,1,0,0:0:0:0:
118,272,72637,1,8,0:0:0:0:
118,272,72722,1,0,0:0:0:0:
118,272,72894,1,0,0:0:0:0:
118,272,72979,1,0,0:0:0:0:
118,272,73065,1,8,0:0:0:0:
118,272,73237,1,0,0:0:0:0:
118,272,73408,1,8,0:0:0:0:
118,272,73494,1,8,0:0:0:0:
118,272,73579,1,0,0:0:0:0:
118,272,73665,1,8,0:0:0:0:
118,272,73751,1,8,0:0:0:0:
118,272,73922,1,0,0:0:0:0:
118,272,74094,1,0,0:0:0:0:
118,272,74265,1,8,0:0:0:0:
118,272,74351,1,8,0:0:0:0:
118,272,74437,1,8,0:0:0:0:
118,272,74608,1,8,0:0:0:0:
118,272,74694,1,8,0:0:0:0:
118,272,74779,1,0,0:0:0:0:
118,272,74951,1,0,0:0:0:0:
118,272,75037,1,0,0:0:0:0:
118,272,75122,1,8,0:0:0:0:
118,272,75294,1,0,0:0:0:0:
118,272,75379,1,8,0:0:0:0:
118,272,75465,1,0,0:0:0:0:
102,267,75637,1,8,0:0:0:0:
103,266,75722,1,0,0:0:0:0:
103,265,75808,1,8,0:0:0:0:
119,264,75979,1,8,0:0:0:0:
144,177,76237,1,0,0:0:0:0:
153,172,76322,1,8,0:0:0:0:
156,173,76408,1,8,0:0:0:0:
156,173,76494,1,0,0:0:0:0:
157,173,76579,1,0,0:0:0:0:
157,173,76665,1,8,0:0:0:0:
87,178,76837,1,4,0:0:0:0:
87,178,77179,1,8,0:0:0:0:
128,166,77351,1,0,0:0:0:0:
128,166,77522,1,0,0:0:0:0:
136,175,77608,1,8,0:0:0:0:
128,166,77694,1,0,0:0:0:0:
128,166,77865,1,8,0:0:0:0:
128,166,78037,1,8,0:0:0:0:
128,174,78122,1,8,0:0:0:0:
128,166,78208,1,0,0:0:0:0:
128,166,78379,1,0,0:0:0:0:
128,166,78551,1,8,0:0:0:0:
128,166,78722,1,0,0:0:0:0:
128,166,78894,1,8,0:0:0:0:
156,171,78979,1,8,0:0:0:0:
128,166,79065,1,0,0:0:0:0:
128,166,79237,1,8,0:0:0:0:
128,166,79408,1,8,0:0:0:0:
128,166,79579,1,0,0:0:0:0:
87,178,79922,1,8,0:0:0:0:
128,166,80094,1,8,0:0:0:0:
128,166,80265,1,0,0:0:0:0:
136,175,80351,1,8,0:0:0:0:
128,166,80437,1,0,0:0:0:0:
128,166,80608,1,8,0:0:0:0:
128,166,80779,1,8,0:0:0:0:
128,174,80865,1,8,0:0:0:0:
128,166,80951,1,0,0:0:0:0:
128,166,81122,1,0,0:0:0:0:
128,166,81294,1,8,0:0:0:0:
128,166,81465,1,0,0:0:0:0:
156,171,81551,1,0,0:0:0:0:
128,166,81637,1,8,0:0:0:0:
156,171,81722,1,8,0:0:0:0:
128,166,81808,1,0,0:0:0:0:
128,166,81979,1,8,0:0:0:0:
128,166,82151,1,8,0:0:0:0:
128,166,82322,1,0,0:0:0:0:
87,178,82665,1,8,0:0:0:0:
128,166,82837,1,0,0:0:0:0:
128,166,83008,1,0,0:0:0:0:
136,175,83094,1,8,0:0:0:0:
128,166,83179,1,0,0:0:0:0:
128,166,83351,1,8,0:0:0:0:
128,166,83522,1,0,0:0:0:0:
128,174,83608,1,8,0:0:0:0:
128,166,83694,1,0,0:0:0:0:
128,166,83865,1,0,0:0:0:0:
128,166,84037,1,8,0:0:0:0:
128,166,84208,1,0,0:0:0:0:
128,166,84379,1,0,0:0:0:0:
156,171,84465,1,8,0:0:0:0:
128,166,84551,1,8,0:0:0:0:
128,166,84722,1,0,0:0:0:0:
128,166,84894,1,8,0:0:0:0:
128,166,85065,1,0,0:0:0:0:
87,178,85408,1,8,0:0:0:0:
128,166,85579,1,0,0:0:0:0:
128,166,85751,1,8,0:0:0:0:
136,175,85837,1,8,0:0:0:0:
128,166,85922,1,0,0:0:0:0:
92,189,86008,1,0,0:0:0:0:
128,166,86094,1,8,0:0:0:0:
128,166,86265,1,8,0:0:0:0:
128,166,86437,1,0,0:0:0:0:
128,166,86608,1,0,0:0:0:0:
111,166,86694,1,0,0:0:0:0:
128,166,86779,1,8,0:0:0:0:
128,166,86951,1,8,0:0:0:0:
128,166,87122,1,0,0:0:0:0:
156,171,87208,1,8,0:0:0:0:
128,166,87294,1,0,0:0:0:0:
128,166,87465,1,8,0:0:0:0:
128,166,87637,1,8,0:0:0:0:
87,178,87808,1,4,0:0:0:0:
87,178,88151,1,8,0:0:0:0:
128,166,88322,1,0,0:0:0:0:
128,166,88494,1,0,0:0:0:0:
136,175,88579,1,8,0:0:0:0:
128,166,88665,1,0,0:0:0:0:
128,166,88837,1,8,0:0:0:0:
128,166,89008,1,8,0:0:0:0:
128,174,89094,1,8,0:0:0:0:
128,166,89179,1,0,0:0:0:0:
128,166,89351,1,0,0:0:0:0:
142,167,89437,1,0,0:0:0:0:
128,166,89522,1,8,0:0:0:0:
128,166,89694,1,0,0:0:0:0:
128,166,89865,1,8,0:0:0:0:
156,171,89951,1,8,0:0:0:0:
128,166,90037,1,0,0:0:0:0:
156,171,90122,1,0,0:0:0:0:
128,166,90208,1,8,0:0:0:0:
128,166,90379,1,8,0:0:0:0:
128,166,90551,1,0,0:0:0:0:
87,178,90894,1,8,0:0:0:0:
128,166,91065,1,0,0:0:0:0:
134,159,91151,1,0,0:0:0:0:
128,166,91237,1,8,0:0:0:0:
136,175,91322,1,8,0:0:0:0:
128,166,91408,1,0,0:0:0:0:
128,166,91579,1,8,0:0:0:0:
128,166,91751,1,0,0:0:0:0:
128,174,91837,1,8,0:0:0:0:
128,166,91922,1,0,0:0:0:0:
128,166,92094,1,0,0:0:0:0:
128,166,92265,1,8,0:0:0:0:
128,166,92437,1,0,0:0:0:0:
128,166,92608,1,0,0:0:0:0:
156,171,92694,1,8,0:0:0:0:
128,166,92779,1,8,0:0:0:0:
147,168,92865,1,8,0:0:0:0:
128,166,92951,1,0,0:0:0:0:
128,166,93122,1,8,0:0:0:0:
118,272,93294,1,0,0:0:0:0:
118,272,93465,1,8,0:0:0:0:
118,272,93551,1,8,0:0:0:0:
118,272,93637,1,8,0:0:0:0:
118,272,93808,1,0,0:0:0:0:
118,272,93894,1,0,0:0:0:0:
118,272,93979,1,8,0:0:0:0:
118,272,94065,1,8,0:0:0:0:
118,272,94151,1,0,0:0:0:0:
118,272,94322,1,8,0:0:0:0:
118,272,94494,1,0,0:0:0:0:
118,272,94579,1,8,0:0:0:0:
118,272,94665,1,0,0:0:0:0:
118,272,94837,1,0,0:0:0:0:
118,272,94922,1,0,0:0:0:0:
118,272,95008,1,8,0:0:0:0:
118,272,95179,1,8,0:0:0:0:
118,272,95265,1,8,0:0:0:0:
118,272,95351,1,0,0:0:0:0:
118,272,95522,1,8,0:0:0:0:
118,272,95608,1,0,0:0:0:0:
118,272,95694,1,8,0:0:0:0:
118,272,95779,1,0,0:0:0:0:
118,272,95865,1,8,0:0:0:0:
118,272,96037,1,0,0:0:0:0:
118,272,96208,1,0,0:0:0:0:
118,272,96294,1,0,0:0:0:0:
118,272,96379,1,8,0:0:0:0:
118,272,96551,1,0,0:0:0:0:
118,272,96637,1,0,0:0:0:0:
118,272,96722,1,8,0:0:0:0:
118,272,96808,1,8,0:0:0:0:
118,272,96894,1,0,0:0:0:0:
118,272,97065,1,8,0:0:0:0:
118,272,97237,1,8,0:0:0:0:
118,272,97322,1,8,0:0:0:0:
118,272,97408,1,0,0:0:0:0:
131,248,97579,1,8,0:0:0:0:
93,119,97751,2,0,L|239:189,1,140
150,247,98437,1,8,0:0:0:0:
160,231,98779,1,4,0:0:0:0:
171,229,98951,1,8,0:0:0:0:
171,229,99122,1,0,0:0:0:0:
170,229,99294,1,0,0:0:0:0:
162,223,99379,1,0,0:0:0:0:
170,229,99465,1,8,0:0:0:0:
170,229,99637,1,0,0:0:0:0:
170,229,99808,1,8,0:0:0:0:
171,229,99979,1,8,0:0:0:0:
171,229,100151,1,0,0:0:0:0:
170,229,100322,1,0,0:0:0:0:
170,229,100494,1,8,0:0:0:0:
170,229,100665,1,8,0:0:0:0:
149,210,100751,1,8,0:0:0:0:
170,229,100837,1,0,0:0:0:0:
171,229,101008,1,8,0:0:0:0:
171,229,101179,1,0,0:0:0:0:
170,229,101351,1,8,0:0:0:0:
160,231,101522,1,0,0:0:0:0:
171,229,101865,1,0,0:0:0:0:
170,229,102037,1,0,0:0:0:0:
170,229,102208,1,8,0:0:0:0:
162,211,102294,1,8,0:0:0:0:
170,229,102379,1,0,0:0:0:0:
170,229,102551,1,8,0:0:0:0:
171,229,102722,1,8,0:0:0:0:
171,229,102894,1,0,0:0:0:0:
170,229,103065,1,8,0:0:0:0:
170,229,103237,1,8,0:0:0:0:
170,229,103408,1,8,0:0:0:0:
170,229,103579,1,0,0:0:0:0:
171,216,103665,1,0,0:0:0:0:
171,229,103751,1,8,0:0:0:0:
171,229,103922,1,0,0:0:0:0:
170,229,104094,1,8,0:0:0:0:
160,231,104265,1,0,0:0:0:0:
171,229,104608,1,0,0:0:0:0:
170,229,104779,1,0,0:0:0:0:
170,229,104951,1,8,0:0:0:0:
177,224,105122,1,0,0:0:0:0:
177,224,105208,1,0,0:0:0:0:
170,229,105294,1,8,0:0:0:0:
171,229,105465,1,8,0:0:0:0:
171,229,105637,1,0,0:0:0:0:
170,229,105808,1,8,0:0:0:0:
170,229,105979,1,8,0:0:0:0:
170,229,106151,1,8,0:0:0:0:
170,229,106322,1,0,0:0:0:0:
168,194,106408,1,0,0:0:0:0:
171,229,106494,1,8,0:0:0:0:
171,229,106665,1,8,0:0:0:0:
170,229,106837,1,8,0:0:0:0:
160,231,107008,1,0,0:0:0:0:
171,229,107351,1,0,0:0:0:0:
170,229,107522,1,0,0:0:0:0:
157,221,107608,1,0,0:0:0:0:
170,229,107694,1,8,0:0:0:0:
170,229,107865,1,0,0:0:0:0:
170,229,108037,1,8,0:0:0:0:
171,229,108208,1,0,0:0:0:0:
156,220,108294,1,8,0:0:0:0:
171,229,108379,1,0,0:0:0:0:
170,229,108551,1,0,0:0:0:0:
170,229,108722,1,8,0:0:0:0:
170,229,108894,1,8,0:0:0:0:
170,229,109065,1,0,0:0:0:0:
179,231,109151,1,0,0:0:0:0:
171,229,109237,1,8,0:0:0:0:
179,230,109322,1,8,0:0:0:0:
171,229,109408,1,8,0:0:0:0:
178,229,109494,1,8,0:0:0:0:
170,229,109579,1,0,0:0:0:0:
160,231,109751,1,4,0:0:0:0:
171,229,110094,1,0,0:0:0:0:
170,229,110265,1,0,0:0:0:0:
170,229,110437,1,8,0:0:0:0:
162,224,110522,1,0,0:0:0:0:
170,229,110608,1,0,0:0:0:0:
170,229,110779,1,8,0:0:0:0:
171,229,110951,1,8,0:0:0:0:
171,229,111122,1,0,0:0:0:0:
170,229,111294,1,0,0:0:0:0:
162,223,111379,1,0,0:0:0:0:
170,229,111465,1,8,0:0:0:0:
170,229,111637,1,8,0:0:0:0:
170,229,111808,1,0,0:0:0:0:
161,222,111894,1,8,0:0:0:0:
171,229,111979,1,8,0:0:0:0:
171,229,112151,1,0,0:0:0:0:
170,229,112322,1,8,0:0:0:0:
160,231,112494,1,0,0:0:0:0:
171,229,112837,1,0,0:0:0:0:
170,229,113008,1,0,0:0:0:0:
167,216,113094,1,0,0:0:0:0:
170,229,113179,1,8,0:0:0:0:
170,229,113351,1,0,0:0:0:0:
170,229,113522,1,8,0:0:0:0:
181,226,113608,1,8,0:0:0:0:
171,229,113694,1,8,0:0:0:0:
171,229,113865,1,0,0:0:0:0:
170,229,114037,1,0,0:0:0:0:
170,229,114208,1,8,0:0:0:0:
170,229,114379,1,8,0:0:0:0:
170,229,114551,1,0,0:0:0:0:
171,233,114637,1,0,0:0:0:0:
171,229,114722,1,8,0:0:0:0:
171,229,114894,1,8,0:0:0:0:
170,229,115065,1,8,0:0:0:0:
118,272,115237,1,0,0:0:0:0:
118,272,115408,1,0,0:0:0:0:
118,272,115494,1,0,0:0:0:0:
118,272,115579,1,8,0:0:0:0:
118,272,115751,1,0,0:0:0:0:
118,272,115922,1,8,0:0:0:0:
118,272,116008,1,8,0:0:0:0:
118,272,116094,1,0,0:0:0:0:
118,272,116265,1,8,0:0:0:0:
118,272,116351,1,8,0:0:0:0:
118,272,116437,1,0,0:0:0:0:
118,272,116522,1,0,0:0:0:0:
118,272,116608,1,8,0:0:0:0:
118,272,116779,1,0,0:0:0:0:
118,272,116951,1,8,0:0:0:0:
118,272,117037,1,8,0:0:0:0:
118,272,117122,1,0,0:0:0:0:
118,272,117208,1,8,0:0:0:0:
118,272,117294,1,0,0:0:0:0:
118,272,117465,1,0,0:0:0:0:
118,272,117551,1,0,0:0:0:0:
118,272,117637,1,8,0:0:0:0:
118,272,117808,1,8,0:0:0:0:
118,272,117979,1,0,0:0:0:0:
118,272,118151,1,0,0:0:0:0:
118,272,118237,1,0,0:0:0:0:
118,272,118322,1,8,0:0:0:0:
118,272,118494,1,0,0:0:0:0:
118,272,118665,1,8,0:0:0:0:
118,272,118751,1,8,0:0:0:0:
118,272,118837,1,0,0:0:0:0:
118,272,118922,1,0,0:0:0:0:
118,272,119008,1,8,0:0:0:0:
118,272,119179,1,8,0:0:0:0:
118,272,119265,1,8,0:0:0:0:
118,272,119351,1,0,0:0:0:0:
131,248,119522,1,8,0:0:0:0:
129,182,119694,2,0,L|268:159,1,140
150,247,120379,1,8,0:0:0:0:
