osu file format v14

[General]
AudioFilename: audio.mp3
AudioLeadIn: 0
PreviewTime: -1
Countdown: 0
SampleSet: None
StackLeniency: 0.7
Mode: 3
LetterboxInBreaks: 0
SpecialStyle: 0
WidescreenStoryboard: 1

[Editor]
Bookmarks: 44124
DistanceSpacing: 1
BeatDivisor: 2
GridSize: 32
TimelineZoom: 1.8

[Metadata]
Title:Redwood
TitleUnicode:Redwood
Artist:Jackal Queenston
ArtistUnicode:Jackal Queenston
Creator:Nivrad00
Version:notes
Source:
Tags:B-SIDE U 201X OVERFLOW halley labs lapfox trax
BeatmapID:1625518
BeatmapSetID:773303

[Difficulty]
HPDrainRate:8
CircleSize:7
OverallDifficulty:8
ApproachRate:5
SliderMultiplier:1.4
SliderTickRate:1

[Events]
//Background and Video events
0,0,"redwood3.png",0,0
//Break Periods
//Storyboard Layer 0 (Background)
//Storyboard Layer 1 (Fail)
//Storyboard Layer 2 (Pass)
//Storyboard Layer 3 (Foreground)
//Storyboard Sound Samples

[TimingPoints]
33090,344.827586206897,4,2,0,30,1,0

[HitObjects]
36,192,44124,5,0,0:0:0:0:
109,192,44124,1,0,0:0:0:0:
182,192,44124,1,0,0:0:0:0:
256,192,44124,1,0,0:0:0:0:
329,192,44124,1,0,0:0:0:0:
402,192,44124,1,0,0:0:0:0:
475,192,44124,1,0,0:0:0:0:
329,192,44469,5,0,0:0:0:0:
182,192,44469,1,0,0:0:0:0:
256,192,44814,1,0,0:0:0:0:
36,192,44814,1,0,0:0:0:0:
109,192,44986,1,0,0:0:0:0:
475,192,45158,1,0,0:0:0:0:
402,192,45158,1,0,0:0:0:0:
329,192,45497,1,0,0:0:0:0:
182,192,45497,1,0,0:0:0:0:
256,192,45499,1,0,0:0:0:0:
36,192,45499,1,0,0:0:0:0:
109,192,45500,1,0,0:0:0:0:
475,192,45501,1,0,0:0:0:0:
402,192,45501,1,0,0:0:0:0:
402,192,45676,1,0,0:0:0:0:
182,192,45848,1,0,0:0:0:0:
329,192,46021,1,0,0:0:0:0:
256,192,46193,1,0,0:0:0:0:
475,192,46365,1,0,0:0:0:0:
109,192,46538,1,0,0:0:0:0:
36,192,46538,1,0,0:0:0:0:
402,192,46876,1,0,0:0:0:0:
182,192,46877,1,0,0:0:0:0:
329,192,46878,1,0,0:0:0:0:
256,192,46879,1,0,0:0:0:0:
475,192,46880,1,0,0:0:0:0:
109,192,46881,1,0,0:0:0:0:
36,192,46881,1,0,0:0:0:0:
402,192,47227,1,0,0:0:0:0:
109,192,47227,1,0,0:0:0:0:
329,192,47572,1,0,0:0:0:0:
475,192,47572,1,0,0:0:0:0:
36,192,47745,1,0,0:0:0:0:
182,192,47917,1,0,0:0:0:0:
256,192,47917,1,0,0:0:0:0:
402,192,48256,1,0,0:0:0:0:
109,192,48256,1,0,0:0:0:0:
329,192,48258,1,0,0:0:0:0:
475,192,48258,1,0,0:0:0:0:
36,192,48259,1,0,0:0:0:0:
182,192,48260,1,0,0:0:0:0:
256,192,48260,1,0,0:0:0:0:
182,192,48434,1,0,0:0:0:0:
402,192,48607,1,0,0:0:0:0:
109,192,48779,1,0,0:0:0:0:
475,192,48952,1,0,0:0:0:0:
329,192,49124,1,0,0:0:0:0:
36,192,49296,1,0,0:0:0:0:
256,192,49469,1,0,0:0:0:0:
182,192,49634,1,0,0:0:0:0:
402,192,49635,1,0,0:0:0:0:
109,192,49636,1,0,0:0:0:0:
475,192,49637,1,0,0:0:0:0:
329,192,49638,1,0,0:0:0:0:
36,192,49639,1,0,0:0:0:0:
256,192,49640,1,0,0:0:0:0:
36,192,49986,5,0,0:0:0:0:
402,192,49986,1,0,0:0:0:0:
182,192,50331,1,0,0:0:0:0:
256,192,50331,1,0,0:0:0:0:
109,192,50503,1,0,0:0:0:0:
329,192,50676,1,0,0:0:0:0:
475,192,50676,1,0,0:0:0:0:
36,192,51015,1,0,0:0:0:0:
402,192,51015,1,0,0:0:0:0:
182,192,51017,1,0,0:0:0:0:
256,192,51017,1,0,0:0:0:0:
109,192,51018,1,0,0:0:0:0:
329,192,51019,1,0,0:0:0:0:
475,192,51019,1,0,0:0:0:0:
109,192,51193,1,0,0:0:0:0:
256,192,51365,1,0,0:0:0:0:
475,192,51538,1,0,0:0:0:0:
329,192,51710,1,0,0:0:0:0:
402,192,51883,1,0,0:0:0:0:
182,192,52055,1,0,0:0:0:0:
36,192,52055,1,0,0:0:0:0:
109,192,52393,1,0,0:0:0:0:
256,192,52394,1,0,0:0:0:0:
475,192,52395,1,0,0:0:0:0:
329,192,52396,1,0,0:0:0:0:
402,192,52397,1,0,0:0:0:0:
182,192,52398,1,0,0:0:0:0:
36,192,52398,1,0,0:0:0:0:
109,192,52745,1,0,0:0:0:0:
329,192,52745,1,0,0:0:0:0:
475,192,53089,1,0,0:0:0:0:
182,192,53089,1,0,0:0:0:0:
36,192,53262,1,0,0:0:0:0:
402,192,53434,1,0,0:0:0:0:
256,192,53434,1,0,0:0:0:0:
109,192,53773,1,0,0:0:0:0:
329,192,53773,1,0,0:0:0:0:
475,192,53775,1,0,0:0:0:0:
182,192,53775,1,0,0:0:0:0:
36,192,53776,1,0,0:0:0:0:
402,192,53777,1,0,0:0:0:0:
256,192,53777,1,0,0:0:0:0:
475,192,53894,1,0,0:0:0:0:
36,192,54009,1,0,0:0:0:0:
329,192,54124,1,0,0:0:0:0:
256,192,54239,1,0,0:0:0:0:
402,192,54354,1,0,0:0:0:0:
109,192,54469,1,0,0:0:0:0:
182,192,54469,1,0,0:0:0:0:
475,192,55151,1,0,0:0:0:0:
36,192,55152,1,0,0:0:0:0:
329,192,55153,1,0,0:0:0:0:
256,192,55154,1,0,0:0:0:0:
402,192,55155,1,0,0:0:0:0:
109,192,55156,1,0,0:0:0:0:
182,192,55156,1,0,0:0:0:0:
182,192,55503,5,0,0:0:0:0:
329,192,55503,1,0,0:0:0:0:
36,192,55848,1,0,0:0:0:0:
256,192,55848,1,0,0:0:0:0:
402,192,56021,1,0,0:0:0:0:
109,192,56193,1,0,0:0:0:0:
475,192,56193,1,0,0:0:0:0:
182,192,56532,1,0,0:0:0:0:
329,192,56532,1,0,0:0:0:0:
36,192,56534,1,0,0:0:0:0:
256,192,56534,1,0,0:0:0:0:
402,192,56535,1,0,0:0:0:0:
109,192,56536,1,0,0:0:0:0:
475,192,56536,1,0,0:0:0:0:
109,192,56710,1,0,0:0:0:0:
329,192,56883,1,0,0:0:0:0:
182,192,57055,1,0,0:0:0:0:
256,192,57227,1,0,0:0:0:0:
475,192,57400,1,0,0:0:0:0:
36,192,57572,1,0,0:0:0:0:
402,192,57572,1,0,0:0:0:0:
109,192,57910,1,0,0:0:0:0:
329,192,57911,1,0,0:0:0:0:
182,192,57912,1,0,0:0:0:0:
256,192,57913,1,0,0:0:0:0:
475,192,57914,1,0,0:0:0:0:
36,192,57915,1,0,0:0:0:0:
402,192,57915,1,0,0:0:0:0:
109,192,58262,1,0,0:0:0:0:
402,192,58262,1,0,0:0:0:0:
475,192,58607,1,0,0:0:0:0:
182,192,58607,1,0,0:0:0:0:
36,192,58779,1,0,0:0:0:0:
256,192,58952,1,0,0:0:0:0:
329,192,58952,1,0,0:0:0:0:
109,192,59290,1,0,0:0:0:0:
402,192,59290,1,0,0:0:0:0:
475,192,59292,1,0,0:0:0:0:
182,192,59292,1,0,0:0:0:0:
36,192,59293,1,0,0:0:0:0:
256,192,59294,1,0,0:0:0:0:
329,192,59294,1,0,0:0:0:0:
329,192,59469,1,0,0:0:0:0:
109,192,59641,1,0,0:0:0:0:
402,192,59814,1,0,0:0:0:0:
475,192,59986,1,0,0:0:0:0:
182,192,60158,1,0,0:0:0:0:
36,192,60331,1,0,0:0:0:0:
256,192,60503,1,0,0:0:0:0:
329,192,60669,1,0,0:0:0:0:
109,192,60670,1,0,0:0:0:0:
402,192,60671,1,0,0:0:0:0:
475,192,60672,1,0,0:0:0:0:
182,192,60673,1,0,0:0:0:0:
36,192,60674,1,0,0:0:0:0:
256,192,60675,1,0,0:0:0:0:
36,192,61021,5,0,0:0:0:0:
109,192,61021,1,0,0:0:0:0:
256,192,61365,1,0,0:0:0:0:
329,192,61365,1,0,0:0:0:0:
402,192,61538,1,0,0:0:0:0:
475,192,61710,1,0,0:0:0:0:
182,192,61710,1,0,0:0:0:0:
36,192,62049,1,0,0:0:0:0:
109,192,62049,1,0,0:0:0:0:
256,192,62051,1,0,0:0:0:0:
329,192,62051,1,0,0:0:0:0:
402,192,62052,1,0,0:0:0:0:
475,192,62053,1,0,0:0:0:0:
182,192,62053,1,0,0:0:0:0:
402,192,62227,1,0,0:0:0:0:
256,192,62400,1,0,0:0:0:0:
475,192,62572,1,0,0:0:0:0:
182,192,62745,1,0,0:0:0:0:
109,192,62917,1,0,0:0:0:0:
36,192,63089,1,0,0:0:0:0:
329,192,63089,1,0,0:0:0:0:
402,192,63427,1,0,0:0:0:0:
256,192,63428,1,0,0:0:0:0:
475,192,63429,1,0,0:0:0:0:
182,192,63430,1,0,0:0:0:0:
109,192,63431,1,0,0:0:0:0:
36,192,63432,1,0,0:0:0:0:
329,192,63432,1,0,0:0:0:0:
182,192,63779,1,0,0:0:0:0:
402,192,63779,1,0,0:0:0:0:
475,192,64124,1,0,0:0:0:0:
329,192,64124,1,0,0:0:0:0:
36,192,64296,1,0,0:0:0:0:
256,192,64469,1,0,0:0:0:0:
109,192,64469,1,0,0:0:0:0:
182,192,64808,1,0,0:0:0:0:
402,192,64808,1,0,0:0:0:0:
475,192,64810,1,0,0:0:0:0:
329,192,64810,1,0,0:0:0:0:
36,192,64811,1,0,0:0:0:0:
256,192,64812,1,0,0:0:0:0:
109,192,64812,1,0,0:0:0:0:
182,192,64929,1,0,0:0:0:0:
36,192,65044,1,0,0:0:0:0:
256,192,65158,1,0,0:0:0:0:
475,192,65273,1,0,0:0:0:0:
109,192,65388,1,0,0:0:0:0:
402,192,65503,1,0,0:0:0:0:
329,192,65503,1,0,0:0:0:0:
182,192,66186,1,0,0:0:0:0:
36,192,66187,1,0,0:0:0:0:
256,192,66188,1,0,0:0:0:0:
475,192,66189,1,0,0:0:0:0:
109,192,66190,1,0,0:0:0:0:
402,192,66191,1,0,0:0:0:0:
329,192,66191,1,0,0:0:0:0:
