osu file format v14

[General]
AudioFilename: groove.mp3
AudioLeadIn: 0
PreviewTime: 37730
Countdown: 1
SampleSet: Normal
StackLeniency: 0.7
Mode: 0
LetterboxInBreaks: 0
WidescreenStoryboard: 1
SamplesMatchPlaybackRate: 1

[Editor]
DistanceSpacing: 1
BeatDivisor: 4
GridSize: 8
TimelineZoom: 1.000001

[Metadata]
Title:Groove
TitleUnicode:Groove
Artist:Jack and Jack
ArtistUnicode:Jack and Jack
Creator:JapanYoshiTheGamer
Version:Easy
Source:
Tags:80s revival, r&b, jack & jack, disco, 80s, just dance 2017, retro wave
BeatmapID:1254523
BeatmapSetID:508810

[Difficulty]
HPDrainRate:3
CircleSize:2
OverallDifficulty:2
ApproachRate:1.4
SliderMultiplier:0.6
SliderTickRate:1

[Events]
//Background and Video events
0,0,"retrocity.jpg",0,0
//Break Periods
2,62123,75775
2,116317,122226
//Storyboard Layer 0 (Background)
//Storyboard Layer 1 (Fail)
//Storyboard Layer 2 (Pass)
//Storyboard Layer 3 (Foreground)
//Storyboard Sound Samples

[TimingPoints]
7730.14301915323,483.870000000001,4,1,0,80,1,0
21278,-100,4,3,0,80,0,0
23213,-100,4,1,0,80,0,0
38697,-83.3333333333333,4,1,2,100,0,1
39181,-83.3333333333333,4,1,3,100,0,1
39665,-83.3333333333333,4,1,4,100,0,1
40149,-83.3333333333333,4,1,5,100,0,1
40497,-83.3333333333333,4,1,6,100,0,1
40633,-83.3333333333333,4,1,0,100,0,1
42568,-83.3333333333333,4,1,2,100,0,1
43052,-83.3333333333333,4,1,3,100,0,1
43536,-83.3333333333333,4,1,4,100,0,1
44020,-83.3333333333333,4,1,5,100,0,1
44368,-83.3333333333333,4,1,6,100,0,1
44504,-83.3333333333333,4,1,0,100,0,1
46439,-83.3333333333333,4,1,2,100,0,1
46923,-83.3333333333333,4,1,3,100,0,1
47407,-83.3333333333333,4,1,4,100,0,1
47891,-83.3333333333333,4,1,5,100,0,1
48239,-83.3333333333333,4,1,6,100,0,1
48375,-83.3333333333333,4,1,0,100,0,1
61923,-100,4,1,0,80,0,0
75471,-100,4,3,0,80,0,0
77407,-100,4,1,0,80,0,0
92891,-83.3333333333333,4,1,2,100,0,1
93375,-83.3333333333333,4,1,3,100,0,1
93859,-83.3333333333333,4,1,4,100,0,1
94343,-83.3333333333333,4,1,5,100,0,1
94691,-83.3333333333333,4,1,6,100,0,1
94826,-83.3333333333333,4,1,0,100,0,1
96762,-83.3333333333333,4,1,2,100,0,1
97246,-83.3333333333333,4,1,3,100,0,1
97730,-83.3333333333333,4,1,4,100,0,1
98214,-83.3333333333333,4,1,5,100,0,1
98562,-83.3333333333333,4,1,6,100,0,1
98697,-83.3333333333333,4,1,0,100,0,1
100633,-83.3333333333333,4,1,2,100,0,1
101117,-83.3333333333333,4,1,3,100,0,1
101601,-83.3333333333333,4,1,4,100,0,1
102085,-83.3333333333333,4,1,5,100,0,1
102433,-83.3333333333333,4,1,6,100,0,1
102568,-83.3333333333333,4,1,0,100,0,1
116117,-100,4,2,0,80,0,0
123858,-100,4,1,0,80,0,0
131600,-76.9230769230769,4,1,2,100,0,1
132084,-76.9230769230769,4,1,3,100,0,1
132568,-76.9230769230769,4,1,4,100,0,1
133052,-76.9230769230769,4,1,5,100,0,1
133400,-76.9230769230769,4,1,6,100,0,1
133535,-76.9230769230769,4,1,0,100,0,1
135471,-76.9230769230769,4,1,2,100,0,1
135955,-76.9230769230769,4,1,3,100,0,1
136439,-76.9230769230769,4,1,4,100,0,1
136923,-76.9230769230769,4,1,5,100,0,1
137271,-76.9230769230769,4,1,6,100,0,1
137406,-76.9230769230769,4,1,0,100,0,1
139342,-76.9230769230769,4,1,2,100,0,1
139826,-76.9230769230769,4,1,3,100,0,1
140310,-76.9230769230769,4,1,4,100,0,1
140794,-76.9230769230769,4,1,5,100,0,1
141142,-76.9230769230769,4,1,6,100,0,1
141277,-76.9230769230769,4,1,0,100,0,1
147084,-76.9230769230769,4,1,2,100,0,1
147568,-76.9230769230769,4,1,3,100,0,1
148052,-76.9230769230769,4,1,4,100,0,1
148536,-76.9230769230769,4,1,5,100,0,1
148884,-76.9230769230769,4,1,6,100,0,1
149019,-76.9230769230769,4,1,0,100,0,1
150955,-76.9230769230769,4,1,2,100,0,1
151439,-76.9230769230769,4,1,3,100,0,1
151923,-76.9230769230769,4,1,4,100,0,1
152407,-76.9230769230769,4,1,5,100,0,1
152755,-76.9230769230769,4,1,6,100,0,1
152890,-76.9230769230769,4,1,0,100,0,1
154826,-76.9230769230769,4,1,2,100,0,1
155310,-76.9230769230769,4,1,3,100,0,1
155794,-76.9230769230769,4,1,4,100,0,1
156278,-76.9230769230769,4,1,5,100,0,1
156626,-76.9230769230769,4,1,6,100,0,1
156761,-76.9230769230769,4,1,0,100,0,1
178052,-100,4,2,0,80,0,0

[Colours]
Combo1 : 255,128,0
Combo2 : 255,0,255
Combo3 : 100,0,255
Combo4 : 255,0,100

[HitObjects]
136,208,7730,5,4,0:0:0:0:
136,208,8697,1,8,0:0:0:0:
256,208,9665,1,0,0:0:0:0:
256,208,10633,1,8,0:0:0:0:
376,208,11601,1,0,0:0:0:0:
376,208,12568,1,8,0:0:0:0:
304,112,13536,5,0,0:0:0:0:
256,152,14020,1,0,0:0:0:0:
208,112,14504,1,8,0:0:0:0:
376,208,15472,5,4,0:0:0:0:
376,208,16439,1,8,0:0:0:0:
256,208,17407,1,0,0:0:0:0:
256,208,18375,1,8,0:0:0:0:
136,208,19343,1,0,0:0:0:0:
136,208,20310,1,8,0:0:0:0:
256,232,21278,2,0,L|256:168,2,59.9999999999999,0|0|8,0:0|0:0|0:0,0:0:0:0:
256,112,23213,5,4,0:0:0:0:
404,192,24181,2,0,L|344:192,2,59.9999999999999,8|0|0,0:0|0:0|0:0,0:0:0:0:
168,192,26117,2,0,L|72:192,2,59.9999999999999,8|0|0,0:0|0:0|0:0,0:0:0:0:
256,272,28052,1,8,0:0:0:0:
208,160,29020,6,2,P|257:74|304:160,1,240,2|6,0:0|0:0,0:0:0:0:
108,192,31923,2,0,L|168:192,2,59.9999999999999,8|0|0,0:0|0:0|0:0,0:0:0:0:
344,192,33859,2,0,L|440:192,2,59.9999999999999,8|0|0,0:0|0:0|0:0,0:0:0:0:
256,272,35794,5,8,0:0:0:0:
256,152,36762,1,0,0:0:0:0:
256,152,37246,1,0,0:0:0:0:
256,152,37730,1,8,0:0:0:0:
144,288,38697,5,6,0:0:0:0:
216,288,39181,1,2,0:0:0:0:
288,288,39665,1,2,0:0:0:0:
360,288,40149,2,2,L|424:288,1,53.9999983520507
368,96,42568,5,2,0:0:0:0:
296,96,43052,1,2,0:0:0:0:
224,96,43536,1,2,0:0:0:0:
152,96,44020,2,2,L|88:96,1,53.9999983520507
400,80,46439,5,2,0:0:0:0:
400,152,46923,1,2,0:0:0:0:
328,152,47407,1,2,0:0:0:0:
328,224,47891,2,2,L|328:280,1,53.9999983520507
168,264,49342,5,0,0:0:0:0:
168,264,49826,1,8,0:0:0:0:
168,264,50310,1,0,0:0:0:0:
256,192,51278,12,4,54181,0:0:0:0:
346,229,56117,6,0,P|256:280|160:216,1,215.999993408203,0|8,0:0|0:0,0:0:0:0:
184,160,58052,1,4,0:0:0:0:
328,160,59020,1,8,0:0:0:0:
256,312,59988,6,0,B|256:240|256:240|280:216|280:216|232:168|232:168|256:136|256:136|256:56,1,287.999991210937,0|4,0:0|0:0,0:0:0:0:
256,272,77407,5,4,0:0:0:0:
404,192,78375,2,0,L|344:192,2,59.9999999999999,8|0|0,0:0|0:0|0:0,0:0:0:0:
168,192,80311,2,0,L|72:192,2,59.9999999999999,8|0|0,0:0|0:0|0:0,0:0:0:0:
256,112,82246,1,8,0:0:0:0:
208,224,83213,6,2,P|257:310|304:224,1,240,2|6,0:0|0:0,0:0:0:0:
108,192,86117,2,0,L|168:192,2,59.9999999999999,8|0|0,0:0|0:0|0:0,0:0:0:0:
344,192,88053,2,0,L|440:192,2,59.9999999999999,8|0|0,0:0|0:0|0:0,0:0:0:0:
256,112,89988,5,8,0:0:0:0:
296,224,90956,1,0,0:0:0:0:
254,267,91440,1,0,0:0:0:0:
212,225,91924,1,8,0:0:0:0:
352,304,92891,5,6,0:0:0:0:
352,232,93375,1,2,0:0:0:0:
352,160,93859,1,2,0:0:0:0:
352,88,94343,2,2,L|352:24,1,53.9999983520507
160,80,96762,5,2,0:0:0:0:
160,152,97246,1,2,0:0:0:0:
160,224,97730,1,2,0:0:0:0:
160,296,98214,2,2,L|160:360,1,53.9999983520507
144,48,100633,5,2,0:0:0:0:
216,48,101117,1,2,0:0:0:0:
216,120,101601,1,2,0:0:0:0:
288,120,102085,2,2,L|344:120,1,53.9999983520507
328,280,103536,5,0,0:0:0:0:
328,280,104020,1,8,0:0:0:0:
328,280,104504,1,0,0:0:0:0:
256,192,105472,12,4,108375,0:0:0:0:
346,155,110311,6,0,P|256:104|160:168,1,215.999993408203,0|8,0:0|0:0,0:0:0:0:
184,224,112246,1,4,0:0:0:0:
328,224,113214,1,8,0:0:0:0:
256,72,114182,6,0,B|256:144|256:144|280:168|280:168|232:216|232:216|256:248|256:248|256:328,1,287.999991210937,0|4,0:0|0:0,0:0:0:0:
256,192,123858,12,0,129665,0:0:0:0:
352,48,131600,5,6,0:0:0:0:
352,128,132084,1,2,0:0:0:0:
352,208,132568,1,2,0:0:0:0:
352,288,133052,2,2,L|352:360,1,58.4999973220826
160,336,135471,5,6,0:0:0:0:
160,256,135955,1,2,0:0:0:0:
160,176,136439,1,2,0:0:0:0:
160,96,136923,2,2,L|160:24,1,58.4999973220826
296,152,139342,5,6,0:0:0:0:
216,152,139826,1,2,0:0:0:0:
216,232,140310,1,2,0:0:0:0:
296,232,140794,2,2,L|368:232,1,58.4999973220826
256,64,142246,5,0,0:0:0:0:
256,64,142729,1,0,0:0:0:0:
256,64,143213,1,0,0:0:0:0:
256,280,144181,1,0,0:0:0:0:
256,280,144665,1,0,0:0:0:0:
256,280,145149,2,0,B|256:232|256:232|288:232|288:232|288:160|288:160|256:160|256:160|256:88|256:88,1,233.99998928833,0|2,0:0|0:0,0:0:0:0:
176,96,147084,5,2,0:0:0:0:
120,151,147568,1,2,0:0:0:0:
175,206,148052,1,2,0:0:0:0:
230,150,148536,2,2,L|280:200,1,58.4999973220826
360,304,150955,5,2,0:0:0:0:
288,280,151439,1,2,0:0:0:0:
288,200,151923,1,2,0:0:0:0:
360,176,152407,2,2,L|400:232,1,58.4999973220826
64,192,154826,5,2,0:0:0:0:
136,224,155310,1,2,0:0:0:0:
208,256,155794,1,2,0:0:0:0:
280,288,156278,2,2,L|304:224,1,58.4999973220826
392,80,157729,5,0,0:0:0:0:
392,80,158213,1,8,0:0:0:0:
392,80,158697,1,0,0:0:0:0:
256,192,159665,12,4,162568,0:0:0:0:
200,136,164504,6,0,B|256:80|256:80|312:136,2,155.999992858887,2|8|4,0:0|0:0|0:0,0:0:0:0:
256,280,167407,1,8,0:0:0:0:
312,136,168374,6,0,B|256:80|256:80|200:136,2,155.999992858887,2|8|4,0:0|0:0|0:0,0:0:0:0:
456,192,171278,1,8,0:0:0:0:
352,304,172245,2,0,B|288:256|288:256|256:328|256:328|224:256|224:256|160:296,1,311.999985717774,2|4,0:0|0:0,0:0:0:0:
256,192,174665,12,4,178052,0:0:0:0:
