osu file format v14

[General]
AudioFilename: audio.mp3
AudioLeadIn: 0
PreviewTime: 2005
Countdown: 0
SampleSet: Soft
StackLeniency: 0.7
Mode: 0
LetterboxInBreaks: 0
WidescreenStoryboard: 1

[Editor]
DistanceSpacing: 0.8
BeatDivisor: 4
GridSize: 32
TimelineZoom: 1

[Metadata]
Title:SuperPretzel
TitleUnicode:SuperPretzel
Artist:Jack Zankowski
ArtistUnicode:Jack Zankowski
Creator:Apo11o
Version:attendant's Expert
Source:Happy Wheels
Tags:instrumental metal rock attendant total jerk aireu face jerkface
BeatmapID:3584736
BeatmapSetID:1752044

[Difficulty]
HPDrainRate:4.2
CircleSize:5
OverallDifficulty:9
ApproachRate:9.2
SliderMultiplier:2
SliderTickRate:0.5

[Events]
//Background and Video events
0,0,"Green_Hills_Background.png",0,0
//Break Periods
//Storyboard Layer 0 (Background)
//Storyboard Layer 1 (Fail)
//Storyboard Layer 2 (Pass)
//Storyboard Layer 3 (Foreground)
//Storyboard Layer 4 (Overlay)
//Storyboard Sound Samples

[TimingPoints]
5,500,4,2,1,85,1,0
255,-100,4,2,2,85,0,0
692,-100,4,2,0,5,0,0
755,-100,4,2,3,85,0,0
1255,-100,4,2,4,85,0,0
1755,-100,4,2,5,85,0,0
2755,-100,4,2,2,70,0,0
2880,-100,4,2,1,70,0,0
4005,-83.3333333333333,4,2,1,70,0,0
5005,-100,4,2,1,70,0,0
5880,-100,4,2,0,5,0,0
6005,-100,4,2,3,70,0,0
6505,-100,4,2,1,70,0,0
8255,-125,4,2,4,70,0,0
8505,-125,4,2,1,70,0,0
9880,-125,4,2,0,5,0,0
10005,-100,4,2,1,70,0,0
10442,-100,4,2,0,5,0,0
10505,-100,4,2,1,70,0,0
12005,-100,4,2,5,70,0,0
12505,-100,4,2,1,70,0,0
14005,-100,4,2,2,70,0,0
14505,-100,4,2,1,70,0,0
16005,-100,4,2,3,70,0,0
16505,-100,4,2,1,70,0,0
18442,-125,4,2,0,5,0,0
18505,-100,4,2,1,70,0,0
19505,-166.666666666667,4,2,4,70,0,0
21380,-166.666666666667,4,2,0,5,0,0
21505,-166.666666666667,4,2,4,70,0,0
22005,-83.3333333333333,4,2,1,70,0,0
24005,-83.3333333333333,4,2,3,70,0,0
24505,-83.3333333333333,4,2,1,70,0,0
25755,-133.333333333333,4,2,1,70,0,0
26005,-133.333333333333,4,2,21,80,0,1
26505,-133.333333333333,4,2,1,80,0,1
27005,-133.333333333333,4,2,2,80,0,1
27505,-133.333333333333,4,2,1,80,0,1
28005,-133.333333333333,4,2,4,85,0,1
28505,-133.333333333333,4,2,1,85,0,1
28755,-133.333333333333,4,2,21,90,0,1
29005,-133.333333333333,4,2,21,85,0,1
29505,-133.333333333333,4,2,1,85,0,1
29755,-133.333333333333,4,2,21,90,0,1
30005,-133.333333333333,4,2,1,90,0,1
30755,-133.333333333333,4,2,21,90,0,1
31005,-133.333333333333,4,2,1,90,0,1
31255,-133.333333333333,4,2,21,90,0,1
31505,-133.333333333333,4,2,1,90,0,1
31755,-133.333333333333,4,2,21,90,0,1
32005,-100,4,2,1,85,0,0
32255,-100,4,2,2,85,0,0
32692,-100,4,2,0,5,0,0
32755,-100,4,2,3,85,0,0
33255,-100,4,2,4,85,0,0
33755,-100,4,2,5,85,0,0
34005,-66.6666666666667,4,2,5,85,0,0
34046,-66.6666666666667,4,2,5,35,0,0
34588,-66.6666666666667,4,2,5,55,0,0

[Colours]
Combo1 : 212,212,212
Combo2 : 90,200,60
Combo3 : 100,140,250

[HitObjects]
44,35,5,6,0,P|68:31|93:30,1,50,2|0,1:0|0:0,0:0:0:0:
94,30,255,2,0,P|96:118|94:205,1,175,6|0,1:0|0:0,0:0:0:0:
96,275,755,5,6,1:0:0:0:
96,275,1255,1,6,1:0:0:0:
96,275,1755,1,6,1:0:0:0:
235,347,2005,6,0,B|251:352|251:352|282:347,1,50,6|0,1:0|0:0,0:0:0:0:
332,282,2255,2,2,B|314:193|346:216|335:133,1,150,2|2,3:1|0:1,0:1:0:0:
172,69,2755,6,2,L|161:255,1,150,6|0,3:1|3:2,0:1:0:0:
107,283,3255,2,0,P|90:264|83:240,1,50,2|0,3:1|3:2,0:0:0:0:
251,167,3505,2,2,L|398:194,1,150,10|0,3:1|3:2,0:1:0:0:
482,344,4005,6,2,P|452:349|423:356,7,60,6|2|2|2|10|2|2|2,1:0|3:2|3:1|3:2|3:1|2:0|3:1|3:2,0:1:0:0:
359,299,5005,6,2,B|247:368|247:368|47:278,1,350,2|0,1:0|3:2,0:1:0:0:
100,212,6005,6,2,B|118:123|80:154|96:64,1,150,6|0,1:0|3:2,0:1:0:0:
181,153,6505,2,2,L|289:139,1,100,10|0,3:1|3:2,0:1:0:0:
494,56,7005,6,0,L|444:49,1,50,2|0,1:0|3:2,0:0:0:0:
444,49,7255,2,2,P|387:93|397:164,1,150,2|0,3:1|0:0,0:1:0:0:
475,181,7755,2,2,B|386:167|412:210|329:202,1,150,2|0,3:1|3:2,0:1:0:0:
125,64,8255,6,2,B|271:107|271:107|333:311|333:311|480:355,1,520,6|0,3:1|3:2,0:1:0:0:
469,245,10005,6,2,B|448:141|492:177|472:73,1,175,6|0,1:0|3:2,0:1:0:0:
423,24,10505,1,10,3:1:0:0:
360,137,10755,1,0,3:2:0:0:
364,141,10880,1,0,3:2:0:0:
368,145,11005,5,2,1:0:0:0:
303,20,11255,1,2,3:1:0:0:
307,24,11380,1,0,3:2:0:0:
311,28,11505,1,8,3:1:0:0:
240,133,11755,2,0,P|228:155|218:178,1,50,2|0,3:1|3:2,0:0:0:0:
218,178,12005,6,2,P|145:191|71:205,1,150,4|0,1:0|3:2,0:1:0:0:
104,38,12505,2,0,P|147:59|158:106,1,100,8|0,3:1|3:2,0:2:0:0:
79,120,12880,1,0,3:2:0:0:
83,124,13005,5,0,1:0:0:0:
87,128,13130,1,0,3:2:0:0:
91,132,13255,1,0,3:2:0:0:
95,136,13380,1,0,3:2:0:0:
98,140,13505,2,0,P|94:164|93:189,1,50,8|0,3:1|0:0,0:0:0:0:
154,284,13755,2,0,P|158:308|159:333,1,50,0|0,3:2|3:2,0:0:0:0:
254,258,14005,6,2,P|352:276|449:298,1,200,6|10,1:0|3:1,0:1:0:0:
469,224,14755,1,2,3:1:0:0:
219,191,15005,5,2,1:0:0:0:
181,89,15255,1,2,3:1:0:0:
276,42,15505,1,10,3:1:0:0:
312,142,15755,1,2,3:1:0:0:
45,187,16005,6,2,P|21:106|100:47,1,150,6|0,1:0|3:2,0:1:0:0:
131,42,16505,2,0,P|117:20|104:0,1,50,10|0,3:1|0:0,0:0:0:0:
199,110,16755,6,2,P|185:131|112:275,1,150,2|0,3:1|3:2,0:1:0:0:
91,326,17255,1,2,3:1:0:0:
124,314,17380,1,0,3:2:0:0:
157,323,17505,1,8,3:1:0:0:
187,340,17630,1,0,0:0:0:0:
220,349,17755,1,0,3:2:0:0:
253,338,17880,1,0,3:2:0:0:
259,329,18005,6,2,P|260:241|261:154,1,175,6|0,1:0|0:0,0:1:0:0:
262,86,18505,1,8,3:1:0:0:
189,50,18755,1,2,3:1:0:0:
193,54,18880,1,0,3:2:0:0:
197,58,19005,1,0,1:0:0:0:
84,295,19255,1,0,3:2:0:0:
88,299,19380,1,0,3:2:0:0:
92,303,19505,6,2,B|219:377|219:377|494:237,1,449.999999999999,14|0,3:1|3:2,0:1:0:0:
423,161,21505,6,0,L|420:190,3,29.9999999999999,8|0|0|0,3:1|0:0|3:2|3:2,0:0:0:0:
494,133,22005,6,2,B|392:117|418:168|318:154,1,180,6|0,1:0|3:2,0:1:0:0:
271,97,22505,2,0,B|264:81|264:81|268:38,1,60,10|0,3:1|0:0,0:0:0:0:
224,157,22755,2,2,P|179:235|130:310,1,180,2|0,3:1|3:2,0:1:0:0:
54,362,23255,5,2,3:1:0:0:
58,366,23380,1,0,3:2:0:0:
62,370,23505,2,0,B|50:316|50:316|61:252,1,120,8|2,3:1|3:1,0:0:0:0:
65,256,23880,1,0,3:2:0:0:
69,260,24005,1,4,1:0:0:0:
442,244,24255,5,2,3:1:0:0:
446,248,24380,1,0,3:2:0:0:
450,252,24505,2,0,B|462:306|462:306|450:369,1,120,8|0,3:1|3:2,0:0:0:0:
454,373,24880,1,0,3:2:0:0:
458,377,25005,1,0,1:0:0:0:
248,190,25255,5,0,3:2:0:0:
252,194,25380,1,0,3:2:0:0:
256,198,25505,1,8,3:1:0:0:
255,122,25755,6,0,P|255:103|255:84,1,37.5000000000001,0|0,3:2|3:2,0:0:0:0:
146,189,26005,5,14,1:0:0:0:
77,165,26130,1,2,2:0:0:0:
18,202,26255,1,2,3:1:0:0:
10,271,26380,1,2,3:2:0:0:
59,321,26505,5,10,3:1:0:0:
130,314,26630,1,2,2:0:0:0:
167,255,26755,1,2,3:1:0:0:
146,189,26880,1,2,3:2:0:0:
75,156,27005,5,6,1:0:0:0:
133,322,27130,1,2,3:2:0:0:
9,197,27255,5,2,3:1:0:0:
175,256,27380,1,2,3:2:0:0:
0,275,27505,5,10,3:1:0:0:
151,182,27630,1,2,2:0:0:0:
55,330,27755,5,2,3:1:0:0:
75,156,27880,1,2,3:2:0:0:
276,163,28005,5,6,1:0:0:0:
211,74,28130,1,2,3:2:0:0:
314,108,28255,1,2,3:1:0:0:
211,142,28380,1,2,3:2:0:0:
276,53,28505,5,14,3:1:0:0:
273,175,28630,1,2,2:0:0:0:
205,62,28755,1,10,3:1:0:0:
325,113,28880,1,2,3:2:0:0:
198,143,29005,5,6,1:0:0:0:
285,44,29130,1,2,3:2:0:0:
269,187,29255,1,2,3:1:0:0:
202,50,29380,1,2,3:2:0:0:
334,121,29505,5,14,3:1:0:0:
186,143,29630,1,2,2:0:0:0:
295,37,29755,1,10,3:1:0:0:
264,198,29880,1,2,3:2:0:0:
232,358,30005,5,6,1:0:0:0:
149,292,30130,1,2,3:2:0:0:
60,307,30255,1,2,3:1:0:0:
21,371,30380,1,2,3:2:0:0:
240,343,30505,5,14,3:1:0:0:
344,358,30630,1,2,2:0:0:0:
414,301,30755,1,10,3:1:0:0:
416,226,30880,1,2,3:2:0:0:
275,13,31005,5,6,1:0:0:0:
185,59,31130,1,2,3:2:0:0:
168,150,31255,5,14,3:1:0:0:
214,219,31380,1,2,3:2:0:0:
281,253,31505,5,14,3:1:0:0:
324,303,31630,5,2,2:0:0:0:
313,360,31755,5,14,3:1:0:0:
266,380,31880,5,2,3:2:0:0:
237,360,32005,6,0,P|235:335|237:311,1,50,6|0,1:0|0:0,0:0:0:0:
237,310,32255,2,2,P|152:329|68:352,1,175,6|0,1:0|0:0,0:1:0:0:
3,376,32755,5,6,1:0:0:0:
3,376,33255,1,6,1:0:0:0:
3,376,33755,1,6,1:0:0:0:
154,235,34005,6,0,P|154:222|153:210,14,25,2|0|0|0|0|0|0|0|0|0|0|0|0|0|2,2:1|3:2|3:2|3:2|3:2|3:2|3:2|3:2|3:2|3:2|3:2|3:2|3:2|3:2|2:0,0:0:0:0:
