osu file format v14

[General]
AudioFilename: audio.mp3
AudioLeadIn: 0
PreviewTime: 2005
Countdown: 0
SampleSet: Soft
StackLeniency: 0.7
Mode: 0
LetterboxInBreaks: 0
WidescreenStoryboard: 1

[Editor]
DistanceSpacing: 0.8
BeatDivisor: 4
GridSize: 32
TimelineZoom: 1.9

[Metadata]
Title:SuperPretzel
TitleUnicode:SuperPretzel
Artist:Jack Zankowski
ArtistUnicode:Jack Zankowski
Creator:Apo11o
Version:Hard
Source:Happy Wheels
Tags:instrumental metal rock attendant total jerk aireu face jerkface
BeatmapID:3584737
BeatmapSetID:1752044

[Difficulty]
HPDrainRate:3.5
CircleSize:4.5
OverallDifficulty:6.5
ApproachRate:7.5
SliderMultiplier:1.6
SliderTickRate:1

[Events]
//Background and Video events
0,0,"Green_Hills_Background.png",0,0
//Break Periods
//Storyboard Layer 0 (Background)
//Storyboard Layer 1 (Fail)
//Storyboard Layer 2 (Pass)
//Storyboard Layer 3 (Foreground)
//Storyboard Layer 4 (Overlay)
//Storyboard Sound Samples

[TimingPoints]
5,500,4,2,1,85,1,0
255,-100,4,2,2,85,0,0
692,-100,4,2,0,5,0,0
755,-100,4,2,3,85,0,0
1255,-100,4,2,4,85,0,0
1755,-100,4,2,5,85,0,0
2505,-100,4,2,1,70,0,0
2755,-100,4,2,2,70,0,0
2880,-100,4,2,1,70,0,0
6005,-100,4,2,3,70,0,0
6505,-100,4,2,1,70,0,0
8255,-100,4,2,4,70,0,0
8505,-100,4,2,1,70,0,0
9880,-100,4,2,0,5,0,0
10005,-100,4,2,1,70,0,0
10442,-100,4,2,0,5,0,0
10505,-100,4,2,1,70,0,0
12005,-100,4,2,5,70,0,0
12505,-100,4,2,1,70,0,0
14005,-100,4,2,2,70,0,0
14505,-100,4,2,1,70,0,0
16005,-100,4,2,3,70,0,0
16505,-100,4,2,1,70,0,0
18505,-100,4,2,1,70,0,0
19505,-100,4,2,4,70,0,0
21505,-100,4,2,4,70,0,0
22005,-100,4,2,1,70,0,0
24005,-100,4,2,3,70,0,0
24505,-100,4,2,1,70,0,0
26005,-100,4,2,21,80,0,0
26505,-100,4,2,1,80,0,0
27005,-100,4,2,2,80,0,0
27505,-100,4,2,1,80,0,0
28005,-100,4,2,4,85,0,0
28505,-100,4,2,1,85,0,0
28755,-100,4,2,21,90,0,0
29005,-100,4,2,21,85,0,0
29505,-100,4,2,1,85,0,0
29755,-100,4,2,21,90,0,0
30005,-100,4,2,1,90,0,0
30755,-100,4,2,21,90,0,0
31005,-100,4,2,1,90,0,0
31255,-100,4,2,21,90,0,0
31505,-100,4,2,1,90,0,0
31755,-100,4,2,21,90,0,0
32005,-100,4,2,1,85,0,0
32255,-100,4,2,2,85,0,0
32692,-100,4,2,0,5,0,0
32755,-100,4,2,3,85,0,0
33255,-100,4,2,4,85,0,0
33755,-100,4,2,5,85,0,0
34046,-100,4,2,5,35,0,0
34588,-100,4,2,5,55,0,0

[Colours]
Combo1 : 212,212,212
Combo2 : 90,200,60
Combo3 : 100,140,250

[HitObjects]
363,375,5,6,0,P|373:359|382:341,1,40,2|0,1:0|0:0,0:0:0:0:
396,311,255,2,0,L|385:152,3,160,6|6|6|6,1:0|1:0|1:0|1:0,0:0:0:0:
320,99,2005,5,6,1:0:0:0:
246,38,2255,2,2,P|229:73|224:116,1,80,2|8,3:1|3:1,0:1:0:0:
153,180,2755,2,2,P|136:144|131:101,1,80,6|0,3:1|0:0,0:1:0:0:
239,201,3255,1,2,3:1:0:0:
170,270,3505,2,2,L|65:256,1,80,10|0,3:1|0:0,0:1:0:0:
16,327,4005,5,6,1:0:0:0:
111,338,4255,1,2,3:1:0:0:
206,349,4505,1,10,3:1:0:0:
301,360,4755,2,0,P|328:355|343:346,1,40,2|2,3:1|3:2,0:0:0:0:
374,316,5005,2,2,B|371:249|371:249|364:235|364:235|361:152,1,160,2|8,1:0|3:1,0:1:0:0:
364,69,5755,1,2,0:0:0:0:
364,69,5880,1,2,3:2:0:0:
364,69,6005,6,2,L|456:57,1,80,6|0,1:0|0:0,0:1:0:0:
461,156,6505,2,2,L|381:166,1,80,10|0,3:1|3:2,0:1:0:0:
319,245,7005,1,2,1:0:0:0:
389,319,7255,2,2,P|427:330|466:324,1,80,2|8,3:1|3:1,0:1:0:0:
319,245,7755,6,2,P|286:291|307:386,1,160,2|6,3:1|3:1,0:1:0:0:
389,319,8505,1,8,3:1:0:0:
399,224,8755,1,2,0:0:0:0:
399,224,8880,1,2,0:0:0:0:
399,224,9005,2,0,L|387:137,1,80,2|0,0:0|0:0,0:0:0:0:
292,113,9505,2,0,L|302:192,1,80,8|0,3:1|0:0,0:0:0:0:
382,56,10005,6,2,L|373:-23,1,80,6|0,1:0|0:0,0:1:0:0:
283,3,10505,2,0,L|291:82,1,80,10|0,3:1|3:2,0:0:0:0:
224,160,11005,1,2,1:0:0:0:
139,116,11255,2,0,P|125:78|130:39,1,80,2|8,3:1|3:1,0:0:0:0:
42,2,11755,6,0,P|29:80|51:156,1,160,2|2,3:1|0:0,0:0:0:0:
132,211,12505,1,8,3:1:0:0:
51,270,12755,1,0,3:2:0:0:
51,270,12880,1,0,3:2:0:0:
51,270,13005,2,2,P|40:318|41:358,1,80,0|0,1:0|3:2,0:2:0:0:
135,368,13505,2,2,P|146:320|145:280,1,80,8|0,3:1|3:2,0:2:0:0:
236,381,14005,1,6,1:0:0:0:
394,257,14505,5,10,3:1:0:0:
297,272,14755,1,2,3:1:0:0:
334,182,15005,1,2,1:0:0:0:
399,280,15255,5,2,3:1:0:0:
273,264,15505,1,10,3:1:0:0:
351,165,15755,1,2,3:1:0:0:
488,216,16005,6,2,L|475:377,1,160,6|10,1:0|3:1,0:1:0:0:
394,331,16755,1,2,3:1:0:0:
394,331,16880,1,2,0:0:0:0:
394,331,17005,2,2,P|342:314|309:314,1,80,0|2,1:0|3:1,0:2:0:0:
245,235,17505,2,2,P|297:218|330:218,1,80,8|0,3:1|3:2,0:2:0:0:
192,163,18005,6,2,P|245:135|364:132,1,160,6|8,1:0|3:1,0:1:0:0:
372,222,18755,2,0,P|319:250|200:253,1,160,2|0,3:1|3:2,0:0:0:0:
140,322,19505,6,2,P|32:266|289:162,1,640,14|8,3:1|3:1,0:1:0:0:
351,64,21755,1,0,3:2:0:0:
351,64,21880,1,0,3:2:0:0:
351,64,22005,6,2,P|398:57|443:57,1,80,6|0,1:0|0:0,0:1:0:0:
400,156,22505,1,10,3:1:0:0:
358,249,22755,2,2,P|335:286|340:323,1,80,2|2,3:1|0:0,0:1:0:0:
431,347,23255,2,0,P|454:310|449:272,1,80,2|8,3:1|3:1,0:0:0:0:
352,167,23755,6,2,B|286:162|286:162|255:175|255:175|185:168,1,160,2|2,3:1|3:1,0:2:0:0:
112,197,24505,1,8,3:1:0:0:
48,139,24755,1,0,3:2:0:0:
48,139,24880,1,0,3:2:0:0:
48,139,25005,2,0,L|41:53,2,80,0|0|8,1:0|3:2|3:1,0:0:0:0:
120,346,26005,5,14,1:0:0:0:
143,342,26130,1,2,2:0:0:0:
166,339,26255,1,2,3:1:0:0:
189,336,26380,1,2,3:2:0:0:
212,332,26505,2,0,L|261:326,3,40,10|2|2|2,3:1|2:0|3:1|3:2,0:0:0:0:
294,324,27005,6,0,L|302:229,1,80,6|2,1:0|3:1,0:0:0:0:
199,226,27505,2,0,L|207:131,1,80,10|2,3:1|3:1,0:0:0:0:
301,102,28005,5,6,1:0:0:0:
324,106,28130,1,2,3:2:0:0:
347,109,28255,1,2,3:1:0:0:
370,112,28380,1,2,3:2:0:0:
393,116,28505,2,0,L|442:122,3,40,14|2|10|2,3:1|2:0|3:1|3:2,0:0:0:0:
469,126,29005,6,0,L|456:204,1,80,6|2,1:0|3:1,0:0:0:0:
353,178,29505,2,0,L|340:256,1,80,14|10,3:1|3:1,0:0:0:0:
257,214,30005,5,6,1:0:0:0:
257,214,30130,1,2,3:2:0:0:
257,214,30255,1,2,3:1:0:0:
323,115,30505,1,14,3:1:0:0:
323,115,30630,1,2,2:0:0:0:
323,115,30755,1,10,3:1:0:0:
221,72,31005,1,6,1:0:0:0:
198,76,31130,1,2,3:2:0:0:
175,79,31255,1,14,3:1:0:0:
152,82,31380,1,2,3:2:0:0:
129,86,31505,2,0,L|80:92,3,40,14|2|14|2,3:1|2:0|3:1|3:2,0:0:0:0:
48,97,32005,5,6,1:0:0:0:
48,97,32255,1,6,1:0:0:0:
169,271,32755,1,6,1:0:0:0:
0,384,33255,1,6,1:0:0:0:
62,202,33755,1,6,1:0:0:0:
62,202,34005,1,2,2:1:0:0:
