osu file format v14

[General]
AudioFilename: audio.mp3
AudioLeadIn: 0
PreviewTime:2005
Countdown: 0
SampleSet: Soft
StackLeniency: 0.7
Mode: 0
LetterboxInBreaks: 0
WidescreenStoryboard: 1

[Editor]
DistanceSpacing: 1.1
BeatDivisor: 4
GridSize: 16
TimelineZoom: 1.9

[Metadata]
Title:SuperPretzel
TitleUnicode:SuperPretzel
Artist:Jack Zankowski
ArtistUnicode:Jack Zankowski
Creator:Apo11o
Version:Extra
Source:Happy Wheels
Tags:instrumental metal rock attendant total jerk aireu face jerkface
BeatmapID:3584971
BeatmapSetID:1752044

[Difficulty]
HPDrainRate:3.5
CircleSize:7
OverallDifficulty:8.5
ApproachRate:8.5
SliderMultiplier:1.4
SliderTickRate:1

[Events]
//Background and Video events
0,0,"Green_Hills_Background.png",0,0
//Break Periods
//Storyboard Layer 0 (Background)
//Storyboard Layer 1 (Fail)
//Storyboard Layer 2 (Pass)
//Storyboard Layer 3 (Foreground)
//Storyboard Layer 4 (Overlay)
//Storyboard Sound Samples

[TimingPoints]
5,500,4,2,1,85,1,0
255,-125,4,2,2,85,0,0
692,-125,4,2,0,5,0,0
755,-125,4,2,3,85,0,0
1255,-125,4,2,4,85,0,0
1755,-125,4,2,5,85,0,0
2005,-100,4,2,5,85,0,0
2255,-83.3333333333333,4,2,5,85,0,0
2755,-83.3333333333333,4,2,2,70,0,0
2880,-83.3333333333333,4,2,1,70,0,0
3505,-100,4,2,1,70,0,0
5005,-83.3333333333333,4,2,1,70,0,0
5880,-83.3333333333333,4,2,0,5,0,0
6005,-100,4,2,3,70,0,0
6505,-100,4,2,1,70,0,0
7005,-83.3333333333333,4,2,1,70,0,0
7755,-100,4,2,1,70,0,0
8255,-111.111111111111,4,2,4,70,0,0
8505,-111.111111111111,4,2,1,70,0,0
9880,-111.111111111111,4,2,0,5,0,0
10005,-100,4,2,1,70,0,0
10442,-100,4,2,0,5,0,0
10505,-83.3333333333333,4,2,1,70,0,0
11005,-100,4,2,1,70,0,0
12005,-100,4,2,5,70,0,0
12505,-100,4,2,1,70,0,0
14005,-100,4,2,2,70,0,0
14505,-100,4,2,1,70,0,0
16005,-83.3333333333333,4,2,3,70,0,0
16505,-83.3333333333333,4,2,1,70,0,0
18005,-100,4,2,1,70,0,0
18442,-100,4,2,0,5,0,0
18505,-100,4,2,1,70,0,0
19505,-100,4,2,4,70,0,0
21505,-100,4,2,4,70,0,0
22005,-100,4,2,1,70,0,0
24005,-100,4,2,3,70,0,0
24255,-83.3333333333333,4,2,3,70,0,0
24505,-83.3333333333333,4,2,1,70,0,0
26005,-83.3333333333333,4,2,21,80,0,0
26505,-83.3333333333333,4,2,1,80,0,0
27005,-83.3333333333333,4,2,2,80,0,0
27505,-83.3333333333333,4,2,1,80,0,0
28005,-83.3333333333333,4,2,4,85,0,0
28505,-83.3333333333333,4,2,1,85,0,0
28755,-83.3333333333333,4,2,21,90,0,0
29005,-83.3333333333333,4,2,21,85,0,0
29505,-83.3333333333333,4,2,1,85,0,0
29755,-83.3333333333333,4,2,21,90,0,0
30005,-83.3333333333333,4,2,1,90,0,0
30755,-83.3333333333333,4,2,21,90,0,0
31005,-83.3333333333333,4,2,1,90,0,0
31255,-83.3333333333333,4,2,21,90,0,0
31505,-83.3333333333333,4,2,1,90,0,0
31755,-83.3333333333333,4,2,21,90,0,0
32005,-83.3333333333333,4,2,1,85,0,0
32255,-125,4,2,2,85,0,0
32692,-125,4,2,0,5,0,0
32755,-125,4,2,3,85,0,0
33255,-125,4,2,4,85,0,0
33755,-125,4,2,5,85,0,0
34046,-125,4,2,5,35,0,0
34588,-125,4,2,5,55,0,0

[Colours]
Combo1 : 212,212,212
Combo2 : 90,200,60
Combo3 : 100,140,250

[HitObjects]
290,15,5,6,0,L|284:67,1,35,2|0,1:0|0:0,0:0:0:0:
280,105,255,2,0,B|268:101|268:101|274:117|275:129|275:129|281:117|291:103|291:103|280:106,1,84,6|0,1:0|0:0,0:0:0:0:
272,181,755,2,0,B|260:177|260:177|266:193|267:205|267:205|273:193|283:179|283:179|272:182,1,84,6|0,1:0|0:0,0:0:0:0:
262,257,1255,2,0,B|250:253|250:253|256:269|257:281|257:281|263:269|273:255|273:255|262:258,1,84,6|0,1:0|0:0,0:0:0:0:
252,334,1755,1,6,1:0:0:0:
91,340,2005,6,0,B|72:350|72:350|65:386,1,35,6|0,1:0|0:0,0:0:0:0:
109,383,2255,2,2,P|96:331|41:271,1,125.999996154785,2|2,3:1|0:1,0:1:0:0:
92,230,2755,1,6,3:1:0:0:
73,207,2880,1,2,0:0:0:0:
79,177,3005,1,2,0:0:0:0:
9,214,3255,5,2,3:1:0:0:
145,192,3505,2,2,L|226:181,1,70,10|0,3:1|0:0,0:1:0:0:
214,182,3880,1,2,3:2:0:0:
283,221,4005,5,6,1:0:0:0:
313,227,4130,1,2,3:2:0:0:
282,193,4255,5,2,3:1:0:0:
315,190,4380,1,2,3:2:0:0:
279,165,4505,5,10,3:1:0:0:
311,153,4630,1,2,2:0:0:0:
268,142,4755,5,2,3:1:0:0:
297,121,4880,1,2,3:2:0:0:
216,185,5005,6,2,B|203:224|187:283|210:332|256:359|256:359|289:342|307:314|300:274,1,293.999991027832,2|0,1:0|3:2,0:1:0:0:
354,356,6005,6,2,P|406:353|457:342,1,105,6|0,1:0|3:2,0:1:0:0:
408,280,6505,2,2,B|390:273|390:273|378:283,1,35,10|0,3:1|0:0,0:1:0:0:
378,283,6755,1,0,3:2:0:0:
378,283,6880,1,0,0:0:0:0:
458,244,7005,6,0,P|477:237|498:233,1,41.9999987182618,2|0,1:0|3:2,0:0:0:0:
458,290,7255,2,2,P|447:235|445:161,1,125.999996154785,2|0,3:1|0:0,0:1:0:0:
427,99,7755,1,2,3:1:0:0:
423,128,7880,1,0,0:0:0:0:
401,145,8005,1,0,3:0:0:0:
500,39,8255,6,2,B|428:66|419:33|373:52|373:52|377:92|349:128|349:128|295:119|303:143|245:140,1,314.999990386963,6|8,3:1|3:1,0:1:0:0:
246,140,10005,6,2,L|251:106,1,35,6|0,1:0|0:0,0:1:0:0:
182,128,10255,2,0,L|177:162,1,35
140,230,10505,2,0,B|164:235|164:235|271:214,1,125.999996154785,10|0,3:1|3:2,0:0:0:0:
308,244,11005,2,0,L|302:288,1,35,2|0,1:0|0:0,0:0:0:0:
235,356,11255,1,2,3:1:0:0:
261,341,11380,1,0,3:2:0:0:
292,342,11505,1,8,3:1:0:0:
397,377,11755,6,0,B|416:379|416:379|427:368,1,35,2|0,3:1|3:2,0:0:0:0:
430,314,12005,2,2,L|362:339,1,70,4|0,1:0|0:0,0:1:0:0:
364,338,12380,1,0,3:2:0:0:
324,302,12505,6,2,B|348:280|379:247|370:171|290:111|206:125|176:194|189:279|249:291|294:251|294:226,1,350,8|0,3:1|3:2,0:2:0:0:
278,251,13880,1,0,3:2:0:0:
278,251,14005,1,6,1:0:0:0:
167,382,14505,5,10,3:1:0:0:
98,365,14755,1,2,3:1:0:0:
44,295,15005,1,2,1:0:0:0:
41,194,15255,1,2,3:1:0:0:
85,91,15505,1,10,3:1:0:0:
167,22,15755,1,2,3:1:0:0:
167,22,15880,1,0,0:0:0:0:
167,22,16005,6,2,B|228:50|221:-4|289:18,1,125.999996154785,6|0,1:0|3:2,0:1:0:0:
287,17,16505,2,0,P|275:38|272:69,1,41.9999987182618,10|0,3:1|0:0,0:0:0:0:
367,156,16755,6,2,P|371:109|319:138,1,125.999996154785,2|0,3:1|3:2,0:1:0:0:
376,169,17255,2,2,P|382:95|300:140,1,209.999993591309,2|0,3:1|3:2,0:2:0:0:
323,197,18005,6,2,B|324:257|363:232|364:304,1,105,6|0,1:0|0:0,0:1:0:0:
363,290,18505,1,8,3:1:0:0:
291,261,18755,2,0,P|341:246|393:237,1,105,2|0,3:1|0:0,0:2:0:0:
393,237,19255,1,0,3:2:0:0:
442,54,19505,6,2,B|478:21|537:30|554:102|533:178|432:152|364:92|329:19|207:-17|89:50|37:120,1,630,14|0,3:1|3:2,0:1:0:0:
38,117,21880,1,0,3:2:0:0:
38,117,22005,6,2,B|63:147|63:147|52:228,1,105,6|0,1:0|3:2,0:1:0:0:
54,212,22505,1,10,3:1:0:0:
152,297,22755,1,2,3:1:0:0:
149,269,22880,1,0,0:0:0:0:
146,241,23005,1,2,0:0:0:0:
143,213,23130,1,0,3:2:0:0:
140,185,23255,1,2,3:1:0:0:
137,157,23380,1,0,3:2:0:0:
134,129,23505,1,8,3:1:0:0:
272,199,23755,6,0,B|277:218|277:218|268:229,1,35,2|0,3:1|3:2,0:0:0:0:
216,215,24005,2,0,B|211:195|211:195|220:185,1,35,4|0,1:0|0:0,0:0:0:0:
263,153,24255,2,2,P|241:223|234:366,1,209.999993591309,2|0,3:1|3:2,0:2:0:0:
233,358,25005,1,0,1:0:0:0:
356,343,25255,1,0,3:2:0:0:
341,318,25380,1,0,3:2:0:0:
315,306,25505,1,8,3:1:0:0:
176,327,25755,2,0,L|135:338,1,41.9999987182618,0|0,3:2|3:2,0:0:0:0:
79,355,26005,5,14,1:0:0:0:
53,362,26130,1,2,2:0:0:0:
86,307,26255,1,2,3:1:0:0:
61,299,26380,1,2,3:2:0:0:
117,265,26505,1,10,3:1:0:0:
100,244,26630,1,2,2:0:0:0:
167,244,26755,1,2,3:1:0:0:
163,217,26880,1,2,3:2:0:0:
135,171,27005,5,6,1:0:0:0:
205,181,27130,1,2,3:2:0:0:
134,144,27255,5,2,3:1:0:0:
205,134,27380,1,2,3:2:0:0:
129,117,27505,5,10,3:1:0:0:
195,87,27630,1,2,2:0:0:0:
117,93,27755,5,2,3:1:0:0:
173,45,27880,1,2,3:2:0:0:
47,60,28005,5,6,1:0:0:0:
21,53,28130,1,2,3:2:0:0:
54,108,28255,1,2,3:1:0:0:
29,116,28380,1,2,3:2:0:0:
85,150,28505,1,14,3:1:0:0:
68,171,28630,1,2,2:0:0:0:
135,171,28755,1,10,3:1:0:0:
131,198,28880,1,2,3:2:0:0:
193,139,29005,5,6,1:0:0:0:
131,103,29130,1,2,3:2:0:0:
210,118,29255,5,2,3:1:0:0:
160,66,29380,1,2,3:2:0:0:
230,100,29505,5,14,3:1:0:0:
197,35,29630,1,2,2:0:0:0:
255,88,29755,5,10,3:1:0:0:
240,16,29880,1,2,3:2:0:0:
356,66,30005,5,6,1:0:0:0:
298,117,30130,1,2,3:2:0:0:
352,120,30255,1,2,3:1:0:0:
301,63,30380,1,2,3:2:0:0:
401,95,30505,5,14,3:1:0:0:
397,149,30630,1,2,2:0:0:0:
350,186,30755,1,10,3:1:0:0:
346,240,30880,1,2,3:2:0:0:
461,260,31005,5,6,1:0:0:0:
395,216,31130,1,2,3:2:0:0:
417,276,31255,1,14,3:1:0:0:
438,199,31380,1,2,3:2:0:0:
355,289,31505,5,14,3:1:0:0:
342,313,31630,1,2,2:0:0:0:
336,340,31755,1,14,3:1:0:0:
336,365,31880,1,2,3:2:0:0:
293,316,32005,6,0,L|247:308,1,41.9999987182618,6|0,1:0|0:0,0:0:0:0:
200,299,32255,2,2,B|205:287|205:287|188:291|176:291|176:291|187:298|200:310|200:310|199:298,1,84,6|0,1:0|0:0,0:1:0:0:
127,283,32755,2,0,B|132:271|132:271|115:275|103:275|103:275|114:282|127:294|127:294|126:282,1,84,6|0,1:0|0:0,0:0:0:0:
53,268,33255,2,0,B|58:256|58:256|41:260|29:260|29:260|40:267|53:279|53:279|52:267,1,84,6|0,1:0|0:0,0:0:0:0:
83,325,33755,5,6,1:0:0:0:
115,221,34005,1,2,2:1:0:0:
