osu file format v14

[General]
AudioFilename: audio.mp3
AudioLeadIn: 0
PreviewTime: 179211
Countdown: 0
SampleSet: Normal
StackLeniency: 0.7
Mode: 3
LetterboxInBreaks: 0
SpecialStyle: 0
WidescreenStoryboard: 0

[Editor]
DistanceSpacing: 0.8
BeatDivisor: 4
GridSize: 16
TimelineZoom: 1.7

[Metadata]
Title:SV Pack
TitleUnicode:SV Pack
Artist:Jack Trammell
ArtistUnicode:Jack Trammell
Creator:Janko
Version:Lust For Power
Source:
Tags:epic music
BeatmapID:1256060
BeatmapSetID:512591

[Difficulty]
HPDrainRate:8.5
CircleSize:4
OverallDifficulty:8.5
ApproachRate:5
SliderMultiplier:1.4
SliderTickRate:1

[Events]
//Background and Video events
0,0,"bg2.png",0,0
//Break Periods
2,90790,96890
//Storyboard Layer 0 (Background)
//Storyboard Layer 1 (Fail)
//Storyboard Layer 2 (Pass)
//Storyboard Layer 3 (Foreground)
//Storyboard Sound Samples

[TimingPoints]
590,468.75,4,1,0,5,1,0
590,-200,4,1,0,5,0,0
30590,-133.333333333333,4,1,0,10,0,0
33402,-88.4955752212389,4,1,0,10,0,0
33871,-80,4,1,0,10,0,0
34340,-133.333333333333,4,1,0,10,0,0
37152,-88.4955752212389,4,1,0,10,0,0
37621,-80,4,1,0,10,0,0
38090,-133.333333333333,4,1,0,10,0,0
40902,-88.4955752212389,4,1,0,10,0,0
41371,-80,4,1,0,10,0,0
41840,-133.333333333333,4,1,0,10,0,0
43715,-88.4955752212389,4,1,0,10,0,0
44652,-133.333333333333,4,1,0,10,0,0
45121,-200,4,1,0,10,0,0
45590,-400,4,1,0,10,0,0
47465,468.75,4,1,0,10,1,0
47465,-10,4,1,0,10,0,0
47582,-1000,4,1,0,10,0,0
48168,-400,4,1,0,10,0,0
48226,-200,4,1,0,10,0,0
48285,-133.333333333333,4,1,0,10,0,0
48343,-100,4,1,0,10,0,0
48402,-133.333333333333,4,1,0,10,0,0
48870,-200,4,1,0,10,0,0
49339,-400,4,1,0,10,0,0
51215,468.75,4,1,0,10,1,0
51215,-10,4,1,0,10,0,0
51332,-1000,4,1,0,10,0,0
51918,-400,4,1,0,10,0,0
51976,-200,4,1,0,10,0,0
52035,-133.333333333333,4,1,0,10,0,0
52093,-100,4,1,0,10,0,0
52152,-133.333333333333,4,1,0,10,0,0
52621,-200,4,1,0,10,0,0
53090,-400,4,1,0,10,0,0
54965,468.75,4,1,0,10,1,0
54965,-10,4,1,0,10,0,0
55082,-1000,4,1,0,10,0,0
55668,-400,4,1,0,10,0,0
55726,-200,4,1,0,10,0,0
55785,-133.333333333333,4,1,0,10,0,0
55843,-100,4,1,0,10,0,0
55902,-133.333333333333,4,1,0,10,0,0
56371,-200,4,1,0,10,0,0
56840,-400,4,1,0,10,0,0
58715,468.75,4,1,0,10,1,0
58715,-10,4,1,0,10,0,0
58832,-1000,4,1,0,10,0,0
59418,-400,4,1,0,10,0,0
59476,-200,4,1,0,10,0,0
59535,-133.333333333333,4,1,0,10,0,0
59593,-100,4,1,0,10,0,0
59652,-133.333333333333,4,1,0,10,0,0
60121,-200,4,1,0,10,0,0
60589,-14.4927536231884,4,1,0,10,0,0
60628,-1000,4,1,0,10,0,0
60941,-14.4927536231884,4,1,0,10,0,0
60980,-1000,4,1,0,10,0,0
61292,-14.4927536231884,4,1,0,10,0,0
61331,-1000,4,1,0,10,0,0
61527,-14.8148148148148,4,1,0,10,0,0
61566,-400,4,1,0,10,0,0
61996,-200,4,1,0,10,0,0
62465,468.75,4,1,0,10,1,0
62465,-10,4,1,0,10,0,0
62582,-1000,4,1,0,10,0,0
63168,-400,4,1,0,10,0,0
63226,-200,4,1,0,10,0,0
63285,-133.333333333333,4,1,0,10,0,0
63343,-100,4,1,0,10,0,0
63402,-133.333333333333,4,1,0,10,0,0
63871,-200,4,1,0,10,0,0
64340,-14.4927536231884,4,1,0,10,0,0
64379,-1000,4,1,0,10,0,0
64691,-14.4927536231884,4,1,0,10,0,0
64730,-1000,4,1,0,10,0,0
65043,-14.4927536231884,4,1,0,10,0,0
65082,-1000,4,1,0,10,0,0
65277,-14.4927536231884,4,1,0,10,0,0
65316,-1000,4,1,0,10,0,0
65746,-14.8148148148148,4,1,0,10,0,0
65785,-400,4,1,0,10,0,0
66215,468.75,4,1,0,10,1,0
66215,-10,4,1,0,10,0,0
66332,-1000,4,1,0,10,0,0
66918,-400,4,1,0,10,0,0
66976,-200,4,1,0,10,0,0
67035,-133.333333333333,4,1,0,10,0,0
67093,-100,4,1,0,10,0,0
67152,-133.333333333333,4,1,0,10,0,0
67621,-200,4,1,0,10,0,0
68090,-14.4927536231884,4,1,0,10,0,0
68129,-1000,4,1,0,10,0,0
68441,-14.4927536231884,4,1,0,10,0,0
68480,-1000,4,1,0,10,0,0
68793,-14.4927536231884,4,1,0,10,0,0
68832,-1000,4,1,0,10,0,0
69027,-14.8148148148148,4,1,0,10,0,0
69066,-400,4,1,0,10,0,0
69496,-200,4,1,0,10,0,0
69965,468.75,4,1,0,10,1,0
69965,-10,4,1,0,10,0,0
70082,-1000,4,1,0,10,0,0
70668,-400,4,1,0,10,0,0
70726,-200,4,1,0,10,0,0
70785,-133.333333333333,4,1,0,10,0,0
70843,-100,4,1,0,10,0,0
70902,-133.333333333333,4,1,0,10,0,0
71371,-200,4,1,0,10,0,0
71840,-14.4927536231884,4,1,0,10,0,0
71879,-1000,4,1,0,10,0,0
72191,-14.4927536231884,4,1,0,10,0,0
72230,-1000,4,1,0,10,0,0
72543,-14.4927536231884,4,1,0,10,0,0
72582,-1000,4,1,0,10,0,0
72777,-14.4927536231884,4,1,0,10,0,0
72816,-1000,4,1,0,10,0,0
73246,-14.4927536231884,4,1,0,10,0,0
73285,-1000,4,1,0,10,0,0
73480,-500,4,1,0,10,0,0
73597,-333.333333333333,4,1,0,10,0,0
73715,-250,4,1,0,10,0,0
73832,-200,4,1,0,10,0,0
73949,-166.666666666667,4,1,0,10,0,0
74066,-142.857142857143,4,1,0,10,0,0
74183,-21.2765957446809,4,1,0,10,0,0
74222,-333.333333333333,4,1,0,10,0,0
74418,-42.5531914893617,4,1,0,10,0,0
74457,-153.846153846154,4,1,0,10,0,0
74652,-42.5531914893617,4,1,0,10,0,0
74691,-153.846153846154,4,1,0,10,0,0
74769,-42.5531914893617,4,1,0,10,0,0
74808,-153.846153846154,4,1,0,10,0,0
75004,-42.5531914893617,4,1,0,10,0,0
75043,-153.846153846154,4,1,0,10,0,0
75355,-42.5531914893617,4,1,0,10,0,0
75394,-153.846153846154,4,1,0,10,0,0
75590,-14.4927536231884,4,1,0,10,0,0
75629,-1000,4,1,0,10,0,0
75824,-42.5531914893617,4,1,0,10,0,0
75863,-153.846153846154,4,1,0,10,0,0
75941,-21.2765957446809,4,1,0,10,0,0
75980,-333.333333333333,4,1,0,10,0,0
76293,-21.2765957446809,4,1,0,10,0,0
76332,-333.333333333333,4,1,0,10,0,0
76527,-21.2765957446809,4,1,0,10,0,0
76566,-333.333333333333,4,1,0,10,0,0
76761,-21.2765957446809,4,1,0,10,0,0
76800,-333.333333333333,4,1,0,10,0,0
76996,-14.4927536231884,4,1,0,10,0,0
77035,-1000,4,1,0,10,0,0
77230,-100,4,1,0,10,0,0
78402,-14.4927536231884,4,1,0,10,0,0
78441,-1000,4,1,0,10,0,0
78636,-100,4,1,0,10,0,0
79340,-14.4927536231884,4,1,0,10,0,0
79379,-1000,4,1,0,10,0,0
79574,-42.5531914893617,4,1,0,10,0,0
79613,-153.846153846154,4,1,0,10,0,0
79691,-21.2765957446809,4,1,0,10,0,0
79730,-333.333333333333,4,1,0,10,0,0
80043,-21.2765957446809,4,1,0,10,0,0
80082,-333.333333333333,4,1,0,10,0,0
80277,-21.2765957446809,4,1,0,10,0,0
80316,-333.333333333333,4,1,0,10,0,0
80511,-21.2765957446809,4,1,0,10,0,0
80550,-333.333333333333,4,1,0,10,0,0
80746,-14.4927536231884,4,1,0,10,0,0
80785,-1000,4,1,0,10,0,0
80980,-100,4,1,0,10,0,0
82152,-14.4927536231884,4,1,0,10,0,0
82191,-1000,4,1,0,10,0,0
82386,-100,4,1,0,10,0,0
83090,-14.4927536231884,4,1,0,10,0,0
83129,-1000,4,1,0,10,0,0
83324,-42.5531914893617,4,1,0,10,0,0
83363,-153.846153846154,4,1,0,10,0,0
83441,-21.2765957446809,4,1,0,10,0,0
83480,-333.333333333333,4,1,0,10,0,0
83793,-21.2765957446809,4,1,0,10,0,0
83832,-333.333333333333,4,1,0,10,0,0
84027,-21.2765957446809,4,1,0,10,0,0
84066,-333.333333333333,4,1,0,10,0,0
84261,-21.2765957446809,4,1,0,10,0,0
84300,-333.333333333333,4,1,0,10,0,0
84496,-14.4927536231884,4,1,0,10,0,0
84535,-1000,4,1,0,10,0,0
84730,-100,4,1,0,10,0,0
85902,-14.4927536231884,4,1,0,10,0,0
85941,-1000,4,1,0,10,0,0
86136,-100,4,1,0,10,0,0
86840,-14.4927536231884,4,1,0,10,0,0
86879,-1000,4,1,0,10,0,0
87074,-42.5531914893617,4,1,0,10,0,0
87113,-153.846153846154,4,1,0,10,0,0
87191,-21.2765957446809,4,1,0,10,0,0
87230,-250,4,1,0,10,0,0
87543,-21.2765957446809,4,1,0,10,0,0
87582,-250,4,1,0,10,0,0
87777,-21.2765957446809,4,1,0,10,0,0
87816,-250,4,1,0,10,0,0
88011,-21.2765957446809,4,1,0,10,0,0
88050,-250,4,1,0,10,0,0
88246,-14.4927536231884,4,1,0,10,0,0
88285,-500,4,1,0,10,0,0
88480,-100,4,1,0,10,0,0
88715,-14.4927536231884,4,1,0,10,0,0
88754,-500,4,1,0,10,0,0
89183,-14.4927536231884,4,1,0,10,0,0
89222,-500,4,1,0,10,0,0
89652,-14.4927536231884,4,1,0,10,0,0
89691,-500,4,1,0,10,0,0
89886,-14.4927536231884,4,1,0,10,0,0
89925,-500,4,1,0,10,0,0
90121,-28.5714285714286,4,1,0,10,0,0
90160,-285.714285714286,4,1,0,10,0,0
90238,-28.5714285714286,4,1,0,10,0,0
90277,-285.714285714286,4,1,0,10,0,0
90355,-28.5714285714286,4,1,0,10,0,0
90394,-285.714285714286,4,1,0,10,0,0
90472,-28.5714285714286,4,1,0,10,0,0
90511,-285.714285714286,4,1,0,10,0,0
90590,-19.047619047619,4,1,0,10,0,0
90629,-133.333333333333,4,1,0,10,0,0
92465,-303.030303030303,4,1,0,10,0,0
94340,-151.515151515152,4,1,0,10,0,0
96215,-100,4,1,0,10,0,0
98090,-133.333333333333,4,1,0,10,0,0
98558,-200,4,1,0,10,0,0
99027,-400,4,1,0,10,0,0
99965,58.59375,4,1,0,10,1,0
99965,-10,4,1,0,10,0,0
99975,600000000.571429,4,2,0,5,1,0
100902,468.75,4,1,0,10,1,0
100902,-133.333333333333,4,1,0,10,0,0
101840,-200,4,1,0,10,0,0
102777,-400,4,1,0,10,0,0
103715,58.59375,4,1,0,10,1,0
103715,-10,4,1,0,10,0,0
103725,600000000.571429,4,2,0,5,1,0
104652,468.75,4,1,0,10,1,0
104652,-133.333333333333,4,1,0,10,0,0
105590,-200,4,1,0,10,0,0
106058,-400,4,1,0,10,0,0
107465,58.59375,4,1,0,10,1,0
107465,-10,4,1,0,10,0,0
107475,600000000.571429,4,2,0,5,1,0
108402,468.75,4,1,0,10,1,0
108402,-133.333333333333,4,1,0,10,0,0
109340,-200,4,1,0,10,0,0
109808,-400,4,1,0,10,0,0
111215,58.59375,4,1,0,10,1,0
111215,-10,4,1,0,10,0,0
111332,600000000.571429,4,2,0,5,1,0
112152,468.75,4,1,0,10,1,0
112152,-14.4927536231884,4,1,0,10,0,0
112191,-333.333333333333,4,1,0,10,0,0
112386,-14.4927536231884,4,1,0,10,0,0
112425,-333.333333333333,4,1,0,10,0,0
112621,-28.5714285714286,4,1,0,10,0,0
112660,-250,4,1,0,10,0,0
112738,-28.5714285714286,4,1,0,10,0,0
112777,-250,4,1,0,10,0,0
112855,-28.5714285714286,4,1,0,10,0,0
112894,-250,4,1,0,10,0,0
112972,-28.5714285714286,4,1,0,10,0,0
113011,-250,4,1,0,10,0,0
113090,-14.4927536231884,4,1,0,10,0,0
113129,-333.333333333333,4,1,0,10,0,0
113324,-42.5531914893617,4,1,0,10,0,0
113363,-153.846153846154,4,1,0,10,0,0
113441,-21.2765957446809,4,1,0,10,0,0
113480,-333.333333333333,4,1,0,10,0,0
113793,-21.2765957446809,4,1,0,10,0,0
113832,-333.333333333333,4,1,0,10,0,0
114027,-21.2765957446809,4,1,0,10,0,0
114066,-333.333333333333,4,1,0,10,0,0
114261,-21.2765957446809,4,1,0,10,0,0
114300,-333.333333333333,4,1,0,10,0,0
114496,-14.4927536231884,4,1,0,10,0,0
114535,-1000,4,1,0,10,0,0
114730,-100,4,1,0,10,0,0
115433,-21.2765957446809,4,1,0,10,0,0
115472,-333.333333333333,4,1,0,10,0,0
115668,-100,4,1,0,10,0,0
115902,-14.4927536231884,4,1,0,10,0,0
115941,-1000,4,1,0,10,0,0
116019,-100,4,1,0,10,0,0
116840,-14.4927536231884,4,1,0,10,0,0
116879,-1000,4,1,0,10,0,0
117074,-42.5531914893617,4,1,0,10,0,0
117113,-153.846153846154,4,1,0,10,0,0
117191,-21.2765957446809,4,1,0,10,0,0
117230,-333.333333333333,4,1,0,10,0,0
117543,-21.2765957446809,4,1,0,10,0,0
117582,-333.333333333333,4,1,0,10,0,0
117777,-21.2765957446809,4,1,0,10,0,0
117816,-333.333333333333,4,1,0,10,0,0
118011,-21.2765957446809,4,1,0,10,0,0
118050,-333.333333333333,4,1,0,10,0,0
118246,-14.4927536231884,4,1,0,10,0,0
118285,-1000,4,1,0,10,0,0
118480,-100,4,1,0,10,0,0
119183,-21.2765957446809,4,1,0,10,0,0
119222,-333.333333333333,4,1,0,10,0,0
119418,-21.2765957446809,4,1,0,10,0,0
119457,-333.333333333333,4,1,0,10,0,0
119652,-14.4927536231884,4,1,0,10,0,0
119691,-1000,4,1,0,10,0,0
119886,-42.5531914893617,4,1,0,10,0,0
119925,-153.846153846154,4,1,0,10,0,0
120004,-21.2765957446809,4,1,0,10,0,0
120043,-333.333333333333,4,1,0,10,0,0
120355,-21.2765957446809,4,1,0,10,0,0
120394,-333.333333333333,4,1,0,10,0,0
120590,-14.4927536231884,4,1,0,10,0,0
120629,-1000,4,1,0,10,0,0
120824,-42.5531914893617,4,1,0,10,0,0
120863,-153.846153846154,4,1,0,10,0,0
120941,-21.2765957446809,4,1,0,10,0,0
120980,-333.333333333333,4,1,0,10,0,0
121293,-21.2765957446809,4,1,0,10,0,0
121332,-333.333333333333,4,1,0,10,0,0
121527,-21.2765957446809,4,1,0,10,0,0
121566,-333.333333333333,4,1,0,10,0,0
121761,-21.2765957446809,4,1,0,10,0,0
121800,-333.333333333333,4,1,0,10,0,0
121996,-14.4927536231884,4,1,0,10,0,0
122035,-1000,4,1,0,10,0,0
122230,-100,4,1,0,10,0,0
122933,-21.2765957446809,4,1,0,10,0,0
122972,-333.333333333333,4,1,0,10,0,0
123168,-42.5531914893617,4,1,0,10,0,0
123207,-153.846153846154,4,1,0,10,0,0
123285,-42.5531914893617,4,1,0,10,0,0
123324,-153.846153846154,4,1,0,10,0,0
123402,-14.4927536231884,4,1,0,10,0,0
123441,-1000,4,1,0,10,0,0
123636,-100,4,1,0,10,0,0
124340,-14.4927536231884,4,1,0,10,0,0
124379,-1000,4,1,0,10,0,0
124574,-42.5531914893617,4,1,0,10,0,0
124613,-153.846153846154,4,1,0,10,0,0
124691,-21.2765957446809,4,1,0,10,0,0
124730,-333.333333333333,4,1,0,10,0,0
125043,-21.2765957446809,4,1,0,10,0,0
125082,-333.333333333333,4,1,0,10,0,0
125277,-21.2765957446809,4,1,0,10,0,0
125316,-333.333333333333,4,1,0,10,0,0
125511,-21.2765957446809,4,1,0,10,0,0
125550,-333.333333333333,4,1,0,10,0,0
125746,-14.4927536231884,4,1,0,10,0,0
125785,-1000,4,1,0,10,0,0
125980,-100,4,1,0,10,0,0
126683,-21.2765957446809,4,1,0,10,0,0
126722,-333.333333333333,4,1,0,10,0,0
126918,-21.2765957446809,4,1,0,10,0,0
126957,-333.333333333333,4,1,0,10,0,0
127152,-14.4927536231884,4,1,0,10,0,0
127191,-500,4,1,0,10,0,0
127386,-14.4927536231884,4,1,0,10,0,0
127425,-500,4,1,0,10,0,0
127621,-28.5714285714286,4,1,0,10,0,0
127660,-285.714285714286,4,1,0,10,0,0
127738,-28.5714285714286,4,1,0,10,0,0
127777,-285.714285714286,4,1,0,10,0,0
127855,-28.5714285714286,4,1,0,10,0,0
127894,-285.714285714286,4,1,0,10,0,0
127972,-28.5714285714286,4,1,0,10,0,0
128011,-285.714285714286,4,1,0,10,0,0
128090,-14.4927536231884,4,1,0,10,0,0
128129,-1000,4,1,0,10,0,0
128324,-42.5531914893617,4,1,0,10,0,0
128363,-153.846153846154,4,1,0,10,0,0
128441,-21.2765957446809,4,1,0,10,0,0
128480,-333.333333333333,4,1,0,10,0,0
128675,-42.5531914893617,4,1,0,10,0,0
128715,-153.846153846154,4,1,0,10,0,0
128793,-21.2765957446809,4,1,0,10,0,0
128832,-333.333333333333,4,1,0,10,0,0
129027,-21.2765957446809,4,1,0,10,0,0
129066,-333.333333333333,4,1,0,10,0,0
129261,-21.2765957446809,4,1,0,10,0,0
129300,-333.333333333333,4,1,0,10,0,0
129496,-14.4927536231884,4,1,0,10,0,0
129535,-1000,4,1,0,10,0,0
129730,-100,4,1,0,10,0,0
130433,-21.2765957446809,4,1,0,10,0,0
130472,-333.333333333333,4,1,0,10,0,0
130668,-42.5531914893617,4,1,0,10,0,0
130707,-153.846153846154,4,1,0,10,0,0
130785,-42.5531914893617,4,1,0,10,0,0
130824,-153.846153846154,4,1,0,10,0,0
130902,-14.4927536231884,4,1,0,10,0,0
130941,-1000,4,1,0,10,0,0
131136,-100,4,1,0,10,0,0
131840,-14.4927536231884,4,1,0,10,0,0
131879,-1000,4,1,0,10,0,0
132074,-42.5531914893617,4,1,0,10,0,0
132113,-153.846153846154,4,1,0,10,0,0
132191,-21.2765957446809,4,1,0,10,0,0
132230,-333.333333333333,4,1,0,10,0,0
132425,-42.5531914893617,4,1,0,10,0,0
132465,-153.846153846154,4,1,0,10,0,0
132543,-21.2765957446809,4,1,0,10,0,0
132582,-333.333333333333,4,1,0,10,0,0
132777,-21.2765957446809,4,1,0,10,0,0
132816,-333.333333333333,4,1,0,10,0,0
133011,-21.2765957446809,4,1,0,10,0,0
133050,-333.333333333333,4,1,0,10,0,0
133246,-14.4927536231884,4,1,0,10,0,0
133285,-1000,4,1,0,10,0,0
133480,-100,4,1,0,10,0,0
134183,-21.2765957446809,4,1,0,10,0,0
134222,-333.333333333333,4,1,0,10,0,0
134300,-100,4,1,0,10,0,0
134418,-21.2765957446809,4,1,0,10,0,0
134457,-333.333333333333,4,1,0,10,0,0
134535,-100,4,1,0,10,0,0
134652,-14.4927536231884,4,1,0,10,0,0
134691,-1000,4,1,0,10,0,0
134769,-100,4,1,0,10,0,0
135004,-21.2765957446809,4,1,0,10,0,0
135043,-333.333333333333,4,1,0,10,0,0
135121,-100,4,1,0,10,0,0
135355,-21.2765957446809,4,1,0,10,0,0
135394,-333.333333333333,4,1,0,10,0,0
135590,-14.4927536231884,4,1,0,10,0,0
135629,-1000,4,1,0,10,0,0
135824,-42.5531914893617,4,1,0,10,0,0
135863,-153.846153846154,4,1,0,10,0,0
135941,-21.2765957446809,4,1,0,10,0,0
135980,-333.333333333333,4,1,0,10,0,0
136175,-42.5531914893617,4,1,0,10,0,0
136215,-153.846153846154,4,1,0,10,0,0
136293,-21.2765957446809,4,1,0,10,0,0
136332,-333.333333333333,4,1,0,10,0,0
136527,-21.2765957446809,4,1,0,10,0,0
136566,-333.333333333333,4,1,0,10,0,0
136761,-21.2765957446809,4,1,0,10,0,0
136800,-333.333333333333,4,1,0,10,0,0
136996,-14.4927536231884,4,1,0,10,0,0
137035,-1000,4,1,0,10,0,0
137113,-100,4,1,0,10,0,0
137933,-21.2765957446809,4,1,0,10,0,0
137972,-333.333333333333,4,1,0,10,0,0
138168,-42.5531914893617,4,1,0,10,0,0
138207,-153.846153846154,4,1,0,10,0,0
138285,-42.5531914893617,4,1,0,10,0,0
138324,-153.846153846154,4,1,0,10,0,0
138402,-14.4927536231884,4,1,0,10,0,0
138441,-1000,4,1,0,10,0,0
138519,-100,4,1,0,10,0,0
139340,-13.3333333333334,4,1,0,10,0,0
139379,-1000,4,1,0,10,0,0
139691,-18.8679245283019,4,1,0,10,0,0
139730,-333.333333333333,4,1,0,10,0,0
140043,-18.8679245283019,4,1,0,10,0,0
140082,-333.333333333333,4,1,0,10,0,0
140277,-18.8679245283019,4,1,0,10,0,0
140316,-333.333333333333,4,1,0,10,0,0
140511,-18.8679245283019,4,1,0,10,0,0
140550,-333.333333333333,4,1,0,10,0,0
140746,-13.3333333333334,4,1,0,10,0,0
140785,-1000,4,1,0,10,0,0
140863,-100,4,1,0,10,0,0
141683,-21.2765957446809,4,1,0,10,0,0
141722,-333.333333333333,4,1,0,10,0,0
141800,-100,4,1,0,10,0,0
142152,-21.2765957446809,4,1,0,10,0,0
142191,-333.333333333333,4,1,0,10,0,0
142269,-100,4,1,0,10,0,0
142386,-21.2765957446809,4,1,0,10,0,0
142425,-333.333333333333,4,1,0,10,0,0
142504,-100,4,1,0,10,0,0
142621,-28.5714285714286,4,1,0,10,0,0
142660,-200,4,1,0,10,0,0
142738,-28.5714285714286,4,1,0,10,0,0
142777,-200,4,1,0,10,0,0
142855,-28.5714285714286,4,1,0,10,0,0
142894,-200,4,1,0,10,0,0
142972,-28.5714285714286,4,1,0,10,0,0
143011,-200,4,1,0,10,0,0
143090,-19.047619047619,4,1,0,10,0,0
143129,-133.333333333333,4,1,0,10,0,0
143207,-100,4,1,0,10,0,0
143558,-133.333333333333,4,1,0,10,0,0
144496,-200,4,1,0,10,0,0
145902,-400,4,1,0,10,0,0

[HitObjects]
320,192,590,5,0,0:0:0:0:
320,192,1527,1,0,0:0:0:0:
320,192,2465,1,0,0:0:0:0:
320,192,3402,1,0,0:0:0:0:
64,192,4340,1,0,0:0:0:0:
64,192,5277,1,0,0:0:0:0:
64,192,6215,1,0,0:0:0:0:
64,192,7152,1,0,0:0:0:0:
320,192,8090,1,0,0:0:0:0:
320,192,9027,1,0,0:0:0:0:
320,192,9965,1,0,0:0:0:0:
320,192,10902,1,0,0:0:0:0:
192,192,11840,1,0,0:0:0:0:
192,192,12777,1,0,0:0:0:0:
192,192,13715,1,0,0:0:0:0:
192,192,14652,1,0,0:0:0:0:
320,192,15590,1,0,0:0:0:0:
320,192,16527,1,0,0:0:0:0:
320,192,17465,1,0,0:0:0:0:
448,192,18402,1,0,0:0:0:0:
320,192,19340,1,0,0:0:0:0:
448,192,19340,1,0,0:0:0:0:
320,192,20277,1,0,0:0:0:0:
320,192,21215,1,0,0:0:0:0:
448,192,22152,1,0,0:0:0:0:
448,192,22621,1,0,0:0:0:0:
320,192,23090,1,0,0:0:0:0:
448,192,23090,1,0,0:0:0:0:
320,192,24027,1,0,0:0:0:0:
320,192,24965,1,0,0:0:0:0:
64,192,25902,1,0,0:0:0:0:
192,192,26840,1,0,0:0:0:0:
448,192,26840,1,0,0:0:0:0:
192,192,27777,1,0,0:0:0:0:
320,192,28715,1,0,0:0:0:0:
448,192,28715,1,0,0:0:0:0:
448,192,29652,1,0,0:0:0:0:
320,192,30590,128,0,33402:0:0:0:0:
448,192,33402,128,0,34340:0:0:0:0:
192,192,33871,128,0,34340:0:0:0:0:
64,192,33871,1,0,0:0:0:0:
320,192,34340,128,0,37152:0:0:0:0:
448,192,37152,1,0,0:0:0:0:
64,192,37152,128,0,38090:0:0:0:0:
448,192,37621,1,0,0:0:0:0:
192,192,37621,128,0,38090:0:0:0:0:
320,192,38090,128,0,40902:0:0:0:0:
64,192,40902,1,0,0:0:0:0:
448,192,40902,128,0,41840:0:0:0:0:
64,192,41371,128,0,41840:0:0:0:0:
192,192,41371,1,0,0:0:0:0:
320,192,41840,128,0,43715:0:0:0:0:
448,192,43715,128,0,44652:0:0:0:0:
192,192,43715,1,0,0:0:0:0:
64,192,44652,128,0,47465:0:0:0:0:
192,192,44652,128,0,45121:0:0:0:0:
320,192,44652,128,0,45121:0:0:0:0:
448,192,45121,128,0,45590:0:0:0:0:
320,192,45590,128,0,47465:0:0:0:0:
64,192,48402,128,0,51215:0:0:0:0:
192,192,48402,128,0,48871:0:0:0:0:
320,192,48402,128,0,48871:0:0:0:0:
448,192,48871,128,0,49340:0:0:0:0:
320,192,49340,128,0,51215:0:0:0:0:
64,192,52152,128,0,54965:0:0:0:0:
448,192,52152,128,0,52621:0:0:0:0:
320,192,52152,128,0,52621:0:0:0:0:
192,192,52621,128,0,53090:0:0:0:0:
320,192,53090,128,0,54965:0:0:0:0:
64,192,55902,128,0,58715:0:0:0:0:
192,192,55902,128,0,56371:0:0:0:0:
448,192,55902,128,0,56371:0:0:0:0:
320,192,56371,128,0,56840:0:0:0:0:
448,192,56840,128,0,58715:0:0:0:0:
64,192,59652,128,0,60590:0:0:0:0:
192,192,59652,128,0,60121:0:0:0:0:
448,192,60121,1,0,0:0:0:0:
448,192,60590,1,0,0:0:0:0:
320,192,60590,1,0,0:0:0:0:
192,192,60590,1,0,0:0:0:0:
64,192,60941,1,0,0:0:0:0:
320,192,60941,1,0,0:0:0:0:
448,192,60941,1,0,0:0:0:0:
320,192,61293,1,0,0:0:0:0:
192,192,61293,1,0,0:0:0:0:
64,192,61293,1,0,0:0:0:0:
192,192,61527,1,0,0:0:0:0:
64,192,61527,1,0,0:0:0:0:
448,192,61527,128,0,62465:0:0:0:0:
320,192,61996,128,0,62465:0:0:0:0:
64,192,63402,128,0,64340:0:0:0:0:
192,192,63402,128,0,63871:0:0:0:0:
320,192,63871,1,0,0:0:0:0:
448,192,64340,1,0,0:0:0:0:
320,192,64340,1,0,0:0:0:0:
192,192,64340,1,0,0:0:0:0:
64,192,64691,1,0,0:0:0:0:
192,192,64691,1,0,0:0:0:0:
448,192,64691,1,0,0:0:0:0:
64,192,65043,1,0,0:0:0:0:
320,192,65043,1,0,0:0:0:0:
448,192,65043,1,0,0:0:0:0:
64,192,65277,1,0,0:0:0:0:
192,192,65277,1,0,0:0:0:0:
320,192,65277,1,0,0:0:0:0:
192,192,65746,1,0,0:0:0:0:
320,192,65746,1,0,0:0:0:0:
448,192,65746,128,0,66215:0:0:0:0:
64,192,67152,128,0,68090:0:0:0:0:
192,192,67152,128,0,67621:0:0:0:0:
448,192,67621,1,0,0:0:0:0:
192,192,68090,1,0,0:0:0:0:
320,192,68090,1,0,0:0:0:0:
448,192,68090,1,0,0:0:0:0:
192,192,68441,1,0,0:0:0:0:
64,192,68441,1,0,0:0:0:0:
320,192,68441,1,0,0:0:0:0:
448,192,68793,1,0,0:0:0:0:
320,192,68793,1,0,0:0:0:0:
64,192,68793,1,0,0:0:0:0:
64,192,69027,1,0,0:0:0:0:
448,192,69027,1,0,0:0:0:0:
192,192,69027,128,0,69965:0:0:0:0:
320,192,69496,128,0,69965:0:0:0:0:
64,192,70902,128,0,71840:0:0:0:0:
320,192,70902,128,0,71371:0:0:0:0:
448,192,71840,1,0,0:0:0:0:
320,192,71840,1,0,0:0:0:0:
192,192,71840,1,0,0:0:0:0:
448,192,72191,1,0,0:0:0:0:
192,192,72191,1,0,0:0:0:0:
64,192,72191,1,0,0:0:0:0:
320,192,72543,1,0,0:0:0:0:
64,192,72543,1,0,0:0:0:0:
192,192,72543,1,0,0:0:0:0:
448,192,72777,1,0,0:0:0:0:
320,192,72777,1,0,0:0:0:0:
64,192,72777,1,0,0:0:0:0:
192,192,73246,1,0,0:0:0:0:
320,192,73246,1,0,0:0:0:0:
448,192,73246,1,0,0:0:0:0:
64,192,73715,128,0,74183:0:0:0:0:
192,192,74183,1,0,0:0:0:0:
448,192,74183,1,0,0:0:0:0:
64,192,74418,1,0,0:0:0:0:
320,192,74652,1,0,0:0:0:0:
448,192,74652,128,0,75590:0:0:0:0:
192,192,74769,1,0,0:0:0:0:
64,192,75004,1,0,0:0:0:0:
320,192,75004,1,0,0:0:0:0:
320,192,75355,1,0,0:0:0:0:
192,192,75355,1,0,0:0:0:0:
320,192,75590,1,0,0:0:0:0:
192,192,75590,1,0,0:0:0:0:
64,192,75590,1,0,0:0:0:0:
448,192,75824,1,0,0:0:0:0:
64,192,75941,1,0,0:0:0:0:
192,192,75941,1,0,0:0:0:0:
320,192,76293,1,0,0:0:0:0:
448,192,76293,1,0,0:0:0:0:
64,192,76527,1,0,0:0:0:0:
192,192,76527,1,0,0:0:0:0:
320,192,76761,1,0,0:0:0:0:
448,192,76761,1,0,0:0:0:0:
64,192,76996,1,0,0:0:0:0:
192,192,76996,1,0,0:0:0:0:
320,192,77230,1,0,0:0:0:0:
64,192,77465,1,0,0:0:0:0:
192,192,77582,1,0,0:0:0:0:
448,192,77699,1,0,0:0:0:0:
320,192,77816,1,0,0:0:0:0:
64,192,77933,1,0,0:0:0:0:
192,192,78050,1,0,0:0:0:0:
448,192,78168,1,0,0:0:0:0:
320,192,78285,1,0,0:0:0:0:
64,192,78402,1,0,0:0:0:0:
448,192,78402,1,0,0:0:0:0:
192,192,78402,1,0,0:0:0:0:
320,192,78636,1,0,0:0:0:0:
64,192,78754,1,0,0:0:0:0:
192,192,78871,1,0,0:0:0:0:
320,192,78988,1,0,0:0:0:0:
448,192,79105,1,0,0:0:0:0:
320,192,79340,1,0,0:0:0:0:
192,192,79340,1,0,0:0:0:0:
64,192,79340,1,0,0:0:0:0:
448,192,79574,1,0,0:0:0:0:
320,192,79691,1,0,0:0:0:0:
64,192,79691,1,0,0:0:0:0:
192,192,80043,1,0,0:0:0:0:
448,192,80043,1,0,0:0:0:0:
320,192,80277,1,0,0:0:0:0:
64,192,80277,1,0,0:0:0:0:
448,192,80511,1,0,0:0:0:0:
192,192,80511,1,0,0:0:0:0:
320,192,80746,1,0,0:0:0:0:
448,192,80746,128,0,81215:0:0:0:0:
64,192,80746,1,0,0:0:0:0:
192,192,80980,1,0,0:0:0:0:
320,192,81097,1,0,0:0:0:0:
64,192,81215,1,0,0:0:0:0:
192,192,81332,1,0,0:0:0:0:
320,192,81449,1,0,0:0:0:0:
448,192,81566,1,0,0:0:0:0:
192,192,81683,1,0,0:0:0:0:
320,192,81800,1,0,0:0:0:0:
64,192,81918,1,0,0:0:0:0:
192,192,82035,1,0,0:0:0:0:
320,192,82152,1,0,0:0:0:0:
64,192,82152,1,0,0:0:0:0:
448,192,82152,128,0,83090:0:0:0:0:
192,192,82386,1,0,0:0:0:0:
320,192,82504,1,0,0:0:0:0:
64,192,82621,1,0,0:0:0:0:
192,192,82738,1,0,0:0:0:0:
320,192,82855,1,0,0:0:0:0:
64,192,82972,1,0,0:0:0:0:
320,192,83090,1,0,0:0:0:0:
192,192,83090,1,0,0:0:0:0:
64,192,83090,1,0,0:0:0:0:
448,192,83324,1,0,0:0:0:0:
192,192,83441,1,0,0:0:0:0:
320,192,83441,1,0,0:0:0:0:
64,192,83793,1,0,0:0:0:0:
448,192,83793,1,0,0:0:0:0:
192,192,84027,1,0,0:0:0:0:
320,192,84027,1,0,0:0:0:0:
64,192,84261,1,0,0:0:0:0:
448,192,84261,1,0,0:0:0:0:
192,192,84496,1,0,0:0:0:0:
320,192,84496,1,0,0:0:0:0:
64,192,84730,1,0,0:0:0:0:
192,192,84847,1,0,0:0:0:0:
320,192,84965,1,0,0:0:0:0:
448,192,85082,1,0,0:0:0:0:
64,192,85199,1,0,0:0:0:0:
192,192,85316,1,0,0:0:0:0:
64,192,85433,1,0,0:0:0:0:
192,192,85550,1,0,0:0:0:0:
448,192,85668,1,0,0:0:0:0:
320,192,85785,1,0,0:0:0:0:
192,192,85902,1,0,0:0:0:0:
64,192,85902,1,0,0:0:0:0:
448,192,85902,1,0,0:0:0:0:
320,192,86136,1,0,0:0:0:0:
64,192,86254,1,0,0:0:0:0:
192,192,86371,1,0,0:0:0:0:
320,192,86488,1,0,0:0:0:0:
64,192,86605,1,0,0:0:0:0:
192,192,86722,1,0,0:0:0:0:
320,192,86840,1,0,0:0:0:0:
64,192,86840,1,0,0:0:0:0:
448,192,86840,1,0,0:0:0:0:
192,192,87074,1,0,0:0:0:0:
320,192,87191,1,0,0:0:0:0:
448,192,87191,1,0,0:0:0:0:
192,192,87543,1,0,0:0:0:0:
64,192,87543,1,0,0:0:0:0:
320,192,87777,1,0,0:0:0:0:
448,192,87777,1,0,0:0:0:0:
64,192,88011,1,0,0:0:0:0:
192,192,88011,1,0,0:0:0:0:
448,192,88246,1,0,0:0:0:0:
320,192,88246,1,0,0:0:0:0:
64,192,88480,1,0,0:0:0:0:
192,192,88597,1,0,0:0:0:0:
448,192,88715,1,0,0:0:0:0:
320,192,88715,1,0,0:0:0:0:
64,192,89183,1,0,0:0:0:0:
192,192,89183,1,0,0:0:0:0:
320,192,89652,1,0,0:0:0:0:
448,192,89652,1,0,0:0:0:0:
64,192,89886,1,0,0:0:0:0:
192,192,89886,1,0,0:0:0:0:
320,192,90121,1,0,0:0:0:0:
448,192,90121,1,0,0:0:0:0:
64,192,90238,1,0,0:0:0:0:
192,192,90238,1,0,0:0:0:0:
320,192,90355,1,0,0:0:0:0:
448,192,90355,1,0,0:0:0:0:
192,192,90472,1,0,0:0:0:0:
64,192,90472,1,0,0:0:0:0:
320,192,90590,1,0,0:0:0:0:
64,192,90590,1,0,0:0:0:0:
448,192,90590,1,0,0:0:0:0:
64,192,98090,132,0,99965:0:0:0:0:
448,192,98324,1,0,0:0:0:0:
192,192,98558,128,0,99965:0:0:0:0:
320,192,99027,128,0,99965:0:0:0:0:
448,192,99965,1,0,0:0:0:0:
192,192,100902,128,0,103714:0:0:0:0:
448,192,101136,1,0,0:0:0:0:
320,192,101370,128,0,103714:0:0:0:0:
64,192,101839,128,0,103714:0:0:0:0:
448,192,102777,128,0,103714:0:0:0:0:
192,192,104652,128,0,107465:0:0:0:0:
320,192,104886,1,0,0:0:0:0:
448,192,105120,128,0,107464:0:0:0:0:
64,192,105589,128,0,107465:0:0:0:0:
320,192,106058,128,0,107465:0:0:0:0:
320,192,108402,128,0,111214:0:0:0:0:
64,192,108636,1,0,0:0:0:0:
192,192,108870,128,0,111214:0:0:0:0:
448,192,109339,128,0,111214:0:0:0:0:
64,192,109808,128,0,111214:0:0:0:0:
448,192,112152,1,0,0:0:0:0:
320,192,112152,1,0,0:0:0:0:
192,192,112152,1,0,0:0:0:0:
64,192,112152,1,0,0:0:0:0:
448,192,112386,1,0,0:0:0:0:
192,192,112386,1,0,0:0:0:0:
64,192,112386,1,0,0:0:0:0:
320,192,112620,1,0,0:0:0:0:
448,192,112620,1,0,0:0:0:0:
192,192,112737,1,0,0:0:0:0:
64,192,112737,1,0,0:0:0:0:
448,192,112855,1,0,0:0:0:0:
320,192,112855,1,0,0:0:0:0:
192,192,112972,1,0,0:0:0:0:
64,192,112972,1,0,0:0:0:0:
64,192,113089,1,0,0:0:0:0:
320,192,113089,1,0,0:0:0:0:
448,192,113089,1,0,0:0:0:0:
192,192,113323,1,0,0:0:0:0:
448,192,113441,1,0,0:0:0:0:
320,192,113441,1,0,0:0:0:0:
192,192,113792,1,0,0:0:0:0:
64,192,113792,1,0,0:0:0:0:
320,192,114027,1,0,0:0:0:0:
448,192,114027,1,0,0:0:0:0:
64,192,114261,1,0,0:0:0:0:
192,192,114261,1,0,0:0:0:0:
320,192,114495,1,0,0:0:0:0:
448,192,114495,1,0,0:0:0:0:
192,192,114730,1,0,0:0:0:0:
64,192,114847,1,0,0:0:0:0:
320,192,114964,1,0,0:0:0:0:
448,192,115081,1,0,0:0:0:0:
192,192,115198,1,0,0:0:0:0:
64,192,115316,1,0,0:0:0:0:
448,192,115433,1,0,0:0:0:0:
320,192,115433,1,0,0:0:0:0:
64,192,115667,1,0,0:0:0:0:
192,192,115784,1,0,0:0:0:0:
320,192,115902,1,0,0:0:0:0:
448,192,115902,128,0,116839:0:0:0:0:
64,192,116136,1,0,0:0:0:0:
320,192,116253,1,0,0:0:0:0:
192,192,116370,1,0,0:0:0:0:
64,192,116487,1,0,0:0:0:0:
320,192,116605,1,0,0:0:0:0:
192,192,116722,1,0,0:0:0:0:
320,192,116839,1,0,0:0:0:0:
192,192,116839,1,0,0:0:0:0:
64,192,116839,1,0,0:0:0:0:
64,192,117073,1,0,0:0:0:0:
320,192,117191,1,0,0:0:0:0:
192,192,117191,1,0,0:0:0:0:
64,192,117542,1,0,0:0:0:0:
448,192,117542,1,0,0:0:0:0:
192,192,117777,1,0,0:0:0:0:
320,192,117777,1,0,0:0:0:0:
64,192,118011,1,0,0:0:0:0:
448,192,118011,1,0,0:0:0:0:
192,192,118245,1,0,0:0:0:0:
320,192,118245,1,0,0:0:0:0:
448,192,118480,1,0,0:0:0:0:
320,192,118597,1,0,0:0:0:0:
192,192,118714,1,0,0:0:0:0:
64,192,118831,1,0,0:0:0:0:
192,192,118948,1,0,0:0:0:0:
320,192,119066,1,0,0:0:0:0:
64,192,119183,1,0,0:0:0:0:
448,192,119183,1,0,0:0:0:0:
192,192,119417,1,0,0:0:0:0:
320,192,119417,1,0,0:0:0:0:
64,192,119652,1,0,0:0:0:0:
448,192,119652,128,0,120589:0:0:0:0:
320,192,119886,1,0,0:0:0:0:
64,192,120003,1,0,0:0:0:0:
192,192,120003,1,0,0:0:0:0:
320,192,120355,1,0,0:0:0:0:
192,192,120355,1,0,0:0:0:0:
320,192,120589,1,0,0:0:0:0:
192,192,120589,1,0,0:0:0:0:
64,192,120589,1,0,0:0:0:0:
448,192,120823,1,0,0:0:0:0:
320,192,120941,1,0,0:0:0:0:
64,192,120941,1,0,0:0:0:0:
192,192,121292,1,0,0:0:0:0:
448,192,121292,1,0,0:0:0:0:
320,192,121527,1,0,0:0:0:0:
64,192,121527,1,0,0:0:0:0:
192,192,121761,1,0,0:0:0:0:
448,192,121761,1,0,0:0:0:0:
64,192,121995,1,0,0:0:0:0:
320,192,121995,1,0,0:0:0:0:
448,192,122230,1,0,0:0:0:0:
320,192,122347,1,0,0:0:0:0:
192,192,122464,1,0,0:0:0:0:
64,192,122581,1,0,0:0:0:0:
448,192,122698,1,0,0:0:0:0:
320,192,122816,1,0,0:0:0:0:
192,192,122933,1,0,0:0:0:0:
64,192,122933,1,0,0:0:0:0:
448,192,123167,1,0,0:0:0:0:
320,192,123284,1,0,0:0:0:0:
192,192,123402,1,0,0:0:0:0:
64,192,123402,128,0,124339:0:0:0:0:
448,192,123402,1,0,0:0:0:0:
320,192,123636,1,0,0:0:0:0:
448,192,123870,1,0,0:0:0:0:
192,192,124105,1,0,0:0:0:0:
192,192,124339,1,0,0:0:0:0:
320,192,124339,1,0,0:0:0:0:
448,192,124339,1,0,0:0:0:0:
64,192,124573,1,0,0:0:0:0:
320,192,124691,1,0,0:0:0:0:
448,192,124691,1,0,0:0:0:0:
192,192,125042,1,0,0:0:0:0:
64,192,125042,1,0,0:0:0:0:
448,192,125277,1,0,0:0:0:0:
320,192,125277,1,0,0:0:0:0:
192,192,125511,1,0,0:0:0:0:
64,192,125511,1,0,0:0:0:0:
320,192,125745,1,0,0:0:0:0:
448,192,125745,1,0,0:0:0:0:
64,192,125980,1,0,0:0:0:0:
192,192,126097,1,0,0:0:0:0:
320,192,126214,1,0,0:0:0:0:
448,192,126448,1,0,0:0:0:0:
320,192,126566,1,0,0:0:0:0:
64,192,126683,1,0,0:0:0:0:
448,192,126683,1,0,0:0:0:0:
320,192,126917,1,0,0:0:0:0:
192,192,126917,1,0,0:0:0:0:
448,192,127152,1,0,0:0:0:0:
64,192,127152,1,0,0:0:0:0:
192,192,127152,1,0,0:0:0:0:
320,192,127386,1,0,0:0:0:0:
448,192,127386,1,0,0:0:0:0:
192,192,127620,1,0,0:0:0:0:
64,192,127620,1,0,0:0:0:0:
320,192,127737,1,0,0:0:0:0:
448,192,127737,1,0,0:0:0:0:
192,192,127855,1,0,0:0:0:0:
64,192,127855,1,0,0:0:0:0:
320,192,127972,1,0,0:0:0:0:
448,192,127972,1,0,0:0:0:0:
192,192,128089,1,0,0:0:0:0:
448,192,128089,1,0,0:0:0:0:
64,192,128089,1,0,0:0:0:0:
320,192,128323,1,0,0:0:0:0:
64,192,128441,1,0,0:0:0:0:
192,192,128441,1,0,0:0:0:0:
448,192,128675,1,0,0:0:0:0:
192,192,128792,1,0,0:0:0:0:
64,192,128792,1,0,0:0:0:0:
320,192,129027,1,0,0:0:0:0:
448,192,129027,1,0,0:0:0:0:
192,192,129261,1,0,0:0:0:0:
64,192,129261,1,0,0:0:0:0:
320,192,129495,1,0,0:0:0:0:
448,192,129495,1,0,0:0:0:0:
64,192,129730,1,0,0:0:0:0:
192,192,129847,1,0,0:0:0:0:
448,192,129964,1,0,0:0:0:0:
320,192,130081,1,0,0:0:0:0:
192,192,130198,1,0,0:0:0:0:
320,192,130316,1,0,0:0:0:0:
448,192,130433,1,0,0:0:0:0:
64,192,130433,1,0,0:0:0:0:
320,192,130667,1,0,0:0:0:0:
448,192,130784,1,0,0:0:0:0:
320,192,130902,1,0,0:0:0:0:
192,192,130902,1,0,0:0:0:0:
64,192,130902,128,0,131839:0:0:0:0:
448,192,131136,1,0,0:0:0:0:
320,192,131253,1,0,0:0:0:0:
192,192,131370,1,0,0:0:0:0:
448,192,131487,1,0,0:0:0:0:
320,192,131605,1,0,0:0:0:0:
448,192,131722,1,0,0:0:0:0:
192,192,131839,1,0,0:0:0:0:
320,192,131839,1,0,0:0:0:0:
64,192,132073,1,0,0:0:0:0:
320,192,132191,1,0,0:0:0:0:
448,192,132191,1,0,0:0:0:0:
192,192,132425,1,0,0:0:0:0:
64,192,132542,1,0,0:0:0:0:
448,192,132542,1,0,0:0:0:0:
192,192,132777,1,0,0:0:0:0:
320,192,132777,1,0,0:0:0:0:
448,192,133011,1,0,0:0:0:0:
64,192,133011,1,0,0:0:0:0:
192,192,133245,1,0,0:0:0:0:
320,192,133245,1,0,0:0:0:0:
64,192,133480,1,0,0:0:0:0:
192,192,133597,1,0,0:0:0:0:
320,192,133714,1,0,0:0:0:0:
448,192,133831,1,0,0:0:0:0:
64,192,133948,1,0,0:0:0:0:
192,192,134066,1,0,0:0:0:0:
64,192,134183,1,0,0:0:0:0:
320,192,134183,1,0,0:0:0:0:
192,192,134417,1,0,0:0:0:0:
320,192,134417,1,0,0:0:0:0:
192,192,134652,1,0,0:0:0:0:
448,192,134652,128,0,135589:0:0:0:0:
64,192,134652,1,0,0:0:0:0:
320,192,134886,1,0,0:0:0:0:
192,192,135003,1,0,0:0:0:0:
64,192,135003,1,0,0:0:0:0:
192,192,135355,1,0,0:0:0:0:
320,192,135355,1,0,0:0:0:0:
64,192,135589,1,0,0:0:0:0:
192,192,135589,1,0,0:0:0:0:
320,192,135589,1,0,0:0:0:0:
448,192,135823,1,0,0:0:0:0:
64,192,135941,1,0,0:0:0:0:
192,192,135941,1,0,0:0:0:0:
448,192,136175,1,0,0:0:0:0:
320,192,136292,1,0,0:0:0:0:
64,192,136292,1,0,0:0:0:0:
192,192,136527,1,0,0:0:0:0:
448,192,136527,1,0,0:0:0:0:
320,192,136761,1,0,0:0:0:0:
64,192,136761,1,0,0:0:0:0:
192,192,136995,1,0,0:0:0:0:
448,192,136995,1,0,0:0:0:0:
320,192,137230,1,0,0:0:0:0:
448,192,137347,1,0,0:0:0:0:
192,192,137464,1,0,0:0:0:0:
64,192,137581,1,0,0:0:0:0:
448,192,137698,1,0,0:0:0:0:
320,192,137816,1,0,0:0:0:0:
448,192,137933,1,0,0:0:0:0:
192,192,137933,1,0,0:0:0:0:
320,192,138167,1,0,0:0:0:0:
192,192,138284,1,0,0:0:0:0:
64,192,138402,1,0,0:0:0:0:
448,192,138402,128,0,139339:0:0:0:0:
320,192,138636,1,0,0:0:0:0:
192,192,138753,1,0,0:0:0:0:
64,192,138870,1,0,0:0:0:0:
320,192,138987,1,0,0:0:0:0:
192,192,139105,1,0,0:0:0:0:
64,192,139222,1,0,0:0:0:0:
320,192,139339,1,0,0:0:0:0:
192,192,139339,1,0,0:0:0:0:
64,192,139339,1,0,0:0:0:0:
320,192,139691,1,0,0:0:0:0:
192,192,139691,1,0,0:0:0:0:
320,192,140042,1,0,0:0:0:0:
448,192,140042,1,0,0:0:0:0:
64,192,140277,1,0,0:0:0:0:
192,192,140277,1,0,0:0:0:0:
320,192,140511,1,0,0:0:0:0:
448,192,140511,1,0,0:0:0:0:
192,192,140745,1,0,0:0:0:0:
64,192,140745,1,0,0:0:0:0:
320,192,140980,1,0,0:0:0:0:
192,192,141097,1,0,0:0:0:0:
320,192,141214,1,0,0:0:0:0:
448,192,141331,1,0,0:0:0:0:
64,192,141448,1,0,0:0:0:0:
192,192,141566,1,0,0:0:0:0:
320,192,141683,1,0,0:0:0:0:
448,192,141683,1,0,0:0:0:0:
192,192,141800,1,0,0:0:0:0:
64,192,141917,1,0,0:0:0:0:
192,192,142034,1,0,0:0:0:0:
320,192,142152,1,0,0:0:0:0:
448,192,142152,1,0,0:0:0:0:
192,192,142269,1,0,0:0:0:0:
64,192,142386,1,0,0:0:0:0:
320,192,142386,1,0,0:0:0:0:
192,192,142503,1,0,0:0:0:0:
320,192,142620,1,0,0:0:0:0:
448,192,142620,1,0,0:0:0:0:
192,192,142737,1,0,0:0:0:0:
64,192,142737,1,0,0:0:0:0:
320,192,142855,1,0,0:0:0:0:
448,192,142855,1,0,0:0:0:0:
192,192,142972,1,0,0:0:0:0:
64,192,142972,1,0,0:0:0:0:
320,192,143089,128,0,144495:0:0:0:0:
64,192,143089,128,0,145902:0:0:0:0:
448,192,143089,128,0,147777:0:0:0:0:
320,192,148714,1,4,0:0:0:0:
320,192,149652,1,4,0:0:0:0:
320,192,150589,1,4,0:0:0:0:
320,192,151527,1,4,0:0:0:0:
