osu file format v14

[General]
AudioFilename: audio.mp3
AudioLeadIn: 0
PreviewTime: 179211
Countdown: 0
SampleSet: Normal
StackLeniency: 0.7
Mode: 3
LetterboxInBreaks: 0
SpecialStyle: 0
WidescreenStoryboard: 0

[Editor]
DistanceSpacing: 1.4
BeatDivisor: 4
GridSize: 4
TimelineZoom: 1.6

[Metadata]
Title:SV Pack
TitleUnicode:SV Pack
Artist:Jack Trammell
ArtistUnicode:Jack Trammell
Creator:Janko
Version:Compelled
Source:
Tags:epic music
BeatmapID:1089481
BeatmapSetID:512591

[Difficulty]
HPDrainRate:8.5
CircleSize:4
OverallDifficulty:8.5
ApproachRate:5
SliderMultiplier:1.4
SliderTickRate:1

[Events]
//Background and Video events
0,0,"bg.png",0,0
//Break Periods
//Storyboard Layer 0 (Background)
//Storyboard Layer 1 (Fail)
//Storyboard Layer 2 (Pass)
//Storyboard Layer 3 (Foreground)
//Storyboard Sound Samples

[TimingPoints]
179211,428.571428571429,4,1,0,10,1,0
179211,-142.857142857143,4,1,0,10,0,0
186068,-133.333333333333,4,1,0,10,0,0
192925,-125,4,1,0,10,0,0
199782,-117.647058823529,4,1,0,10,0,0
204925,-111.111111111111,4,1,0,10,0,0
206639,-40,4,1,0,10,0,0
206693,-200,4,1,0,20,0,0
206853,-66.6666666666667,4,1,0,20,0,0
207175,-200,4,1,0,20,0,0
207496,-40,4,1,0,20,0,0
207550,-200,4,1,0,20,0,0
207711,-111.111111111111,4,1,0,20,0,0
208353,-40,4,1,0,20,0,0
208407,-200,4,1,0,20,0,0
208568,-40,4,1,0,20,0,0
208621,-200,4,1,0,20,0,0
208782,-111.111111111111,4,1,0,20,0,0
208996,-40,4,1,0,20,0,0
209050,-200,4,1,0,20,0,0
209211,-60.6060606060606,4,1,0,20,0,0
209318,-285.714285714286,4,1,0,20,0,0
209425,-64.5161290322581,4,1,0,20,0,0
209478,-222.222222222222,4,1,0,20,0,0
209532,-64.5161290322581,4,1,0,20,0,0
209586,-222.222222222222,4,1,0,20,0,0
209639,-64.5161290322581,4,1,0,20,0,0
209693,-222.222222222222,4,1,0,20,0,0
209746,-111.111111111111,4,1,0,20,0,0
210068,-40,4,1,0,20,0,0
210121,-200,4,1,0,20,0,0
210282,-40,4,1,0,20,0,0
210336,-200,4,1,0,20,0,0
210496,-111.111111111111,4,1,0,20,0,0
210925,-40,4,1,0,20,0,0
211032,-200,4,1,0,20,0,0
211353,-111.111111111111,4,1,0,20,0,0
211782,-66.6666666666667,4,1,0,20,0,0
211889,-200,4,1,0,20,0,0
211996,-64.5161290322581,4,1,0,20,0,0
212050,-222.222222222222,4,1,0,20,0,0
212103,-64.5161290322581,4,1,0,20,0,0
212157,-222.222222222222,4,1,0,20,0,0
212211,-64.5161290322581,4,1,0,20,0,0
212264,-222.222222222222,4,1,0,20,0,0
212318,-64.5161290322581,4,1,0,20,0,0
212371,-222.222222222222,4,1,0,20,0,0
212425,-40,4,1,0,20,0,0
212478,-200,4,1,0,20,0,0
212639,-40,4,1,0,20,0,0
212693,-200,4,1,0,20,0,0
212853,-111.111111111111,4,1,0,20,0,0
213068,-40,4,1,0,20,0,0
213121,-200,4,1,0,20,0,0
213282,-40,4,1,0,20,0,0
213336,-200,4,1,0,20,0,0
213496,-40,4,1,0,20,0,0
213550,-200,4,1,0,20,0,0
213711,-66.6666666666667,4,1,0,20,0,0
214032,-200,4,1,0,20,0,0
214353,-40,4,1,0,20,0,0
214407,-200,4,1,0,20,0,0
214568,-105.263157894737,4,1,0,20,0,0
215211,-38.4615384615385,4,1,0,20,0,0
215264,-250,4,1,0,20,0,0
215425,-38.4615384615385,4,1,0,20,0,0
215478,-250,4,1,0,20,0,0
215639,-105.263157894737,4,1,0,20,0,0
215853,-38.4615384615385,4,1,0,20,0,0
215907,-250,4,1,0,20,0,0
216068,-60.6060606060606,4,1,0,20,0,0
216175,-285.714285714286,4,1,0,20,0,0
216282,-62.5,4,1,0,20,0,0
216336,-250,4,1,0,20,0,0
216389,-62.5,4,1,0,20,0,0
216443,-250,4,1,0,20,0,0
216496,-62.5,4,1,0,20,0,0
216550,-250,4,1,0,20,0,0
216603,-62.5,4,1,0,20,0,0
216764,-250,4,1,0,20,0,0
216925,-38.4615384615385,4,1,0,20,0,0
216978,-250,4,1,0,20,0,0
217139,-38.4615384615385,4,1,0,20,0,0
217193,-250,4,1,0,20,0,0
217353,-100,4,1,0,20,0,0
217782,-54.054054054054,4,1,0,20,0,0
218211,-666.666666666667,4,1,0,20,0,0
218639,-52.6315789473684,4,1,0,20,0,0
218746,-1000,4,1,0,20,0,0
218853,-60.6060606060606,4,1,0,20,0,0
218907,-285.714285714286,4,1,0,20,0,0
218961,-60.6060606060606,4,1,0,20,0,0
219014,-285.714285714286,4,1,0,20,0,0
219068,-60.6060606060606,4,1,0,20,0,0
219121,-285.714285714286,4,1,0,20,0,0
219175,-60.6060606060606,4,1,0,20,0,0
219228,-285.714285714286,4,1,0,20,0,0
219282,-60.6060606060606,4,1,0,20,0,0
219336,-285.714285714286,4,1,0,20,0,0
219389,-60.6060606060606,4,1,0,20,0,0
219443,-285.714285714286,4,1,0,20,0,0
219496,-54.054054054054,4,1,0,20,0,0
219603,-666.666666666667,4,1,0,20,0,0
219711,-58.8235294117647,4,1,0,20,0,0
219764,-333.333333333333,4,1,0,20,0,0
219818,-58.8235294117647,4,1,0,20,0,0
219871,-333.333333333333,4,1,0,20,0,0
219925,-58.8235294117647,4,1,0,20,0,0
219978,-333.333333333333,4,1,0,20,0,0
220032,-58.8235294117647,4,1,0,20,0,0
220086,-333.333333333333,4,1,0,20,0,0
220139,-58.8235294117647,4,1,0,20,0,0
220193,-333.333333333333,4,1,0,20,0,0
220246,-58.8235294117647,4,1,0,20,0,0
220300,-333.333333333333,4,1,0,20,0,0
220353,-40,4,1,0,20,0,0
220461,-200,4,1,0,20,0,0
220568,-125,4,1,0,20,0,0
221211,-166.666666666667,4,1,0,20,0,0
221639,-250,4,1,0,20,0,0
222925,-100,4,1,0,20,0,0
223353,-66.6666666666667,4,1,0,20,0,0
223782,-40,4,1,0,20,0,0
223889,-200,4,1,0,20,0,0
223996,-125,4,1,0,20,0,0
224639,-166.666666666667,4,1,0,20,0,0
225068,-250,4,1,0,20,0,0
225496,-10,4,1,0,20,0,0
225603,600000000.571429,4,1,0,20,1,0
227211,428.571428571429,4,1,0,20,1,0
227211,-40,4,1,0,20,0,0
227318,-200,4,1,0,20,0,0
227425,-125,4,1,0,20,0,0
228068,-166.666666666667,4,1,0,20,0,0
228711,-250,4,1,0,20,0,0
230211,-66.6666666666667,4,1,0,20,0,0
230639,-40,4,1,0,20,0,0
230746,-200,4,1,0,20,0,0
230853,-125,4,1,0,20,0,0
231496,-71.4285714285714,4,1,0,20,0,0
231711,-166.666666666667,4,1,0,20,0,0
232353,-58.8235294117647,4,1,0,20,0,0
232461,-333.333333333333,4,1,0,20,0,0
232568,-58.8235294117647,4,1,0,20,0,0
232675,-333.333333333333,4,1,0,20,0,0
232782,-58.8235294117647,4,1,0,20,0,0
232889,-333.333333333333,4,1,0,20,0,0
232996,-58.8235294117647,4,1,0,20,0,0
233103,-333.333333333333,4,1,0,20,0,0
233211,-58.8235294117647,4,1,0,20,0,0
233264,-333.333333333333,4,1,0,20,0,0
233318,-66.6666666666667,4,1,0,20,0,0
233371,-200,4,1,0,20,0,0
233425,-66.6666666666667,4,1,0,20,0,0
233478,-200,4,1,0,20,0,0
233532,-66.6666666666667,4,1,0,20,0,0
233586,-200,4,1,0,20,0,0
233639,-66.6666666666667,4,1,0,20,0,0
233693,-200,4,1,0,20,0,0
233746,-66.6666666666667,4,1,0,20,0,0
233800,-200,4,1,0,20,0,0
233853,-66.6666666666667,4,1,0,20,0,0
233907,-200,4,1,0,20,0,0
233961,-66.6666666666667,4,1,0,20,0,0
234014,-200,4,1,0,20,0,0
234068,-40,4,1,0,20,0,0
234175,-200,4,1,0,20,0,0
234282,-125,4,1,0,20,0,0
234603,-166.666666666667,4,1,0,20,0,0
234925,-250,4,1,0,20,0,0
236318,-66.6666666666667,4,1,0,20,0,0
236639,-62.5,4,1,0,20,0,0
236853,-333.333333333333,4,1,0,20,0,0
237496,-40,4,1,0,20,0,0
237603,-200,4,1,0,20,0,0
237711,-125,4,1,0,20,0,0
238032,-166.666666666667,4,1,0,20,0,0
238353,-250,4,1,0,20,0,0
239211,-10,4,1,0,20,0,0
239318,600000000.571429,4,1,0,20,1,0
240925,428.571428571429,4,1,0,20,1,0
240925,-40,4,1,0,20,0,0
241032,-200,4,1,0,20,0,0
241139,-125,4,1,0,20,0,0
241460,-166.666666666667,4,1,0,20,0,0
241782,-250,4,1,0,20,0,0
243139,-64.5161290322581,4,1,0,20,0,0
243175,-181.818181818182,4,1,0,20,0,0
243210,-64.5161290322581,4,1,0,20,0,0
243246,-181.818181818182,4,1,0,20,0,0
243282,-64.5161290322581,4,1,0,20,0,0
243317,-181.818181818182,4,1,0,20,0,0
243353,-64.5161290322581,4,1,0,20,0,0
243389,-181.818181818182,4,1,0,20,0,0
243425,-64.5161290322581,4,1,0,20,0,0
243460,-181.818181818182,4,1,0,20,0,0
243496,-64.5161290322581,4,1,0,20,0,0
243603,-181.818181818182,4,1,0,20,0,0
243710,-100,4,1,0,20,0,0
243925,-64.516129032258,4,1,0,20,0,0
243978,-222.222222222221,4,1,0,20,0,0
244032,-64.516129032258,4,1,0,20,0,0
244085,-222.222222222221,4,1,0,20,0,0
244139,-64.516129032258,4,1,0,20,0,0
244246,-222.222222222222,4,1,0,20,0,0
244353,-125,4,1,0,20,0,0
244889,-166.666666666667,4,1,0,20,0,0
245210,-250,4,1,0,20,0,0
246067,-58.8235294117647,4,1,0,20,0,0
246175,-333.333333333333,4,1,0,20,0,0
246282,-58.8235294117647,4,1,0,20,0,0
246389,-333.333333333333,4,1,0,20,0,0
246496,-58.8235294117647,4,1,0,20,0,0
246603,-333.333333333333,4,1,0,20,0,0
246710,-58.8235294117647,4,1,0,20,0,0
246817,-333.333333333333,4,1,0,20,0,0
246925,-54.054054054054,4,1,0,20,0,0
246978,-666.666666666658,4,1,0,20,0,0
247032,-64.5161290322581,4,1,0,20,0,0
247085,-222.222222222221,4,1,0,20,0,0
247139,-64.5161290322581,4,1,0,20,0,0
247192,-222.222222222221,4,1,0,20,0,0
247246,-64.5161290322581,4,1,0,20,0,0
247300,-222.222222222221,4,1,0,20,0,0
247353,-64.5161290322581,4,1,0,20,0,0
247407,-222.222222222221,4,1,0,20,0,0
247460,-68.9655172413793,4,1,0,20,0,0
247514,-181.818181818181,4,1,0,20,0,0
247567,-68.9655172413793,4,1,0,20,0,0
247621,-181.818181818181,4,1,0,20,0,0
247675,-68.9655172413793,4,1,0,20,0,0
247728,-181.818181818181,4,1,0,20,0,0
247782,-54.054054054054,4,1,0,20,0,0
247889,-666.666666666658,4,1,0,20,0,0
247996,-68.9655172413792,4,1,0,20,0,0
248050,-181.818181818181,4,1,0,20,0,0
248103,-68.9655172413792,4,1,0,20,0,0
248157,-181.818181818181,4,1,0,20,0,0
248210,-100,4,1,0,20,0,0
248639,-62.5,4,1,0,20,0,0
248746,-125,4,1,0,20,0,0
249282,-166.666666666667,4,1,0,20,0,0
249496,-333.333333333336,4,1,0,20,0,0
249925,-100,4,1,0,20,0,0
250032,-200,4,1,0,20,0,0
250353,-54.054054054054,4,1,0,20,0,0
250514,-666.666666666667,4,1,0,20,0,0
250675,-66.6666666666667,4,1,0,20,0,0
250728,-200,4,1,0,20,0,0
250782,-66.6666666666667,4,1,0,20,0,0
250835,-200,4,1,0,20,0,0
250889,-66.6666666666667,4,1,0,20,0,0
250942,-200,4,1,0,20,0,0
250996,-100,4,1,0,20,0,0
251210,-54.054054054054,4,1,0,20,0,0
251317,-666.666666666658,4,1,0,20,0,0
251425,-68.9655172413793,4,1,0,20,0,0
251478,-181.818181818182,4,1,0,20,0,0
251532,-68.9655172413793,4,1,0,20,0,0
251585,-181.818181818182,4,1,0,20,0,0
251639,-68.9655172413793,4,1,0,20,0,0
251692,-181.818181818182,4,1,0,20,0,0
251792,-100,4,1,0,20,0,0
252067,-62.5,4,1,0,20,0,0
252175,-125,4,1,0,20,0,0
252925,-58.8235294117647,4,1,0,20,0,0
253032,-333.333333333333,4,1,0,20,0,0
253139,-58.8235294117647,4,1,0,20,0,0
253246,-333.333333333333,4,1,0,20,0,0
253353,-58.8235294117647,4,1,0,20,0,0
253460,-333.333333333333,4,1,0,20,0,0
253567,-58.8235294117647,4,1,0,20,0,0
253675,-333.333333333333,4,1,0,20,0,0
253782,-46.5116279069767,4,1,0,20,0,0
253925,-666.666666666667,4,1,0,20,0,0
254067,-46.5116279069767,4,1,0,20,0,0
254210,-666.666666666667,4,1,0,20,0,0
254353,-46.5116279069767,4,1,0,20,0,0
254496,-666.666666666667,4,1,0,20,0,0
254639,-46.5116279069767,4,1,0,20,0,0
254853,-68.9655172413793,4,1,0,20,0,0
254907,-181.818181818182,4,1,0,20,0,0
254960,-68.9655172413793,4,1,0,20,0,0
255014,-181.818181818182,4,1,0,20,0,0
255067,-68.9655172413793,4,1,0,20,0,0
255121,-181.818181818182,4,1,0,20,0,0
255175,-100,4,1,0,20,0,0
255496,-62.5,4,1,0,20,0,0
255603,-125,4,1,0,20,0,0
256139,-166.666666666667,4,1,0,20,0,0
256353,-333.333333333334,4,1,0,20,0,0
256782,-100,4,1,0,20,0,0
256835,-250,4,1,0,20,0,0
256889,-100,4,1,0,20,0,0
257210,-54.054054054054,4,1,0,20,0,0
257317,-666.666666666658,4,1,0,20,0,0
257425,-68.9655172413793,4,1,0,20,0,0
257460,-181.818181818182,4,1,0,20,0,0
257496,-68.9655172413793,4,1,0,20,0,0
257532,-181.818181818182,4,1,0,20,0,0
257567,-68.9655172413793,4,1,0,20,0,0
257603,-181.818181818182,4,1,0,20,0,0
257639,-68.9655172413793,4,1,0,20,0,0
257675,-181.818181818182,4,1,0,20,0,0
257710,-68.9655172413793,4,1,0,20,0,0
257782,-181.818181818182,4,1,0,20,0,0
257853,-100,4,1,0,20,0,0
258067,-54.054054054054,4,1,0,20,0,0
258175,-666.666666666667,4,1,0,20,0,0
258282,-100,4,1,0,20,0,0
258925,-62.5,4,1,0,20,0,0
259032,-125,4,1,0,20,0,0
259353,-166.666666666667,4,1,0,20,0,0
259782,-58.8235294117647,4,1,0,20,0,0
259889,-333.333333333333,4,1,0,20,0,0
259996,-58.8235294117647,4,1,0,20,0,0
260103,-333.333333333333,4,1,0,20,0,0
260210,-58.8235294117647,4,1,0,20,0,0
260317,-333.333333333333,4,1,0,20,0,0
260425,-58.8235294117647,4,1,0,20,0,0
260532,-333.333333333333,4,1,0,20,0,0
260639,-54.054054054054,4,1,0,20,0,0
260746,-666.666666666658,4,1,0,20,0,0
260853,-64.5161290322581,4,1,0,20,0,0
260907,-222.222222222221,4,1,0,20,0,0
260960,-64.5161290322581,4,1,0,20,0,0
261014,-222.222222222221,4,1,0,20,0,0
261067,-64.5161290322581,4,1,0,20,0,0
261121,-222.222222222221,4,1,0,20,0,0
261175,-68.9655172413793,4,1,0,20,0,0
261228,-181.818181818181,4,1,0,20,0,0
261282,-68.9655172413793,4,1,0,20,0,0
261335,-181.818181818181,4,1,0,20,0,0
261389,-68.9655172413793,4,1,0,20,0,0
261442,-181.818181818181,4,1,0,20,0,0
261496,-54.054054054054,4,1,0,20,0,0
261710,-100,4,1,0,20,0,0
262353,-58.8235294117647,4,1,0,20,0,0
262407,-333.333333333333,4,1,0,20,0,0
262567,-100,4,1,0,20,0,0
263210,-62.5,4,1,0,20,0,0
263317,-250,4,1,0,20,0,0
263425,-100,4,1,0,20,0,0
263532,-58.8235294117647,4,1,0,20,0,0
263585,-333.333333333333,4,1,0,20,0,0
263639,-58.8235294117647,4,1,0,20,0,0
263746,-333.333333333333,4,1,0,20,0,0
263853,-58.8235294117647,4,1,0,20,0,0
263960,-333.333333333333,4,1,0,20,0,0
264067,-54.054054054054,4,1,0,20,0,0
264175,-666.666666666667,4,1,0,20,0,0
264282,-68.9655172413793,4,1,0,20,0,0
264335,-181.818181818181,4,1,0,20,0,0
264389,-68.9655172413793,4,1,0,20,0,0
264442,-181.818181818181,4,1,0,20,0,0
264496,-66.6666666666667,4,1,0,20,0,0
264550,-200,4,1,0,20,0,0
264603,-68.9655172413793,4,1,0,20,0,0
264657,-181.818181818182,4,1,0,20,0,0
264710,-66.6666666666667,4,1,0,20,0,0
264817,-200,4,1,0,20,0,0
264925,-54.054054054054,4,1,0,20,0,0
265032,-666.666666666667,4,1,0,20,0,0
265139,-68.9655172413793,4,1,0,20,0,0
265192,-181.818181818182,4,1,0,20,0,0
265246,-68.9655172413793,4,1,0,20,0,0
265300,-181.818181818182,4,1,0,20,0,0
265353,-100,4,1,0,20,0,0
265782,-58.8235294117647,4,1,0,20,0,0
265835,-333.333333333333,4,1,0,20,0,0
265996,-100,4,1,0,20,0,0
266639,-58.8235294117647,4,1,0,20,0,0
266746,-333.333333333333,4,1,0,20,0,0
266853,-58.8235294117647,4,1,0,20,0,0
266960,-333.333333333333,4,1,0,20,0,0
267067,-58.8235294117647,4,1,0,20,0,0
267175,-333.333333333333,4,1,0,20,0,0
267282,-58.8235294117647,4,1,0,20,0,0
267389,-333.333333333333,4,1,0,20,0,0
267496,-46.5116279069767,4,1,0,20,0,0
267639,-666.666666666667,4,1,0,20,0,0
267782,-46.5116279069767,4,1,0,20,0,0
267925,-666.666666666667,4,1,0,20,0,0
268067,-46.5116279069767,4,1,0,20,0,0
268210,-666.666666666667,4,1,0,20,0,0
268353,-46.5116279069767,4,1,0,20,0,0
268567,-68.9655172413793,4,1,0,20,0,0
268621,-181.818181818182,4,1,0,20,0,0
268675,-68.9655172413793,4,1,0,20,0,0
268728,-181.818181818182,4,1,0,20,0,0
268782,-100,4,1,0,20,0,0
269210,-37.037037037037,4,1,0,20,0,0
269264,-333.333333333333,4,1,0,20,0,0
269425,-100,4,1,0,20,0,0
270067,-58.8235294117647,4,1,0,20,0,0
270175,-333.333333333333,4,1,0,20,0,0
270282,-68.9655172413793,4,1,0,20,0,0
270335,-181.818181818182,4,1,0,20,0,0
270389,-68.9655172413793,4,1,0,20,0,0
270442,-181.818181818182,4,1,0,20,0,0
270496,-100,4,1,0,20,0,0
270710,-58.8235294117647,4,1,0,20,0,0
270817,-333.333333333333,4,1,0,20,0,0
270925,-54.054054054054,4,1,0,20,0,0
271032,-666.666666666667,4,1,0,20,0,0
271139,-125,4,1,0,20,0,0
271353,-166.666666666667,4,1,0,20,0,0
271567,-125,4,1,0,20,0,0
271675,-66.6666666666667,4,1,0,20,0,0
271782,-54.054054054054,4,1,0,20,0,0
271889,-666.666666666667,4,1,0,20,0,0
271996,-68.9655172413793,4,1,0,20,0,0
272050,-181.818181818182,4,1,0,20,0,0
272103,-68.9655172413793,4,1,0,20,0,0
272157,-181.818181818182,4,1,0,20,0,0
272210,-100,4,1,0,20,0,0
272639,-58.8235294117647,4,1,0,20,0,0
272853,-100,4,1,0,20,0,0
273496,-57.1428571428571,4,1,0,20,0,0
273603,-400,4,1,0,20,0,0
273710,-57.1428571428571,4,1,0,20,0,0
273764,-400,4,1,0,20,0,0
273817,-95.2380952380952,4,1,0,20,0,0
273925,-55.5555555555556,4,1,0,20,0,0
274032,-500,4,1,0,20,0,0
274139,-55.5555555555556,4,1,0,20,0,0
274246,-500,4,1,0,20,0,0
274353,-54.054054054054,4,1,0,20,0,0
274460,-666.666666666667,4,1,0,20,0,0
274567,-90.9090909090909,4,1,0,20,0,0
274782,-86.9565217391304,4,1,0,20,0,0
274996,-83.3333333333333,4,1,0,20,0,0
275210,-1000,4,1,0,20,0,0
277782,-100,4,1,0,20,0,0
278639,-142.857142857143,4,1,0,15,0,0
292353,-58.8235294117647,4,1,0,15,0,0
292460,-333.333333333333,4,1,0,15,0,0
292567,-62.5,4,1,0,15,0,0
292675,-250,4,1,0,15,0,0
292782,-125,4,1,0,15,0,0
293210,-58.8235294117647,4,1,0,15,0,0
293317,-333.333333333333,4,1,0,15,0,0
293425,-125,4,1,0,15,0,0
294067,-62.5,4,1,0,15,0,0
294175,-250,4,1,0,15,0,0
294282,-125,4,1,0,15,0,0
294496,-62.5,4,1,0,15,0,0
294603,-250,4,1,0,15,0,0
294710,-62.5,4,1,0,15,0,0
294817,-250,4,1,0,15,0,0
294925,-125,4,1,0,15,0,0
295782,-58.8235294117647,4,1,0,15,0,0
295889,-333.333333333333,4,1,0,15,0,0
295996,-58.8235294117647,4,1,0,15,0,0
296103,-333.333333333333,4,1,0,15,0,0
296210,-125,4,1,0,15,0,0
296639,-58.8235294117647,4,1,0,15,0,0
296746,-333.333333333333,4,1,0,15,0,0
296853,-125,4,1,0,15,0,0
297496,-58.8235294117647,4,1,0,15,0,0
297603,-333.333333333333,4,1,0,15,0,0
297710,-58.8235294117647,4,1,0,15,0,0
297817,-333.333333333333,4,1,0,15,0,0
297925,-62.5,4,1,0,15,0,0
298032,-250,4,1,0,15,0,0
298139,-62.5,4,1,0,15,0,0
298246,-250,4,1,0,15,0,0
298353,-125,4,1,0,15,0,0
299210,-57.1428571428571,4,1,0,15,0,0
299317,-400,4,1,0,15,0,0
299425,-60.6060606060606,4,1,0,15,0,0
299532,-285.714285714286,4,1,0,15,0,0
299639,-111.111111111111,4,1,0,15,0,0
300067,-57.1428571428571,4,1,0,15,0,0
300175,-400,4,1,0,15,0,0
300282,-111.111111111111,4,1,0,15,0,0
300925,-60.6060606060606,4,1,0,15,0,0
301032,-285.714285714286,4,1,0,15,0,0
301139,-111.111111111111,4,1,0,15,0,0
301567,-60.6060606060606,4,1,0,15,0,0
301675,-285.714285714286,4,1,0,15,0,0
301782,-111.111111111111,4,1,0,15,0,0
302639,-55.5555555555556,4,1,0,15,0,0
302746,-500,4,1,0,15,0,0
302853,-58.8235294117647,4,1,0,15,0,0
302960,-333.333333333333,4,1,0,15,0,0
303067,-100,4,1,0,15,0,0
303496,-55.5555555555556,4,1,0,15,0,0
303603,-500,4,1,0,15,0,0
303710,-100,4,1,0,15,0,0
304353,-55.5555555555556,4,1,0,15,0,0
304460,-500,4,1,0,15,0,0
304567,-100,4,1,0,15,0,0
304782,-58.8235294117647,4,1,0,15,0,0
304889,-333.333333333333,4,1,0,15,0,0
304996,-58.8235294117647,4,1,0,15,0,0
305103,-333.333333333333,4,1,0,15,0,0
305210,-55.5555555555556,4,1,0,15,0,0
305317,-500,4,1,0,15,0,0
305425,-100,4,1,0,15,0,0
306067,-1000,4,1,0,15,0,0
309282,-66.6666666666667,4,1,0,20,0,0
309496,-33.3333333333333,4,1,0,20,0,0
309603,-1000,4,1,0,20,0,0
309710,-90.9090909090909,4,1,0,20,0,0
309817,-58.8235294117647,4,1,0,20,0,0
309871,-333.333333333333,4,1,0,20,0,0
309925,-90.9090909090909,4,1,0,20,0,0
310139,-37.037037037037,4,1,0,20,0,0
310192,-333.333333333333,4,1,0,20,0,0
310353,-58.8235294117647,4,1,0,20,0,0
310407,-333.333333333333,4,1,0,20,0,0
310460,-90.9090909090909,4,1,0,20,0,0
311210,-55.5555555555556,4,1,0,20,0,0
311264,-500,4,1,0,20,0,0
311317,-90.9090909090909,4,1,0,20,0,0
311532,-58.8235294117647,4,1,0,20,0,0
311585,-333.333333333333,4,1,0,20,0,0
311639,-90.9090909090909,4,1,0,20,0,0
311853,-35.7142857142857,4,1,0,20,0,0
311907,-500,4,1,0,20,0,0
312067,-54.054054054054,4,1,0,20,0,0
312121,-666.666666666667,4,1,0,20,0,0
312175,-90.9090909090909,4,1,0,20,0,0
312925,-52.6315789473684,4,1,0,20,0,0
313032,-1000,4,1,0,20,0,0
313139,-90.9090909090909,4,1,0,20,0,0
313246,-58.8235294117647,4,1,0,20,0,0
313300,-333.333333333333,4,1,0,20,0,0
313353,-90.9090909090909,4,1,0,20,0,0
313567,-35.7142857142857,4,1,0,20,0,0
313621,-500,4,1,0,20,0,0
313782,-55.5555555555556,4,1,0,20,0,0
313835,-500,4,1,0,20,0,0
313889,-90.9090909090909,4,1,0,20,0,0
314639,-55.5555555555556,4,1,0,20,0,0
314746,-500,4,1,0,20,0,0
314853,-55.5555555555556,4,1,0,20,0,0
314960,-500,4,1,0,20,0,0
315067,-55.5555555555556,4,1,0,20,0,0
315175,-500,4,1,0,20,0,0
315282,-55.5555555555556,4,1,0,20,0,0
315389,-500,4,1,0,20,0,0
315496,-52.6315789473684,4,1,0,20,0,0
315639,-1000,4,1,0,20,0,0
315782,-52.6315789473684,4,1,0,20,0,0
315925,-1000,4,1,0,20,0,0
316067,-52.6315789473684,4,1,0,20,0,0
316210,-1000,4,1,0,20,0,0
316353,-52.6315789473684,4,1,0,20,0,0
316460,-1000,4,1,0,20,0,0
316567,-90.9090909090909,4,1,0,20,0,0
316675,-58.8235294117647,4,1,0,20,0,0
316728,-333.333333333333,4,1,0,20,0,0
316782,-90.9090909090909,4,1,0,20,0,0
316996,-58.8235294117647,4,1,0,20,0,0
317050,-333.333333333333,4,1,0,20,0,0
317103,-90.9090909090909,4,1,0,20,0,0
318067,-52.6315789473684,4,1,0,20,0,0
318175,-1000,4,1,0,20,0,0
318282,-90.9090909090909,4,1,0,20,0,0
318389,-58.8235294117647,4,1,0,20,0,0
318442,-333.333333333333,4,1,0,20,0,0
318496,-90.9090909090909,4,1,0,20,0,0
318710,-35.7142857142857,4,1,0,20,0,0
318764,-500,4,1,0,20,0,0
318925,-52.6315789473684,4,1,0,20,0,0
319032,-1000,4,1,0,20,0,0
319139,-90.9090909090909,4,1,0,20,0,0
319782,-52.6315789473684,4,1,0,20,0,0
319889,-1000,4,1,0,20,0,0
319996,-90.9090909090909,4,1,0,20,0,0
320103,-58.8235294117647,4,1,0,20,0,0
320157,-333.333333333333,4,1,0,20,0,0
320210,-90.9090909090909,4,1,0,20,0,0
320425,-37.037037037037,4,1,0,20,0,0
320478,-333.333333333333,4,1,0,20,0,0
320639,-58.8235294117647,4,1,0,20,0,0
320692,-333.333333333333,4,1,0,20,0,0
320746,-90.9090909090909,4,1,0,20,0,0
321496,-52.6315789473684,4,1,0,20,0,0
321603,-1000,4,1,0,20,0,0
321710,-55.5555555555556,4,1,0,20,0,0
321817,-500,4,1,0,20,0,0
321925,-55.5555555555556,4,1,0,20,0,0
322032,-500,4,1,0,20,0,0
322139,-55.5555555555556,4,1,0,20,0,0
322246,-500,4,1,0,20,0,0
322353,-55.5555555555556,4,1,0,20,0,0
322407,-500,4,1,0,20,0,0
322460,-55.5555555555556,4,1,0,20,0,0
322514,-500,4,1,0,20,0,0
322567,-55.5555555555556,4,1,0,20,0,0
322621,-500,4,1,0,20,0,0
322675,-55.5555555555556,4,1,0,20,0,0
322728,-500,4,1,0,20,0,0
322782,-55.5555555555556,4,1,0,20,0,0
322835,-500,4,1,0,20,0,0
322889,-55.5555555555556,4,1,0,20,0,0
322942,-500,4,1,0,20,0,0
322996,-55.5555555555556,4,1,0,20,0,0
323050,-500,4,1,0,20,0,0
323103,-55.5555555555556,4,1,0,20,0,0
323157,-500,4,1,0,20,0,0
323210,-33.3333333333333,4,1,0,20,0,0
323264,-1000,4,1,0,20,0,0
323317,-90.9090909090909,4,1,0,20,0,0
323532,-55.5555555555556,4,1,0,20,0,0
323585,-500,4,1,0,20,0,0
323639,-90.9090909090909,4,1,0,20,0,0
323853,-34.4827586206897,4,1,0,20,0,0
323907,-1000,4,1,0,20,0,0
324067,-52.6315789473684,4,1,0,20,0,0
324121,-500,4,1,0,20,0,0
324175,-90.9090909090909,4,1,0,20,0,0
324925,-50,4,1,0,20,0,0
325032,-1000,4,1,0,20,0,0
325139,-90.9090909090909,4,1,0,20,0,0
325246,-55.5555555555556,4,1,0,20,0,0
325300,-500,4,1,0,20,0,0
325353,-90.9090909090909,4,1,0,20,0,0
325567,-50,4,1,0,20,0,0
325675,-1000,4,1,0,20,0,0
325782,-50,4,1,0,20,0,0
325889,-1000,4,1,0,20,0,0
325996,-90.9090909090909,4,1,0,20,0,0
326639,-50,4,1,0,20,0,0
326746,-1000,4,1,0,20,0,0
326853,-90.9090909090909,4,1,0,20,0,0
326960,-55.5555555555556,4,1,0,20,0,0
327014,-500,4,1,0,20,0,0
327067,-90.9090909090909,4,1,0,20,0,0
327282,-34.4827586206897,4,1,0,20,0,0
327335,-1000,4,1,0,20,0,0
327496,-52.6315789473684,4,1,0,20,0,0
327550,-1000,4,1,0,20,0,0
327603,-90.9090909090909,4,1,0,20,0,0
328353,-55.5555555555556,4,1,0,20,0,0
328460,-500,4,1,0,20,0,0
328567,-55.5555555555556,4,1,0,20,0,0
328675,-500,4,1,0,20,0,0
328782,-55.5555555555556,4,1,0,20,0,0
328889,-500,4,1,0,20,0,0
328996,-55.5555555555556,4,1,0,20,0,0
329103,-500,4,1,0,20,0,0
329210,-44.4444444444445,4,1,0,20,0,0
329353,-1000,4,1,0,20,0,0
329496,-44.4444444444445,4,1,0,20,0,0
329639,-1000,4,1,0,20,0,0
329782,-44.4444444444445,4,1,0,20,0,0
329925,-1000,4,1,0,20,0,0
330067,-44.4444444444445,4,1,0,20,0,0
330175,-1000,4,1,0,20,0,0
330282,-90.9090909090909,4,1,0,20,0,0
330389,-55.5555555555556,4,1,0,20,0,0
330442,-500,4,1,0,20,0,0
330496,-90.9090909090909,4,1,0,20,0,0
330710,-34.4827586206897,4,1,0,20,0,0
330764,-1000,4,1,0,20,0,0
330925,-52.6315789473684,4,1,0,20,0,0
330978,-1000,4,1,0,20,0,0
331032,-90.9090909090909,4,1,0,20,0,0
331782,-50,4,1,0,20,0,0
331889,-1000,4,1,0,20,0,0
331996,-90.9090909090909,4,1,0,20,0,0
332425,-34.4827586206897,4,1,0,20,0,0
332478,-1000,4,1,0,20,0,0
332639,-50,4,1,0,20,0,0
332746,-1000,4,1,0,20,0,0
332853,-90.9090909090909,4,1,0,20,0,0
333496,-50,4,1,0,20,0,0
333603,-1000,4,1,0,20,0,0
333710,-90.9090909090909,4,1,0,20,0,0
333817,-55.5555555555556,4,1,0,20,0,0
333871,-500,4,1,0,20,0,0
333925,-90.9090909090909,4,1,0,20,0,0
334139,-34.4827586206897,4,1,0,20,0,0
334192,-1000,4,1,0,20,0,0
334353,-52.6315789473684,4,1,0,20,0,0
334407,-1000,4,1,0,20,0,0
334460,-90.9090909090909,4,1,0,20,0,0
335210,-34.4827586206897,4,1,0,20,0,0
335264,-1000,4,1,0,20,0,0
335425,-34.4827586206897,4,1,0,20,0,0
335478,-1000,4,1,0,20,0,0
335639,-52.6315789473684,4,1,0,20,0,0
335692,-1000,4,1,0,20,0,0
335746,-90.9090909090909,4,1,0,20,0,0
335853,-52.6315789473684,4,1,0,20,0,0
335907,-1000,4,1,0,20,0,0
335960,-90.9090909090909,4,1,0,20,0,0
336067,-52.6315789473684,4,1,0,20,0,0
336121,-1000,4,1,0,20,0,0
336175,-52.6315789473684,4,1,0,20,0,0
336228,-1000,4,1,0,20,0,0
336282,-52.6315789473684,4,1,0,20,0,0
336335,-1000,4,1,0,20,0,0
336389,-52.6315789473684,4,1,0,20,0,0
336442,-1000,4,1,0,20,0,0
336496,-52.6315789473684,4,1,0,20,0,0
336550,-1000,4,1,0,20,0,0
336603,-52.6315789473684,4,1,0,20,0,0
336657,-1000,4,1,0,20,0,0
336710,-52.6315789473684,4,1,0,20,0,0
336764,-1000,4,1,0,20,0,0
336817,-52.6315789473684,4,1,0,20,0,0
336871,-1000,4,1,0,20,0,0
336925,-125,4,1,0,20,0,0
337567,-166.666666666667,4,1,0,20,0,0
338639,-250.000000000001,4,1,0,20,0,0

[HitObjects]
448,192,179211,5,0,0:0:0:0:
64,192,179211,128,0,184353:0:0:0:0:
192,192,179639,128,0,179693:0:0:0:0:
320,192,180068,128,0,180282:0:0:0:0:
448,192,180496,128,0,180711:0:0:0:0:
192,192,180925,128,0,181139:0:0:0:0:
448,192,181139,1,0,0:0:0:0:
320,192,181353,128,0,181568:0:0:0:0:
192,192,181782,128,0,181996:0:0:0:0:
448,192,182211,128,0,182425:0:0:0:0:
192,192,182639,128,0,182853:0:0:0:0:
448,192,182853,1,0,0:0:0:0:
320,192,183068,128,0,183121:0:0:0:0:
448,192,183496,128,0,183711:0:0:0:0:
320,192,183925,128,0,184139:0:0:0:0:
192,192,184353,1,0,0:0:0:0:
448,192,184353,128,0,186068:0:0:0:0:
320,192,184568,1,0,0:0:0:0:
64,192,184782,128,0,184996:0:0:0:0:
320,192,185211,128,0,185425:0:0:0:0:
192,192,185639,128,0,185853:0:0:0:0:
64,192,186068,128,0,189496:0:0:0:0:
320,192,186068,1,0,0:0:0:0:
192,192,186496,1,0,0:0:0:0:
448,192,186925,128,0,187139:0:0:0:0:
192,192,187353,128,0,187568:0:0:0:0:
448,192,187782,128,0,187996:0:0:0:0:
320,192,188211,128,0,188425:0:0:0:0:
320,192,189496,128,0,191211:0:0:0:0:
192,192,189496,1,0,0:0:0:0:
448,192,189711,128,0,189925:0:0:0:0:
64,192,189925,1,0,0:0:0:0:
192,192,190353,128,0,190568:0:0:0:0:
64,192,190782,128,0,190996:0:0:0:0:
448,192,191211,128,0,192925:0:0:0:0:
192,192,191211,128,0,191425:0:0:0:0:
64,192,191639,128,0,191853:0:0:0:0:
64,192,192925,128,0,198068:0:0:0:0:
192,192,192925,1,0,0:0:0:0:
448,192,193353,128,0,193407:0:0:0:0:
320,192,193782,128,0,193996:0:0:0:0:
448,192,194211,128,0,194425:0:0:0:0:
192,192,194639,128,0,194853:0:0:0:0:
320,192,194853,1,0,0:0:0:0:
448,192,195068,128,0,195282:0:0:0:0:
320,192,195496,128,0,195711:0:0:0:0:
448,192,195925,128,0,196139:0:0:0:0:
192,192,196353,128,0,196568:0:0:0:0:
320,192,196568,1,0,0:0:0:0:
448,192,196782,128,0,196836:0:0:0:0:
192,192,196996,1,0,0:0:0:0:
320,192,197211,128,0,197425:0:0:0:0:
448,192,197639,128,0,197853:0:0:0:0:
320,192,198068,128,0,199782:0:0:0:0:
192,192,198068,1,0,0:0:0:0:
448,192,198282,1,0,0:0:0:0:
64,192,198496,128,0,198711:0:0:0:0:
448,192,198925,128,0,199139:0:0:0:0:
64,192,199353,128,0,199568:0:0:0:0:
192,192,199782,128,0,203211:0:0:0:0:
448,192,199782,1,0,0:0:0:0:
64,192,200211,1,0,0:0:0:0:
320,192,200639,128,0,200853:0:0:0:0:
64,192,201068,128,0,201282:0:0:0:0:
448,192,201496,128,0,201711:0:0:0:0:
320,192,201925,128,0,202139:0:0:0:0:
64,192,202353,1,0,0:0:0:0:
448,192,202782,1,0,0:0:0:0:
320,192,203211,128,0,204925:0:0:0:0:
64,192,203211,1,0,0:0:0:0:
448,192,203425,128,0,203639:0:0:0:0:
192,192,203853,1,0,0:0:0:0:
64,192,204068,128,0,204282:0:0:0:0:
192,192,204496,128,0,204711:0:0:0:0:
448,192,204925,128,0,206639:0:0:0:0:
64,192,204925,128,0,205139:0:0:0:0:
192,192,205353,128,0,205568:0:0:0:0:
320,192,205782,128,0,206639:0:0:0:0:
64,192,206639,1,0,0:0:0:0:
192,192,206639,1,0,0:0:0:0:
320,192,206853,1,0,0:0:0:0:
448,192,206853,1,0,0:0:0:0:
64,192,207496,1,0,0:0:0:0:
192,192,207496,1,0,0:0:0:0:
448,192,207496,1,0,0:0:0:0:
320,192,207711,1,0,0:0:0:0:
192,192,207925,1,0,0:0:0:0:
320,192,208353,1,0,0:0:0:0:
448,192,208353,1,0,0:0:0:0:
64,192,208568,1,0,0:0:0:0:
192,192,208568,1,0,0:0:0:0:
320,192,208782,1,0,0:0:0:0:
64,192,208996,1,0,0:0:0:0:
192,192,208996,1,0,0:0:0:0:
448,192,209211,1,0,0:0:0:0:
320,192,209211,1,0,0:0:0:0:
64,192,209211,1,0,0:0:0:0:
192,192,209425,1,0,0:0:0:0:
320,192,209532,1,0,0:0:0:0:
64,192,209639,1,0,0:0:0:0:
192,192,209746,1,0,0:0:0:0:
320,192,210068,1,0,0:0:0:0:
64,192,210068,1,0,0:0:0:0:
192,192,210282,1,0,0:0:0:0:
448,192,210282,1,0,0:0:0:0:
64,192,210496,1,0,0:0:0:0:
192,192,210711,1,0,0:0:0:0:
320,192,210925,1,0,0:0:0:0:
448,192,210925,1,0,0:0:0:0:
192,192,211353,1,0,0:0:0:0:
320,192,211782,1,0,0:0:0:0:
448,192,211782,1,0,0:0:0:0:
64,192,211996,1,0,0:0:0:0:
192,192,212103,1,0,0:0:0:0:
448,192,212211,1,0,0:0:0:0:
320,192,212211,1,0,0:0:0:0:
192,192,212318,1,0,0:0:0:0:
64,192,212425,1,0,0:0:0:0:
320,192,212425,1,0,0:0:0:0:
192,192,212639,1,0,0:0:0:0:
448,192,212639,1,0,0:0:0:0:
320,192,212853,1,0,0:0:0:0:
64,192,213068,1,0,0:0:0:0:
448,192,213068,1,0,0:0:0:0:
320,192,213282,1,0,0:0:0:0:
192,192,213282,1,0,0:0:0:0:
448,192,213496,1,0,0:0:0:0:
192,192,213496,1,0,0:0:0:0:
64,192,213711,1,0,0:0:0:0:
320,192,213711,1,0,0:0:0:0:
320,192,214353,1,0,0:0:0:0:
448,192,214353,1,0,0:0:0:0:
64,192,214568,1,0,0:0:0:0:
192,192,214782,1,0,0:0:0:0:
320,192,215211,1,0,0:0:0:0:
448,192,215211,1,0,0:0:0:0:
64,192,215425,1,0,0:0:0:0:
192,192,215425,1,0,0:0:0:0:
448,192,215639,1,0,0:0:0:0:
320,192,215853,1,0,0:0:0:0:
64,192,215853,1,0,0:0:0:0:
192,192,216068,1,0,0:0:0:0:
448,192,216068,1,0,0:0:0:0:
64,192,216068,1,0,0:0:0:0:
320,192,216282,1,0,0:0:0:0:
192,192,216389,1,0,0:0:0:0:
448,192,216496,1,0,0:0:0:0:
320,192,216603,1,0,0:0:0:0:
64,192,216925,1,0,0:0:0:0:
192,192,216925,1,0,0:0:0:0:
320,192,217139,1,0,0:0:0:0:
448,192,217139,1,0,0:0:0:0:
64,192,217353,1,0,0:0:0:0:
192,192,217782,1,0,0:0:0:0:
320,192,217782,1,0,0:0:0:0:
448,192,217782,1,0,0:0:0:0:
64,192,218639,1,0,0:0:0:0:
192,192,218639,1,0,0:0:0:0:
448,192,218639,1,0,0:0:0:0:
320,192,218853,1,0,0:0:0:0:
448,192,218961,1,0,0:0:0:0:
192,192,219068,1,0,0:0:0:0:
64,192,219175,1,0,0:0:0:0:
320,192,219282,1,0,0:0:0:0:
448,192,219389,1,0,0:0:0:0:
192,192,219496,1,0,0:0:0:0:
64,192,219496,1,0,0:0:0:0:
320,192,219711,1,0,0:0:0:0:
448,192,219818,1,0,0:0:0:0:
192,192,219925,1,0,0:0:0:0:
64,192,220032,1,0,0:0:0:0:
320,192,220139,1,0,0:0:0:0:
192,192,220246,1,0,0:0:0:0:
64,192,220353,1,0,0:0:0:0:
448,192,220353,1,0,0:0:0:0:
320,192,220353,1,0,0:0:0:0:
64,192,220568,1,0,0:0:0:0:
192,192,220568,128,0,222496:0:0:0:0:
448,192,221211,128,0,222496:0:0:0:0:
320,192,221639,128,0,222496:0:0:0:0:
448,192,223782,1,0,0:0:0:0:
64,192,223782,128,0,225496:0:0:0:0:
320,192,223782,1,0,0:0:0:0:
448,192,223996,1,0,0:0:0:0:
192,192,223996,1,0,0:0:0:0:
192,192,224639,1,0,0:0:0:0:
320,192,224639,128,0,225496:0:0:0:0:
448,192,225068,128,0,225496:0:0:0:0:
192,192,225496,1,0,0:0:0:0:
64,192,227211,1,0,0:0:0:0:
320,192,227211,1,0,0:0:0:0:
448,192,227211,1,0,0:0:0:0:
64,192,227425,1,0,0:0:0:0:
192,192,227425,128,0,229353:0:0:0:0:
320,192,227639,1,0,0:0:0:0:
64,192,227853,1,0,0:0:0:0:
448,192,228068,128,0,229353:0:0:0:0:
320,192,228282,128,0,229353:0:0:0:0:
64,192,228496,128,0,229353:0:0:0:0:
64,192,230639,1,0,0:0:0:0:
192,192,230639,1,0,0:0:0:0:
448,192,230639,1,0,0:0:0:0:
448,192,230853,1,0,0:0:0:0:
320,192,230853,128,0,232353:0:0:0:0:
64,192,231496,1,0,0:0:0:0:
192,192,231496,128,0,232353:0:0:0:0:
64,192,232353,1,0,0:0:0:0:
448,192,232353,1,0,0:0:0:0:
192,192,232568,1,0,0:0:0:0:
320,192,232568,1,0,0:0:0:0:
64,192,232782,1,0,0:0:0:0:
448,192,232782,1,0,0:0:0:0:
192,192,232996,1,0,0:0:0:0:
320,192,232996,1,0,0:0:0:0:
64,192,233211,1,0,0:0:0:0:
448,192,233211,1,0,0:0:0:0:
320,192,233318,1,0,0:0:0:0:
192,192,233425,1,0,0:0:0:0:
64,192,233532,1,0,0:0:0:0:
448,192,233639,1,0,0:0:0:0:
320,192,233746,1,0,0:0:0:0:
192,192,233853,1,0,0:0:0:0:
320,192,233961,1,0,0:0:0:0:
448,192,234068,1,0,0:0:0:0:
192,192,234068,1,0,0:0:0:0:
64,192,234068,1,0,0:0:0:0:
448,192,234282,1,0,0:0:0:0:
320,192,234282,128,0,235782:0:0:0:0:
192,192,234925,1,0,0:0:0:0:
64,192,234925,128,0,235782:0:0:0:0:
448,192,235782,1,0,0:0:0:0:
64,192,236639,1,0,0:0:0:0:
320,192,236639,128,0,237496:0:0:0:0:
192,192,236639,1,0,0:0:0:0:
448,192,237496,1,0,0:0:0:0:
192,192,237496,1,0,0:0:0:0:
64,192,237496,128,0,239211:0:0:0:0:
320,192,237711,1,0,0:0:0:0:
448,192,237711,128,0,238353:0:0:0:0:
192,192,238353,128,0,239211:0:0:0:0:
320,192,238353,1,0,0:0:0:0:
448,192,239211,1,0,0:0:0:0:
64,192,240925,1,0,0:0:0:0:
448,192,240925,1,0,0:0:0:0:
320,192,240925,1,0,0:0:0:0:
64,192,241139,1,0,0:0:0:0:
192,192,241139,128,0,242639:0:0:0:0:
320,192,241782,1,0,0:0:0:0:
448,192,241782,128,0,242639:0:0:0:0:
64,192,242639,1,0,0:0:0:0:
320,192,243139,1,0,0:0:0:0:
192,192,243210,1,0,0:0:0:0:
64,192,243282,1,0,0:0:0:0:
448,192,243353,1,0,0:0:0:0:
320,192,243425,1,0,0:0:0:0:
64,192,243496,1,0,0:0:0:0:
448,192,243496,1,0,0:0:0:0:
192,192,243496,128,0,244353:0:0:0:0:
320,192,243710,1,0,0:0:0:0:
448,192,243925,1,0,0:0:0:0:
320,192,244032,1,0,0:0:0:0:
64,192,244139,1,0,0:0:0:0:
64,192,244353,1,0,0:0:0:0:
448,192,244353,128,0,246067:0:0:0:0:
320,192,244353,128,0,245210:0:0:0:0:
192,192,244567,1,0,0:0:0:0:
64,192,245210,128,0,246067:0:0:0:0:
192,192,245210,1,0,0:0:0:0:
192,192,246067,1,0,0:0:0:0:
320,192,246067,1,0,0:0:0:0:
64,192,246282,1,0,0:0:0:0:
448,192,246282,1,0,0:0:0:0:
192,192,246496,1,0,0:0:0:0:
320,192,246496,1,0,0:0:0:0:
448,192,246710,1,0,0:0:0:0:
64,192,246710,1,0,0:0:0:0:
192,192,246925,1,0,0:0:0:0:
320,192,246925,1,0,0:0:0:0:
64,192,246925,1,0,0:0:0:0:
448,192,247032,1,0,0:0:0:0:
320,192,247139,1,0,0:0:0:0:
192,192,247246,1,0,0:0:0:0:
64,192,247353,1,0,0:0:0:0:
448,192,247460,1,0,0:0:0:0:
320,192,247567,1,0,0:0:0:0:
192,192,247675,1,0,0:0:0:0:
64,192,247782,1,0,0:0:0:0:
320,192,247782,1,0,0:0:0:0:
448,192,247782,1,0,0:0:0:0:
192,192,247996,1,0,0:0:0:0:
64,192,248103,1,0,0:0:0:0:
448,192,248210,1,0,0:0:0:0:
320,192,248317,1,0,0:0:0:0:
192,192,248425,1,0,0:0:0:0:
64,192,248532,1,0,0:0:0:0:
448,192,248639,128,0,249496:0:0:0:0:
320,192,248639,1,0,0:0:0:0:
64,192,249925,1,0,0:0:0:0:
320,192,249925,128,0,250353:0:0:0:0:
448,192,250353,1,0,0:0:0:0:
192,192,250353,1,0,0:0:0:0:
64,192,250353,1,0,0:0:0:0:
320,192,250675,1,0,0:0:0:0:
192,192,250782,1,0,0:0:0:0:
64,192,250889,1,0,0:0:0:0:
448,192,250996,1,0,0:0:0:0:
192,192,251210,1,0,0:0:0:0:
64,192,251210,1,0,0:0:0:0:
320,192,251210,1,0,0:0:0:0:
448,192,251425,1,0,0:0:0:0:
320,192,251532,1,0,0:0:0:0:
192,192,251639,1,0,0:0:0:0:
64,192,251746,1,0,0:0:0:0:
448,192,251853,1,0,0:0:0:0:
320,192,251960,1,0,0:0:0:0:
192,192,252067,128,0,252925:0:0:0:0:
448,192,252067,1,0,0:0:0:0:
64,192,252925,1,0,0:0:0:0:
320,192,252925,1,0,0:0:0:0:
192,192,253139,1,0,0:0:0:0:
448,192,253139,1,0,0:0:0:0:
320,192,253353,1,0,0:0:0:0:
448,192,253353,1,0,0:0:0:0:
192,192,253567,1,0,0:0:0:0:
64,192,253567,1,0,0:0:0:0:
448,192,253782,1,0,0:0:0:0:
320,192,253782,1,0,0:0:0:0:
64,192,253782,1,0,0:0:0:0:
64,192,254067,1,0,0:0:0:0:
192,192,254067,1,0,0:0:0:0:
448,192,254067,1,0,0:0:0:0:
320,192,254353,1,0,0:0:0:0:
448,192,254353,1,0,0:0:0:0:
192,192,254353,1,0,0:0:0:0:
64,192,254639,1,0,0:0:0:0:
192,192,254639,1,0,0:0:0:0:
320,192,254639,1,0,0:0:0:0:
448,192,254853,1,0,0:0:0:0:
320,192,254960,1,0,0:0:0:0:
192,192,255067,1,0,0:0:0:0:
64,192,255175,1,0,0:0:0:0:
448,192,255282,1,0,0:0:0:0:
320,192,255389,1,0,0:0:0:0:
192,192,255496,1,0,0:0:0:0:
64,192,255496,128,0,256353:0:0:0:0:
320,192,256782,1,0,0:0:0:0:
448,192,256782,128,0,257210:0:0:0:0:
64,192,257210,1,0,0:0:0:0:
192,192,257210,1,0,0:0:0:0:
320,192,257210,1,0,0:0:0:0:
320,192,257425,1,0,0:0:0:0:
192,192,257496,1,0,0:0:0:0:
64,192,257567,1,0,0:0:0:0:
320,192,257639,1,0,0:0:0:0:
448,192,257639,1,0,0:0:0:0:
192,192,257710,1,0,0:0:0:0:
64,192,257853,1,0,0:0:0:0:
192,192,258067,1,0,0:0:0:0:
448,192,258067,1,0,0:0:0:0:
320,192,258067,1,0,0:0:0:0:
64,192,258282,1,0,0:0:0:0:
192,192,258389,1,0,0:0:0:0:
320,192,258496,1,0,0:0:0:0:
64,192,258603,1,0,0:0:0:0:
192,192,258710,1,0,0:0:0:0:
320,192,258817,1,0,0:0:0:0:
448,192,258925,1,0,0:0:0:0:
64,192,258925,128,0,259782:0:0:0:0:
320,192,259782,1,0,0:0:0:0:
448,192,259782,1,0,0:0:0:0:
192,192,259996,1,0,0:0:0:0:
64,192,259996,1,0,0:0:0:0:
320,192,260210,1,0,0:0:0:0:
448,192,260210,1,0,0:0:0:0:
192,192,260425,1,0,0:0:0:0:
64,192,260425,1,0,0:0:0:0:
448,192,260639,1,0,0:0:0:0:
320,192,260639,1,0,0:0:0:0:
64,192,260639,1,0,0:0:0:0:
192,192,260853,1,0,0:0:0:0:
320,192,260960,1,0,0:0:0:0:
448,192,261067,1,0,0:0:0:0:
64,192,261175,1,0,0:0:0:0:
192,192,261282,1,0,0:0:0:0:
320,192,261389,1,0,0:0:0:0:
64,192,261496,1,0,0:0:0:0:
192,192,261496,1,0,0:0:0:0:
448,192,261496,128,0,263210:0:0:0:0:
320,192,261710,1,0,0:0:0:0:
192,192,261817,1,0,0:0:0:0:
64,192,261925,1,0,0:0:0:0:
320,192,262139,1,0,0:0:0:0:
192,192,262353,1,0,0:0:0:0:
64,192,262353,1,0,0:0:0:0:
320,192,262567,1,0,0:0:0:0:
64,192,262782,1,0,0:0:0:0:
192,192,262996,1,0,0:0:0:0:
320,192,263210,1,0,0:0:0:0:
64,192,263210,1,0,0:0:0:0:
192,192,263425,1,0,0:0:0:0:
320,192,263532,1,0,0:0:0:0:
448,192,263532,1,0,0:0:0:0:
192,192,263639,1,0,0:0:0:0:
64,192,263639,1,0,0:0:0:0:
320,192,263853,1,0,0:0:0:0:
448,192,263853,1,0,0:0:0:0:
192,192,264067,1,0,0:0:0:0:
64,192,264067,1,0,0:0:0:0:
448,192,264067,1,0,0:0:0:0:
320,192,264282,1,0,0:0:0:0:
192,192,264389,1,0,0:0:0:0:
64,192,264496,1,0,0:0:0:0:
448,192,264496,1,0,0:0:0:0:
320,192,264603,1,0,0:0:0:0:
192,192,264710,1,0,0:0:0:0:
64,192,264710,1,0,0:0:0:0:
320,192,264925,1,0,0:0:0:0:
192,192,264925,1,0,0:0:0:0:
448,192,264925,128,0,266639:0:0:0:0:
64,192,265139,1,0,0:0:0:0:
192,192,265246,1,0,0:0:0:0:
320,192,265353,1,0,0:0:0:0:
64,192,265460,1,0,0:0:0:0:
192,192,265567,1,0,0:0:0:0:
320,192,265782,1,0,0:0:0:0:
64,192,265782,1,0,0:0:0:0:
192,192,265996,1,0,0:0:0:0:
320,192,266210,1,0,0:0:0:0:
192,192,266425,1,0,0:0:0:0:
320,192,266639,1,0,0:0:0:0:
64,192,266639,1,0,0:0:0:0:
192,192,266853,1,0,0:0:0:0:
448,192,266853,1,0,0:0:0:0:
320,192,267067,1,0,0:0:0:0:
448,192,267067,1,0,0:0:0:0:
64,192,267282,1,0,0:0:0:0:
192,192,267282,1,0,0:0:0:0:
448,192,267496,1,0,0:0:0:0:
320,192,267496,1,0,0:0:0:0:
64,192,267496,1,0,0:0:0:0:
192,192,267782,1,0,0:0:0:0:
64,192,267782,1,0,0:0:0:0:
320,192,267782,1,0,0:0:0:0:
192,192,268067,1,0,0:0:0:0:
320,192,268067,1,0,0:0:0:0:
448,192,268067,1,0,0:0:0:0:
448,192,268353,1,0,0:0:0:0:
192,192,268353,1,0,0:0:0:0:
64,192,268353,128,0,270067:0:0:0:0:
320,192,268567,1,0,0:0:0:0:
448,192,268675,1,0,0:0:0:0:
192,192,268782,1,0,0:0:0:0:
320,192,268996,1,0,0:0:0:0:
192,192,269210,1,0,0:0:0:0:
448,192,269210,1,0,0:0:0:0:
320,192,269425,1,0,0:0:0:0:
448,192,269639,1,0,0:0:0:0:
192,192,269853,1,0,0:0:0:0:
320,192,270067,1,0,0:0:0:0:
448,192,270067,1,0,0:0:0:0:
192,192,270282,1,0,0:0:0:0:
64,192,270389,1,0,0:0:0:0:
320,192,270496,1,0,0:0:0:0:
192,192,270710,1,0,0:0:0:0:
448,192,270710,1,0,0:0:0:0:
320,192,270925,1,0,0:0:0:0:
448,192,270925,1,0,0:0:0:0:
64,192,270925,128,0,271675:0:0:0:0:
192,192,271139,128,0,271675:0:0:0:0:
320,192,271353,128,0,271675:0:0:0:0:
448,192,271567,128,0,271675:0:0:0:0:
448,192,271782,1,0,0:0:0:0:
320,192,271782,1,0,0:0:0:0:
64,192,271782,1,0,0:0:0:0:
192,192,271996,1,0,0:0:0:0:
320,192,272103,1,0,0:0:0:0:
448,192,272210,1,0,0:0:0:0:
64,192,272425,1,0,0:0:0:0:
320,192,272639,1,0,0:0:0:0:
192,192,272639,128,0,273496:0:0:0:0:
448,192,272853,1,0,0:0:0:0:
320,192,273067,1,0,0:0:0:0:
64,192,273282,1,0,0:0:0:0:
448,192,273496,1,0,0:0:0:0:
320,192,273496,1,0,0:0:0:0:
192,192,273710,1,0,0:0:0:0:
64,192,273710,1,0,0:0:0:0:
320,192,273817,1,0,0:0:0:0:
448,192,273925,1,0,0:0:0:0:
192,192,273925,1,0,0:0:0:0:
64,192,274139,1,0,0:0:0:0:
320,192,274139,1,0,0:0:0:0:
192,192,274353,1,0,0:0:0:0:
64,192,274353,1,0,0:0:0:0:
448,192,274353,128,0,275103:0:0:0:0:
320,192,274567,128,0,275103:0:0:0:0:
192,192,274782,128,0,275210:0:0:0:0:
64,192,274996,128,0,275210:0:0:0:0:
320,192,275210,1,0,0:0:0:0:
448,192,275210,1,0,0:0:0:0:
192,192,278639,128,0,278853:0:0:0:0:
448,192,278639,1,0,0:0:0:0:
320,192,278853,128,0,279067:0:0:0:0:
448,192,279067,128,0,279282:0:0:0:0:
64,192,279282,128,0,279496:0:0:0:0:
192,192,279496,128,0,279710:0:0:0:0:
448,192,279496,1,0,0:0:0:0:
320,192,279710,128,0,279925:0:0:0:0:
448,192,279925,128,0,280139:0:0:0:0:
64,192,280139,128,0,280353:0:0:0:0:
192,192,280353,128,0,280567:0:0:0:0:
448,192,280353,1,0,0:0:0:0:
320,192,280567,128,0,280782:0:0:0:0:
448,192,280782,128,0,280996:0:0:0:0:
64,192,280996,128,0,281210:0:0:0:0:
192,192,281210,128,0,281425:0:0:0:0:
448,192,281210,1,0,0:0:0:0:
320,192,281425,128,0,281639:0:0:0:0:
448,192,281639,128,0,281853:0:0:0:0:
192,192,281853,128,0,282067:0:0:0:0:
64,192,282067,128,0,282282:0:0:0:0:
448,192,282067,1,0,0:0:0:0:
320,192,282282,128,0,282496:0:0:0:0:
448,192,282496,128,0,282710:0:0:0:0:
192,192,282710,128,0,282925:0:0:0:0:
64,192,282925,128,0,283139:0:0:0:0:
448,192,282925,1,0,0:0:0:0:
320,192,283139,128,0,283353:0:0:0:0:
448,192,283353,128,0,283567:0:0:0:0:
192,192,283567,128,0,283782:0:0:0:0:
64,192,283782,128,0,283996:0:0:0:0:
448,192,283782,1,0,0:0:0:0:
320,192,283996,128,0,284210:0:0:0:0:
448,192,284210,128,0,284425:0:0:0:0:
192,192,284425,128,0,284639:0:0:0:0:
64,192,284639,128,0,284853:0:0:0:0:
320,192,284639,1,0,0:0:0:0:
192,192,284853,128,0,285067:0:0:0:0:
448,192,285067,128,0,285282:0:0:0:0:
320,192,285282,128,0,285496:0:0:0:0:
64,192,285496,128,0,285710:0:0:0:0:
448,192,285496,1,0,0:0:0:0:
192,192,285710,128,0,285925:0:0:0:0:
448,192,285925,128,0,286139:0:0:0:0:
320,192,286139,128,0,286353:0:0:0:0:
64,192,286353,128,0,286567:0:0:0:0:
448,192,286353,1,0,0:0:0:0:
192,192,286567,128,0,286782:0:0:0:0:
448,192,286782,128,0,286996:0:0:0:0:
320,192,286996,128,0,287210:0:0:0:0:
64,192,287210,128,0,287425:0:0:0:0:
448,192,287210,1,0,0:0:0:0:
192,192,287425,128,0,287639:0:0:0:0:
448,192,287639,128,0,287853:0:0:0:0:
320,192,287853,128,0,288067:0:0:0:0:
448,192,288067,1,0,0:0:0:0:
64,192,288067,128,0,288282:0:0:0:0:
192,192,288282,128,0,288496:0:0:0:0:
448,192,288496,128,0,288710:0:0:0:0:
320,192,288710,128,0,288925:0:0:0:0:
64,192,288925,128,0,289139:0:0:0:0:
448,192,288925,1,0,0:0:0:0:
192,192,289139,128,0,289353:0:0:0:0:
448,192,289353,128,0,289567:0:0:0:0:
320,192,289567,128,0,289782:0:0:0:0:
192,192,289782,128,0,289996:0:0:0:0:
64,192,289782,1,0,0:0:0:0:
320,192,289996,128,0,290210:0:0:0:0:
448,192,290210,128,0,290425:0:0:0:0:
64,192,290425,128,0,290639:0:0:0:0:
192,192,290639,128,0,290853:0:0:0:0:
448,192,290639,1,0,0:0:0:0:
320,192,290853,128,0,291067:0:0:0:0:
448,192,291067,128,0,291282:0:0:0:0:
64,192,291282,128,0,291496:0:0:0:0:
192,192,291496,128,0,291710:0:0:0:0:
448,192,291496,1,0,0:0:0:0:
320,192,291710,128,0,291925:0:0:0:0:
448,192,291925,128,0,292139:0:0:0:0:
64,192,292139,128,0,292353:0:0:0:0:
192,192,292353,128,0,292567:0:0:0:0:
448,192,292353,1,0,0:0:0:0:
64,192,292567,1,0,0:0:0:0:
320,192,292567,128,0,292782:0:0:0:0:
448,192,292782,128,0,292996:0:0:0:0:
64,192,292996,128,0,293210:0:0:0:0:
192,192,293210,128,0,293425:0:0:0:0:
320,192,293210,1,0,0:0:0:0:
320,192,293425,128,0,293639:0:0:0:0:
448,192,293639,128,0,293853:0:0:0:0:
64,192,293853,128,0,294067:0:0:0:0:
192,192,294067,128,0,294282:0:0:0:0:
320,192,294067,1,0,0:0:0:0:
320,192,294282,128,0,294496:0:0:0:0:
448,192,294282,1,0,0:0:0:0:
448,192,294496,128,0,294710:0:0:0:0:
64,192,294496,1,0,0:0:0:0:
64,192,294710,128,0,294925:0:0:0:0:
192,192,294710,1,0,0:0:0:0:
192,192,294925,128,0,295139:0:0:0:0:
320,192,294925,1,0,0:0:0:0:
448,192,295032,1,0,0:0:0:0:
320,192,295139,128,0,295353:0:0:0:0:
64,192,295139,1,0,0:0:0:0:
192,192,295246,1,0,0:0:0:0:
448,192,295353,128,0,295567:0:0:0:0:
64,192,295353,1,0,0:0:0:0:
192,192,295460,1,0,0:0:0:0:
64,192,295567,128,0,295782:0:0:0:0:
320,192,295567,1,0,0:0:0:0:
192,192,295782,128,0,295996:0:0:0:0:
448,192,295782,1,0,0:0:0:0:
320,192,295996,128,0,296210:0:0:0:0:
64,192,295996,1,0,0:0:0:0:
448,192,296210,128,0,296425:0:0:0:0:
192,192,296425,128,0,296639:0:0:0:0:
64,192,296639,128,0,296853:0:0:0:0:
320,192,296639,1,0,0:0:0:0:
192,192,296853,128,0,297067:0:0:0:0:
448,192,297067,128,0,297282:0:0:0:0:
320,192,297282,128,0,297496:0:0:0:0:
64,192,297496,128,0,297710:0:0:0:0:
448,192,297496,1,0,0:0:0:0:
192,192,297710,128,0,297925:0:0:0:0:
320,192,297710,1,0,0:0:0:0:
448,192,297925,128,0,298139:0:0:0:0:
64,192,297925,1,0,0:0:0:0:
320,192,298139,128,0,298353:0:0:0:0:
192,192,298139,1,0,0:0:0:0:
64,192,298353,128,0,298567:0:0:0:0:
448,192,298353,1,0,0:0:0:0:
320,192,298460,1,0,0:0:0:0:
448,192,298567,1,0,0:0:0:0:
192,192,298567,128,0,298782:0:0:0:0:
320,192,298675,1,0,0:0:0:0:
448,192,298782,128,0,298996:0:0:0:0:
64,192,298782,1,0,0:0:0:0:
192,192,298889,1,0,0:0:0:0:
320,192,298996,128,0,299210:0:0:0:0:
192,192,299210,128,0,299425:0:0:0:0:
64,192,299210,1,0,0:0:0:0:
320,192,299425,128,0,299639:0:0:0:0:
448,192,299425,1,0,0:0:0:0:
448,192,299639,128,0,299853:0:0:0:0:
64,192,299853,128,0,300067:0:0:0:0:
192,192,300067,128,0,300282:0:0:0:0:
448,192,300067,1,0,0:0:0:0:
320,192,300282,128,0,300496:0:0:0:0:
448,192,300496,128,0,300710:0:0:0:0:
64,192,300710,128,0,300925:0:0:0:0:
192,192,300925,128,0,301139:0:0:0:0:
448,192,300925,1,0,0:0:0:0:
320,192,301139,128,0,301353:0:0:0:0:
448,192,301353,128,0,301567:0:0:0:0:
64,192,301567,128,0,301782:0:0:0:0:
192,192,301567,1,0,0:0:0:0:
192,192,301782,128,0,301996:0:0:0:0:
320,192,301782,1,0,0:0:0:0:
448,192,301889,1,0,0:0:0:0:
320,192,301996,128,0,302210:0:0:0:0:
64,192,301996,1,0,0:0:0:0:
192,192,302103,1,0,0:0:0:0:
64,192,302210,1,0,0:0:0:0:
448,192,302210,128,0,302425:0:0:0:0:
192,192,302317,1,0,0:0:0:0:
64,192,302425,128,0,302639:0:0:0:0:
320,192,302425,1,0,0:0:0:0:
192,192,302639,128,0,302853:0:0:0:0:
448,192,302639,1,0,0:0:0:0:
320,192,302853,128,0,303067:0:0:0:0:
64,192,302853,1,0,0:0:0:0:
448,192,303067,128,0,303282:0:0:0:0:
192,192,303067,1,0,0:0:0:0:
192,192,303282,128,0,303496:0:0:0:0:
64,192,303282,1,0,0:0:0:0:
64,192,303496,128,0,303710:0:0:0:0:
448,192,303496,1,0,0:0:0:0:
192,192,303710,128,0,303925:0:0:0:0:
448,192,303925,128,0,304139:0:0:0:0:
320,192,304139,128,0,304353:0:0:0:0:
64,192,304353,128,0,304567:0:0:0:0:
448,192,304353,1,0,0:0:0:0:
320,192,304567,1,0,0:0:0:0:
192,192,304567,128,0,304782:0:0:0:0:
448,192,304782,128,0,304996:0:0:0:0:
64,192,304782,1,0,0:0:0:0:
320,192,304996,128,0,305210:0:0:0:0:
192,192,304996,1,0,0:0:0:0:
64,192,305210,128,0,305425:0:0:0:0:
448,192,305210,1,0,0:0:0:0:
192,192,305425,128,0,305639:0:0:0:0:
320,192,305425,1,0,0:0:0:0:
448,192,305639,128,0,305853:0:0:0:0:
64,192,305639,1,0,0:0:0:0:
320,192,305853,128,0,306067:0:0:0:0:
192,192,305853,1,0,0:0:0:0:
64,192,309496,1,0,0:0:0:0:
192,192,309496,1,0,0:0:0:0:
320,192,309496,1,0,0:0:0:0:
448,192,309496,1,0,0:0:0:0:
320,192,309710,1,0,0:0:0:0:
192,192,309817,1,0,0:0:0:0:
64,192,309817,1,0,0:0:0:0:
448,192,309925,1,0,0:0:0:0:
320,192,310139,1,0,0:0:0:0:
192,192,310139,1,0,0:0:0:0:
64,192,310353,1,0,0:0:0:0:
448,192,310353,1,0,0:0:0:0:
192,192,310567,1,0,0:0:0:0:
448,192,310782,1,0,0:0:0:0:
320,192,310996,1,0,0:0:0:0:
64,192,311210,1,0,0:0:0:0:
192,192,311210,1,0,0:0:0:0:
448,192,311425,1,0,0:0:0:0:
320,192,311532,1,0,0:0:0:0:
64,192,311532,1,0,0:0:0:0:
192,192,311639,1,0,0:0:0:0:
320,192,311853,1,0,0:0:0:0:
448,192,311853,1,0,0:0:0:0:
64,192,312067,1,0,0:0:0:0:
192,192,312067,1,0,0:0:0:0:
448,192,312067,1,0,0:0:0:0:
320,192,312282,1,0,0:0:0:0:
192,192,312389,1,0,0:0:0:0:
448,192,312496,1,0,0:0:0:0:
64,192,312710,1,0,0:0:0:0:
192,192,312925,1,0,0:0:0:0:
320,192,312925,1,0,0:0:0:0:
448,192,312925,1,0,0:0:0:0:
64,192,313139,1,0,0:0:0:0:
192,192,313246,1,0,0:0:0:0:
448,192,313246,1,0,0:0:0:0:
320,192,313353,1,0,0:0:0:0:
64,192,313567,1,0,0:0:0:0:
192,192,313567,1,0,0:0:0:0:
320,192,313782,1,0,0:0:0:0:
448,192,313782,1,0,0:0:0:0:
64,192,313996,1,0,0:0:0:0:
320,192,314210,1,0,0:0:0:0:
192,192,314425,1,0,0:0:0:0:
448,192,314639,1,0,0:0:0:0:
320,192,314639,1,0,0:0:0:0:
64,192,314853,1,0,0:0:0:0:
192,192,314853,1,0,0:0:0:0:
320,192,315067,1,0,0:0:0:0:
448,192,315067,1,0,0:0:0:0:
192,192,315282,1,0,0:0:0:0:
64,192,315282,1,0,0:0:0:0:
448,192,315496,1,0,0:0:0:0:
320,192,315496,1,0,0:0:0:0:
64,192,315496,1,0,0:0:0:0:
192,192,315782,1,0,0:0:0:0:
64,192,315782,1,0,0:0:0:0:
320,192,315782,1,0,0:0:0:0:
320,192,316067,1,0,0:0:0:0:
448,192,316067,1,0,0:0:0:0:
192,192,316067,1,0,0:0:0:0:
64,192,316353,1,0,0:0:0:0:
192,192,316353,1,0,0:0:0:0:
448,192,316353,1,0,0:0:0:0:
320,192,316567,1,0,0:0:0:0:
192,192,316675,1,0,0:0:0:0:
448,192,316675,1,0,0:0:0:0:
64,192,316782,1,0,0:0:0:0:
448,192,316996,1,0,0:0:0:0:
320,192,316996,1,0,0:0:0:0:
192,192,317210,1,0,0:0:0:0:
448,192,317425,1,0,0:0:0:0:
320,192,317639,1,0,0:0:0:0:
192,192,317853,1,0,0:0:0:0:
448,192,318067,1,0,0:0:0:0:
320,192,318067,1,0,0:0:0:0:
64,192,318067,1,0,0:0:0:0:
192,192,318282,1,0,0:0:0:0:
320,192,318389,1,0,0:0:0:0:
64,192,318389,1,0,0:0:0:0:
448,192,318496,1,0,0:0:0:0:
64,192,318710,1,0,0:0:0:0:
192,192,318710,1,0,0:0:0:0:
320,192,318925,1,0,0:0:0:0:
448,192,318925,1,0,0:0:0:0:
192,192,318925,1,0,0:0:0:0:
64,192,319139,1,0,0:0:0:0:
320,192,319353,1,0,0:0:0:0:
192,192,319567,1,0,0:0:0:0:
448,192,319782,1,0,0:0:0:0:
64,192,319782,1,0,0:0:0:0:
320,192,319782,1,0,0:0:0:0:
192,192,319996,1,0,0:0:0:0:
320,192,320103,1,0,0:0:0:0:
448,192,320103,1,0,0:0:0:0:
64,192,320210,1,0,0:0:0:0:
192,192,320425,1,0,0:0:0:0:
320,192,320425,1,0,0:0:0:0:
448,192,320639,1,0,0:0:0:0:
64,192,320639,1,0,0:0:0:0:
320,192,320853,1,0,0:0:0:0:
448,192,321067,1,0,0:0:0:0:
192,192,321282,1,0,0:0:0:0:
320,192,321496,1,0,0:0:0:0:
448,192,321496,1,0,0:0:0:0:
64,192,321496,1,0,0:0:0:0:
192,192,321710,1,0,0:0:0:0:
64,192,321710,1,0,0:0:0:0:
320,192,321925,1,0,0:0:0:0:
448,192,321925,1,0,0:0:0:0:
192,192,322139,1,0,0:0:0:0:
64,192,322139,1,0,0:0:0:0:
448,192,322353,1,0,0:0:0:0:
320,192,322353,1,0,0:0:0:0:
192,192,322460,1,0,0:0:0:0:
64,192,322460,1,0,0:0:0:0:
320,192,322567,1,0,0:0:0:0:
448,192,322567,1,0,0:0:0:0:
64,192,322675,1,0,0:0:0:0:
192,192,322675,1,0,0:0:0:0:
448,192,322782,1,0,0:0:0:0:
320,192,322782,1,0,0:0:0:0:
192,192,322889,1,0,0:0:0:0:
64,192,322889,1,0,0:0:0:0:
320,192,322996,1,0,0:0:0:0:
448,192,322996,1,0,0:0:0:0:
192,192,323103,1,0,0:0:0:0:
64,192,323103,1,0,0:0:0:0:
320,192,323210,1,0,0:0:0:0:
448,192,323210,1,0,0:0:0:0:
192,192,323210,1,0,0:0:0:0:
64,192,323210,1,0,0:0:0:0:
64,192,323425,1,0,0:0:0:0:
192,192,323532,1,0,0:0:0:0:
448,192,323532,1,0,0:0:0:0:
64,192,323639,1,0,0:0:0:0:
448,192,323853,1,0,0:0:0:0:
320,192,323853,1,0,0:0:0:0:
64,192,324067,1,0,0:0:0:0:
192,192,324067,1,0,0:0:0:0:
320,192,324282,1,0,0:0:0:0:
448,192,324496,1,0,0:0:0:0:
192,192,324710,1,0,0:0:0:0:
64,192,324925,1,0,0:0:0:0:
320,192,324925,1,0,0:0:0:0:
448,192,324925,1,0,0:0:0:0:
192,192,325139,1,0,0:0:0:0:
320,192,325246,1,0,0:0:0:0:
448,192,325246,1,0,0:0:0:0:
64,192,325353,1,0,0:0:0:0:
192,192,325567,1,0,0:0:0:0:
320,192,325567,1,0,0:0:0:0:
448,192,325567,1,0,0:0:0:0:
64,192,325782,1,0,0:0:0:0:
448,192,325782,1,0,0:0:0:0:
192,192,325782,1,0,0:0:0:0:
320,192,325996,1,0,0:0:0:0:
448,192,326210,1,0,0:0:0:0:
192,192,326425,1,0,0:0:0:0:
320,192,326639,1,0,0:0:0:0:
448,192,326639,1,0,0:0:0:0:
64,192,326639,1,0,0:0:0:0:
192,192,326853,1,0,0:0:0:0:
320,192,326960,1,0,0:0:0:0:
448,192,326960,1,0,0:0:0:0:
64,192,327067,1,0,0:0:0:0:
192,192,327282,1,0,0:0:0:0:
448,192,327282,1,0,0:0:0:0:
320,192,327496,1,0,0:0:0:0:
64,192,327496,1,0,0:0:0:0:
192,192,327710,1,0,0:0:0:0:
448,192,327925,1,0,0:0:0:0:
320,192,328139,1,0,0:0:0:0:
64,192,328353,1,0,0:0:0:0:
192,192,328353,1,0,0:0:0:0:
320,192,328567,1,0,0:0:0:0:
448,192,328567,1,0,0:0:0:0:
192,192,328782,1,0,0:0:0:0:
64,192,328782,1,0,0:0:0:0:
448,192,328996,1,0,0:0:0:0:
320,192,328996,1,0,0:0:0:0:
448,192,329210,1,0,0:0:0:0:
64,192,329210,1,0,0:0:0:0:
192,192,329210,1,0,0:0:0:0:
320,192,329496,1,0,0:0:0:0:
64,192,329496,1,0,0:0:0:0:
448,192,329496,1,0,0:0:0:0:
64,192,329782,1,0,0:0:0:0:
320,192,329782,1,0,0:0:0:0:
192,192,329782,1,0,0:0:0:0:
448,192,330067,1,0,0:0:0:0:
192,192,330067,1,0,0:0:0:0:
320,192,330067,1,0,0:0:0:0:
64,192,330282,1,0,0:0:0:0:
192,192,330389,1,0,0:0:0:0:
448,192,330389,1,0,0:0:0:0:
320,192,330496,1,0,0:0:0:0:
192,192,330710,1,0,0:0:0:0:
64,192,330710,1,0,0:0:0:0:
320,192,330925,1,0,0:0:0:0:
448,192,330925,1,0,0:0:0:0:
64,192,331139,1,0,0:0:0:0:
192,192,331353,1,0,0:0:0:0:
320,192,331567,1,0,0:0:0:0:
64,192,331782,1,0,0:0:0:0:
192,192,331782,1,0,0:0:0:0:
448,192,331782,1,0,0:0:0:0:
320,192,331996,1,0,0:0:0:0:
192,192,332103,1,0,0:0:0:0:
64,192,332210,1,0,0:0:0:0:
320,192,332425,1,0,0:0:0:0:
448,192,332425,1,0,0:0:0:0:
192,192,332639,1,0,0:0:0:0:
64,192,332639,1,0,0:0:0:0:
448,192,332639,1,0,0:0:0:0:
320,192,332853,1,0,0:0:0:0:
448,192,333067,1,0,0:0:0:0:
320,192,333282,1,0,0:0:0:0:
64,192,333496,1,0,0:0:0:0:
192,192,333496,1,0,0:0:0:0:
448,192,333496,1,0,0:0:0:0:
320,192,333710,1,0,0:0:0:0:
192,192,333817,1,0,0:0:0:0:
64,192,333817,1,0,0:0:0:0:
448,192,333925,1,0,0:0:0:0:
320,192,334139,1,0,0:0:0:0:
64,192,334139,1,0,0:0:0:0:
192,192,334353,1,0,0:0:0:0:
448,192,334353,1,0,0:0:0:0:
64,192,334567,1,0,0:0:0:0:
320,192,334782,1,0,0:0:0:0:
192,192,334996,1,0,0:0:0:0:
320,192,335210,1,0,0:0:0:0:
448,192,335210,1,0,0:0:0:0:
64,192,335210,1,0,0:0:0:0:
192,192,335425,1,0,0:0:0:0:
320,192,335425,1,0,0:0:0:0:
448,192,335425,1,0,0:0:0:0:
64,192,335639,1,0,0:0:0:0:
192,192,335639,1,0,0:0:0:0:
320,192,335639,1,0,0:0:0:0:
64,192,335853,1,0,0:0:0:0:
192,192,335853,1,0,0:0:0:0:
448,192,335853,1,0,0:0:0:0:
320,192,336067,1,0,0:0:0:0:
448,192,336067,1,0,0:0:0:0:
64,192,336175,1,0,0:0:0:0:
192,192,336175,1,0,0:0:0:0:
320,192,336282,1,0,0:0:0:0:
448,192,336282,1,0,0:0:0:0:
192,192,336389,1,0,0:0:0:0:
64,192,336389,1,0,0:0:0:0:
320,192,336496,1,0,0:0:0:0:
448,192,336496,1,0,0:0:0:0:
192,192,336603,1,0,0:0:0:0:
64,192,336603,1,0,0:0:0:0:
320,192,336710,1,0,0:0:0:0:
448,192,336710,1,0,0:0:0:0:
192,192,336817,1,0,0:0:0:0:
64,192,336817,128,0,338639:0:0:0:0:
448,192,342067,128,0,345496:0:0:0:0:
64,192,342067,128,0,343782:0:0:0:0:
