osu file format v14

[General]
AudioFilename: dinner.ogg
AudioLeadIn: 0
PreviewTime: 14889
Countdown: 0
SampleSet: Soft
StackLeniency: 0.7
Mode: 3
LetterboxInBreaks: 0
SpecialStyle: 0
WidescreenStoryboard: 1

[Editor]
DistanceSpacing: 1.5
BeatDivisor: 8
GridSize: 4
TimelineZoom: 1.9

[Metadata]
Title:Dinner Is Not Over
TitleUnicode:Dinner Is Not Over
Artist:Jack Stauber
ArtistUnicode:Jack Stauber
Creator:NotiiJohn0
Version:Normal
Source:
Tags:dino plopscotch records hypnagogic indie bedroom pop zolo synthpop new wave micropop avant trippy weird funk vhs Video Home System english male alternative aesthetic indie vocals electronic food
BeatmapID:4138220
BeatmapSetID:1991686

[Difficulty]
HPDrainRate:6.5
CircleSize:4
OverallDifficulty:6.5
ApproachRate:5
SliderMultiplier:1.4
SliderTickRate:1

[Events]
//Background and Video events
0,0,"dinner2.jpg",0,0
//Break Periods
//Storyboard Layer 0 (Background)
//Storyboard Layer 1 (Fail)
//Storyboard Layer 2 (Pass)
//Storyboard Layer 3 (Foreground)
//Storyboard Layer 4 (Overlay)
//Storyboard Sound Samples

[TimingPoints]
120,461.538461538462,4,2,1,55,1,0

[HitObjects]
64,192,120,5,0,0:0:0:0:
448,192,120,128,0,350:0:0:0:0:
192,192,350,128,0,581:0:0:0:0:
320,192,581,1,0,0:0:0:0:
64,192,812,128,0,1043:0:0:0:0:
192,192,1043,1,0,0:0:0:0:
448,192,1273,128,0,1504:0:0:0:0:
320,192,1504,1,0,0:0:0:0:
192,192,1735,128,0,1966:0:0:0:0:
64,192,1966,1,0,0:0:0:0:
320,192,2196,128,0,2658:0:0:0:0:
448,192,2427,128,0,2658:0:0:0:0:
64,192,2889,128,0,3120:0:0:0:0:
320,192,3120,1,0,0:0:0:0:
448,192,3350,128,0,3812:0:0:0:0:
64,192,3812,128,0,4043:0:0:0:0:
320,192,4043,128,0,4273:0:0:0:0:
192,192,4273,1,0,0:0:0:0:
448,192,4504,128,0,4735:0:0:0:0:
320,192,4735,1,0,0:0:0:0:
64,192,4966,128,0,5196:0:0:0:0:
320,192,5196,128,0,5427:0:0:0:0:
192,192,5427,128,0,5658:0:0:0:0:
448,192,5658,1,0,0:0:0:0:
192,192,5889,128,0,6350:0:0:0:0:
320,192,6120,128,0,6350:0:0:0:0:
64,192,6581,1,0,0:0:0:0:
192,192,6812,128,0,7043:0:0:0:0:
448,192,7043,128,0,7273:0:0:0:0:
320,192,7273,128,0,7504:0:0:0:0:
64,192,7504,128,0,7966:0:0:0:0:
192,192,7735,128,0,7966:0:0:0:0:
448,192,7966,1,0,0:0:0:0:
192,192,8196,1,0,0:0:0:0:
320,192,8312,1,0,0:0:0:0:
448,192,8427,1,0,0:0:0:0:
64,192,8658,128,0,8889:0:0:0:0:
192,192,8889,128,0,9120:0:0:0:0:
448,192,9120,128,0,9581:0:0:0:0:
320,192,9350,128,0,9581:0:0:0:0:
64,192,9812,1,0,0:0:0:0:
320,192,10043,1,0,0:0:0:0:
192,192,10273,1,0,0:0:0:0:
448,192,10504,1,0,0:0:0:0:
448,192,10735,1,0,0:0:0:0:
192,192,10966,1,0,0:0:0:0:
320,192,11196,128,0,11658:0:0:0:0:
64,192,11427,128,0,11658:0:0:0:0:
448,192,11658,128,0,11889:0:0:0:0:
64,192,11889,1,0,0:0:0:0:
192,192,11889,128,0,12120:0:0:0:0:
448,192,12120,128,0,12350:0:0:0:0:
64,192,12350,128,0,12581:0:0:0:0:
320,192,12581,1,0,0:0:0:0:
448,192,12812,128,0,13735:0:0:0:0:
64,192,12812,1,0,0:0:0:0:
192,192,13043,1,0,0:0:0:0:
320,192,13504,1,0,0:0:0:0:
64,192,13735,128,0,14427:0:0:0:0:
192,192,13966,1,0,0:0:0:0:
448,192,14196,1,0,0:0:0:0:
448,192,14427,1,0,0:0:0:0:
192,192,14658,1,0,0:0:0:0:
64,192,14889,128,0,15350:0:0:0:0:
320,192,14889,1,0,0:0:0:0:
192,192,15120,128,0,15350:0:0:0:0:
448,192,15350,1,0,0:0:0:0:
64,192,15581,1,0,0:0:0:0:
192,192,15696,1,0,0:0:0:0:
320,192,15812,1,0,0:0:0:0:
192,192,16043,128,0,16273:0:0:0:0:
64,192,16273,128,0,16504:0:0:0:0:
320,192,16504,128,0,16966:0:0:0:0:
448,192,16735,128,0,16966:0:0:0:0:
64,192,17196,1,0,0:0:0:0:
320,192,17427,1,0,0:0:0:0:
192,192,17658,1,0,0:0:0:0:
448,192,17889,1,0,0:0:0:0:
448,192,18120,1,0,0:0:0:0:
192,192,18350,1,0,0:0:0:0:
320,192,18581,128,0,19043:0:0:0:0:
64,192,18812,128,0,19043:0:0:0:0:
448,192,19043,128,0,19273:0:0:0:0:
64,192,19273,1,0,0:0:0:0:
192,192,19273,128,0,19504:0:0:0:0:
448,192,19504,128,0,19735:0:0:0:0:
64,192,19735,128,0,19966:0:0:0:0:
320,192,19966,1,0,0:0:0:0:
448,192,20196,128,0,21120:0:0:0:0:
64,192,20196,1,0,0:0:0:0:
192,192,20427,1,0,0:0:0:0:
320,192,20889,1,0,0:0:0:0:
64,192,21120,128,0,21812:0:0:0:0:
192,192,21350,1,0,0:0:0:0:
448,192,21581,1,0,0:0:0:0:
448,192,21812,1,0,0:0:0:0:
192,192,22043,1,0,0:0:0:0:
448,192,22273,128,0,22735:0:0:0:0:
320,192,22273,1,0,0:0:0:0:
64,192,22735,1,0,0:0:0:0:
192,192,22735,1,0,0:0:0:0:
320,192,22966,1,0,0:0:0:0:
192,192,23081,1,0,0:0:0:0:
64,192,23196,1,0,0:0:0:0:
64,192,23427,128,0,23658:0:0:0:0:
448,192,23658,1,0,0:0:0:0:
192,192,23889,1,0,0:0:0:0:
320,192,24004,1,0,0:0:0:0:
448,192,24120,1,0,0:0:0:0:
448,192,24350,128,0,24581:0:0:0:0:
192,192,24581,128,0,25043:0:0:0:0:
320,192,24812,128,0,25043:0:0:0:0:
64,192,25043,1,0,0:0:0:0:
448,192,25273,1,0,0:0:0:0:
448,192,25504,1,0,0:0:0:0:
192,192,25735,1,0,0:0:0:0:
320,192,25966,128,0,26427:0:0:0:0:
64,192,26427,128,0,26889:0:0:0:0:
448,192,26427,1,0,0:0:0:0:
320,192,26658,128,0,26889:0:0:0:0:
448,192,26889,128,0,27120:0:0:0:0:
192,192,27120,128,0,27350:0:0:0:0:
64,192,27350,1,0,0:0:0:0:
448,192,27350,128,0,27812:0:0:0:0:
320,192,27581,128,0,27812:0:0:0:0:
64,192,27812,128,0,28043:0:0:0:0:
320,192,28043,128,0,28273:0:0:0:0:
448,192,28273,1,0,0:0:0:0:
64,192,28273,128,0,28735:0:0:0:0:
192,192,28504,128,0,28735:0:0:0:0:
448,192,28735,128,0,28966:0:0:0:0:
192,192,28966,128,0,29196:0:0:0:0:
320,192,29196,128,0,29427:0:0:0:0:
64,192,29427,128,0,29658:0:0:0:0:
448,192,29658,128,0,30120:0:0:0:0:
320,192,29658,1,0,0:0:0:0:
64,192,30120,1,0,0:0:0:0:
320,192,30350,1,0,0:0:0:0:
192,192,30466,1,0,0:0:0:0:
64,192,30581,1,0,0:0:0:0:
64,192,30812,128,0,31043:0:0:0:0:
448,192,31043,1,0,0:0:0:0:
192,192,31273,1,0,0:0:0:0:
320,192,31389,1,0,0:0:0:0:
448,192,31504,1,0,0:0:0:0:
448,192,31735,128,0,31966:0:0:0:0:
192,192,31966,128,0,32427:0:0:0:0:
320,192,32196,128,0,32427:0:0:0:0:
64,192,32427,1,0,0:0:0:0:
320,192,32658,1,0,0:0:0:0:
192,192,32889,1,0,0:0:0:0:
320,192,33120,1,0,0:0:0:0:
64,192,33350,1,0,0:0:0:0:
448,192,33350,128,0,35658:0:0:0:0:
192,192,34735,128,0,35658:0:0:0:0:
192,192,36004,1,0,0:0:0:0:
