osu file format v14

[General]
AudioFilename: dinner.ogg
AudioLeadIn: 0
PreviewTime: 14889
Countdown: 0
SampleSet: Soft
StackLeniency: 0.7
Mode: 3
LetterboxInBreaks: 0
SpecialStyle: 0
WidescreenStoryboard: 1

[Editor]
DistanceSpacing: 1.5
BeatDivisor: 4
GridSize: 4
TimelineZoom: 0.6999997

[Metadata]
Title:Dinner Is Not Over
TitleUnicode:Dinner Is Not Over
Artist:Jack Stauber
ArtistUnicode:Jack Stauber
Creator:NotiiJohn0
Version:Easy
Source:
Tags:dino plopscotch records hypnagogic indie bedroom pop zolo synthpop new wave micropop avant trippy weird funk vhs Video Home System english male alternative aesthetic indie vocals electronic food
BeatmapID:4138218
BeatmapSetID:1991686

[Difficulty]
HPDrainRate:6
CircleSize:4
OverallDifficulty:6
ApproachRate:5
SliderMultiplier:1.4
SliderTickRate:1

[Events]
//Background and Video events
0,0,"dinner2.jpg",0,0
//Break Periods
//Storyboard Layer 0 (Background)
//Storyboard Layer 1 (Fail)
//Storyboard Layer 2 (Pass)
//Storyboard Layer 3 (Foreground)
//Storyboard Layer 4 (Overlay)
//Storyboard Sound Samples

[TimingPoints]
120,461.538461538462,4,2,1,55,1,0

[HitObjects]
320,192,120,5,0,0:0:0:0:
192,192,120,1,0,0:0:0:0:
448,192,350,128,0,812:0:0:0:0:
64,192,812,1,0,0:0:0:0:
192,192,1273,1,0,0:0:0:0:
64,192,1735,128,0,2196:0:0:0:0:
320,192,2196,1,0,0:0:0:0:
448,192,2427,128,0,2889:0:0:0:0:
64,192,2889,1,0,0:0:0:0:
192,192,3350,1,0,0:0:0:0:
448,192,3812,1,0,0:0:0:0:
320,192,4043,128,0,4504:0:0:0:0:
64,192,4504,1,0,0:0:0:0:
320,192,4966,1,0,0:0:0:0:
192,192,5196,1,0,0:0:0:0:
64,192,5427,128,0,5889:0:0:0:0:
320,192,5889,1,0,0:0:0:0:
448,192,6120,128,0,6581:0:0:0:0:
64,192,6581,1,0,0:0:0:0:
192,192,6812,1,0,0:0:0:0:
448,192,7043,1,0,0:0:0:0:
320,192,7273,1,0,0:0:0:0:
64,192,7504,1,0,0:0:0:0:
448,192,7735,1,0,0:0:0:0:
192,192,7966,1,0,0:0:0:0:
64,192,8196,128,0,8658:0:0:0:0:
320,192,8658,1,0,0:0:0:0:
448,192,8889,1,0,0:0:0:0:
192,192,9120,1,0,0:0:0:0:
320,192,9350,1,0,0:0:0:0:
192,192,9812,1,0,0:0:0:0:
64,192,10043,1,0,0:0:0:0:
448,192,10504,1,0,0:0:0:0:
192,192,10735,1,0,0:0:0:0:
320,192,10966,1,0,0:0:0:0:
64,192,11196,1,0,0:0:0:0:
448,192,11427,1,0,0:0:0:0:
64,192,11889,1,0,0:0:0:0:
192,192,11889,1,0,0:0:0:0:
320,192,12350,1,0,0:0:0:0:
192,192,12581,1,0,0:0:0:0:
64,192,12812,1,0,0:0:0:0:
448,192,12812,128,0,13735:0:0:0:0:
192,192,13735,128,0,14196:0:0:0:0:
64,192,14196,1,0,0:0:0:0:
320,192,14427,1,0,0:0:0:0:
192,192,14658,1,0,0:0:0:0:
448,192,14889,1,0,0:0:0:0:
64,192,15120,1,0,0:0:0:0:
448,192,15581,128,0,16043:0:0:0:0:
64,192,16043,1,0,0:0:0:0:
192,192,16273,1,0,0:0:0:0:
320,192,16504,1,0,0:0:0:0:
448,192,16735,1,0,0:0:0:0:
192,192,17196,1,0,0:0:0:0:
64,192,17427,1,0,0:0:0:0:
448,192,17889,1,0,0:0:0:0:
320,192,18120,1,0,0:0:0:0:
64,192,18350,1,0,0:0:0:0:
192,192,18581,1,0,0:0:0:0:
448,192,18812,1,0,0:0:0:0:
64,192,19273,1,0,0:0:0:0:
192,192,19273,1,0,0:0:0:0:
320,192,19735,1,0,0:0:0:0:
192,192,19966,1,0,0:0:0:0:
64,192,20196,1,0,0:0:0:0:
448,192,20196,128,0,21120:0:0:0:0:
192,192,21120,128,0,21581:0:0:0:0:
64,192,21581,1,0,0:0:0:0:
448,192,21812,1,0,0:0:0:0:
192,192,22043,1,0,0:0:0:0:
320,192,22273,1,0,0:0:0:0:
64,192,22735,1,0,0:0:0:0:
192,192,22735,1,0,0:0:0:0:
320,192,23196,1,0,0:0:0:0:
320,192,23427,1,0,0:0:0:0:
448,192,23658,1,0,0:0:0:0:
192,192,24120,1,0,0:0:0:0:
192,192,24350,1,0,0:0:0:0:
64,192,24581,1,0,0:0:0:0:
448,192,24812,128,0,25273:0:0:0:0:
192,192,25273,1,0,0:0:0:0:
64,192,25504,1,0,0:0:0:0:
320,192,25735,1,0,0:0:0:0:
448,192,25966,1,0,0:0:0:0:
192,192,26427,1,0,0:0:0:0:
64,192,26427,1,0,0:0:0:0:
64,192,26889,128,0,27350:0:0:0:0:
320,192,27350,1,0,0:0:0:0:
448,192,27350,1,0,0:0:0:0:
448,192,27812,128,0,28273:0:0:0:0:
192,192,28273,1,0,0:0:0:0:
64,192,28273,1,0,0:0:0:0:
320,192,28735,1,0,0:0:0:0:
448,192,28966,1,0,0:0:0:0:
192,192,29196,1,0,0:0:0:0:
64,192,29427,1,0,0:0:0:0:
320,192,29658,1,0,0:0:0:0:
448,192,29658,1,0,0:0:0:0:
64,192,30120,1,0,0:0:0:0:
320,192,30581,1,0,0:0:0:0:
320,192,30812,1,0,0:0:0:0:
448,192,31043,1,0,0:0:0:0:
192,192,31504,1,0,0:0:0:0:
192,192,31735,1,0,0:0:0:0:
64,192,31966,1,0,0:0:0:0:
448,192,32196,128,0,32658:0:0:0:0:
64,192,32658,1,0,0:0:0:0:
192,192,32889,1,0,0:0:0:0:
320,192,33120,1,0,0:0:0:0:
64,192,33350,128,0,35658:0:0:0:0:
448,192,33350,1,0,0:0:0:0:
64,192,36004,1,0,0:0:0:0:
