osu file format v14

[General]
AudioFilename: dinner.ogg
AudioLeadIn: 0
PreviewTime: 14889
Countdown: 0
SampleSet: Soft
StackLeniency: 0.7
Mode: 3
LetterboxInBreaks: 0
SpecialStyle: 0
WidescreenStoryboard: 1

[Editor]
DistanceSpacing: 1.5
BeatDivisor: 8
GridSize: 4
TimelineZoom: 2.400004

[Metadata]
Title:Dinner Is Not Over
TitleUnicode:Dinner Is Not Over
Artist:Jack Stauber
ArtistUnicode:Jack Stauber
Creator:NotiiJohn0
Version:Bon Appetit
Source:
Tags:dino plopscotch records hypnagogic indie bedroom pop zolo synthpop new wave micropop avant trippy weird funk vhs Video Home System english male alternative aesthetic indie vocals electronic food
BeatmapID:4138217
BeatmapSetID:1991686

[Difficulty]
HPDrainRate:8
CircleSize:4
OverallDifficulty:8
ApproachRate:5
SliderMultiplier:1.4
SliderTickRate:1

[Events]
//Background and Video events
0,0,"dinner2.jpg",0,0
//Break Periods
//Storyboard Layer 0 (Background)
//Storyboard Layer 1 (Fail)
//Storyboard Layer 2 (Pass)
//Storyboard Layer 3 (Foreground)
//Storyboard Layer 4 (Overlay)
//Storyboard Sound Samples

[TimingPoints]
120,461.538461538462,4,2,1,55,1,0

[HitObjects]
64,192,120,5,0,0:0:0:0:
448,192,120,128,0,466:0:0:0:0:
192,192,120,1,0,0:0:0:0:
192,192,350,128,0,581:0:0:0:0:
320,192,466,128,0,581:0:0:0:0:
448,192,581,1,0,0:0:0:0:
64,192,581,1,0,0:0:0:0:
64,192,812,128,0,1043:0:0:0:0:
192,192,927,128,0,1043:0:0:0:0:
320,192,1043,1,0,0:0:0:0:
448,192,1043,1,0,0:0:0:0:
192,192,1273,128,0,1504:0:0:0:0:
448,192,1389,128,0,1504:0:0:0:0:
320,192,1504,1,0,0:0:0:0:
64,192,1504,1,0,0:0:0:0:
320,192,1735,128,0,1966:0:0:0:0:
64,192,1850,128,0,1966:0:0:0:0:
192,192,1966,1,0,0:0:0:0:
448,192,1966,1,0,0:0:0:0:
192,192,2196,128,0,2312:0:0:0:0:
64,192,2254,128,0,2370:0:0:0:0:
448,192,2427,1,0,0:0:0:0:
320,192,2427,128,0,2543:0:0:0:0:
64,192,2485,128,0,2658:0:0:0:0:
320,192,2658,1,0,0:0:0:0:
448,192,2889,128,0,3120:0:0:0:0:
192,192,2889,1,0,0:0:0:0:
320,192,3004,128,0,3120:0:0:0:0:
64,192,3120,128,0,3696:0:0:0:0:
192,192,3350,128,0,3696:0:0:0:0:
320,192,3350,1,0,0:0:0:0:
448,192,3581,128,0,3696:0:0:0:0:
192,192,3812,1,0,0:0:0:0:
448,192,3812,128,0,4158:0:0:0:0:
64,192,3812,1,0,0:0:0:0:
192,192,4043,128,0,4273:0:0:0:0:
320,192,4158,128,0,4273:0:0:0:0:
64,192,4273,1,0,0:0:0:0:
448,192,4273,1,0,0:0:0:0:
64,192,4504,128,0,4735:0:0:0:0:
192,192,4620,128,0,4735:0:0:0:0:
448,192,4735,1,0,0:0:0:0:
320,192,4735,1,0,0:0:0:0:
192,192,4966,128,0,5081:0:0:0:0:
448,192,5081,128,0,5196:0:0:0:0:
192,192,5196,128,0,5312:0:0:0:0:
64,192,5196,128,0,5312:0:0:0:0:
64,192,5427,128,0,5658:0:0:0:0:
320,192,5427,128,0,5543:0:0:0:0:
320,192,5658,1,0,0:0:0:0:
448,192,5658,1,0,0:0:0:0:
320,192,5889,128,0,6004:0:0:0:0:
448,192,5946,128,0,6062:0:0:0:0:
64,192,6120,1,0,0:0:0:0:
192,192,6120,128,0,6235:0:0:0:0:
448,192,6177,128,0,6350:0:0:0:0:
192,192,6350,1,0,0:0:0:0:
320,192,6581,1,0,0:0:0:0:
64,192,6581,128,0,6927:0:0:0:0:
448,192,6812,1,0,0:0:0:0:
320,192,6812,128,0,7158:0:0:0:0:
192,192,7043,1,0,0:0:0:0:
64,192,7043,128,0,7389:0:0:0:0:
320,192,7273,128,0,7504:0:0:0:0:
192,192,7389,128,0,7504:0:0:0:0:
64,192,7504,1,0,0:0:0:0:
448,192,7504,1,0,0:0:0:0:
448,192,7620,1,0,0:0:0:0:
192,192,7735,1,0,0:0:0:0:
320,192,7850,1,0,0:0:0:0:
448,192,7966,1,0,0:0:0:0:
64,192,7966,128,0,8312:0:0:0:0:
192,192,8081,128,0,8196:0:0:0:0:
448,192,8196,128,0,8427:0:0:0:0:
320,192,8312,1,0,0:0:0:0:
64,192,8427,1,0,0:0:0:0:
192,192,8427,1,0,0:0:0:0:
64,192,8543,1,0,0:0:0:0:
320,192,8658,1,0,0:0:0:0:
192,192,8773,1,0,0:0:0:0:
320,192,8889,1,0,0:0:0:0:
448,192,8889,1,0,0:0:0:0:
64,192,9004,1,0,0:0:0:0:
320,192,9120,1,0,0:0:0:0:
192,192,9235,1,0,0:0:0:0:
64,192,9350,1,0,0:0:0:0:
448,192,9350,1,0,0:0:0:0:
448,192,9466,1,0,0:0:0:0:
192,192,9581,1,0,0:0:0:0:
320,192,9696,1,0,0:0:0:0:
448,192,9812,128,0,9927:0:0:0:0:
64,192,9812,1,0,0:0:0:0:
192,192,9927,1,0,0:0:0:0:
448,192,10043,128,0,10273:0:0:0:0:
320,192,10158,128,0,10273:0:0:0:0:
192,192,10273,1,0,0:0:0:0:
64,192,10273,1,0,0:0:0:0:
64,192,10389,1,0,0:0:0:0:
448,192,10504,1,0,0:0:0:0:
320,192,10504,1,0,0:0:0:0:
192,192,10620,1,0,0:0:0:0:
64,192,10735,1,0,0:0:0:0:
320,192,10735,1,0,0:0:0:0:
448,192,10850,1,0,0:0:0:0:
192,192,10966,1,0,0:0:0:0:
64,192,10966,1,0,0:0:0:0:
320,192,11081,1,0,0:0:0:0:
448,192,11196,128,0,11312:0:0:0:0:
192,192,11196,128,0,11312:0:0:0:0:
192,192,11427,128,0,11543:0:0:0:0:
448,192,11427,128,0,11658:0:0:0:0:
64,192,11658,128,0,11773:0:0:0:0:
192,192,11658,128,0,11773:0:0:0:0:
448,192,11889,1,0,0:0:0:0:
64,192,11889,128,0,12004:0:0:0:0:
320,192,11889,128,0,12004:0:0:0:0:
64,192,12120,128,0,12235:0:0:0:0:
320,192,12120,128,0,12235:0:0:0:0:
192,192,12350,128,0,12466:0:0:0:0:
448,192,12350,128,0,12581:0:0:0:0:
192,192,12581,1,0,0:0:0:0:
64,192,12581,1,0,0:0:0:0:
448,192,12812,1,0,0:0:0:0:
320,192,12812,128,0,13735:0:0:0:0:
64,192,12812,1,0,0:0:0:0:
192,192,13043,1,0,0:0:0:0:
192,192,13158,1,0,0:0:0:0:
64,192,13273,1,0,0:0:0:0:
448,192,13389,1,0,0:0:0:0:
192,192,13504,1,0,0:0:0:0:
64,192,13504,1,0,0:0:0:0:
448,192,13620,1,0,0:0:0:0:
64,192,13735,128,0,14312:0:0:0:0:
192,192,13850,1,0,0:0:0:0:
320,192,13966,1,0,0:0:0:0:
448,192,13966,1,0,0:0:0:0:
192,192,14081,1,0,0:0:0:0:
448,192,14196,1,0,0:0:0:0:
448,192,14312,1,0,0:0:0:0:
192,192,14427,1,0,0:0:0:0:
64,192,14427,1,0,0:0:0:0:
320,192,14543,1,0,0:0:0:0:
192,192,14658,1,0,0:0:0:0:
320,192,14773,1,0,0:0:0:0:
448,192,14889,1,0,0:0:0:0:
64,192,14889,1,0,0:0:0:0:
64,192,15004,1,0,0:0:0:0:
320,192,15120,1,0,0:0:0:0:
192,192,15235,1,0,0:0:0:0:
448,192,15350,1,0,0:0:0:0:
64,192,15350,1,0,0:0:0:0:
320,192,15466,1,0,0:0:0:0:
64,192,15581,128,0,15812:0:0:0:0:
192,192,15696,128,0,15812:0:0:0:0:
448,192,15812,1,0,0:0:0:0:
320,192,15812,1,0,0:0:0:0:
448,192,15927,1,0,0:0:0:0:
192,192,16043,1,0,0:0:0:0:
320,192,16158,1,0,0:0:0:0:
64,192,16273,1,0,0:0:0:0:
192,192,16273,1,0,0:0:0:0:
448,192,16389,1,0,0:0:0:0:
192,192,16504,1,0,0:0:0:0:
320,192,16620,1,0,0:0:0:0:
448,192,16735,1,0,0:0:0:0:
64,192,16735,1,0,0:0:0:0:
64,192,16850,1,0,0:0:0:0:
320,192,16966,1,0,0:0:0:0:
192,192,17081,1,0,0:0:0:0:
64,192,17196,128,0,17312:0:0:0:0:
448,192,17196,128,0,17427:0:0:0:0:
320,192,17312,1,0,0:0:0:0:
192,192,17427,128,0,17543:0:0:0:0:
64,192,17543,128,0,17658:0:0:0:0:
320,192,17658,1,0,0:0:0:0:
448,192,17658,1,0,0:0:0:0:
448,192,17773,1,0,0:0:0:0:
192,192,17889,1,0,0:0:0:0:
64,192,17889,1,0,0:0:0:0:
320,192,18004,1,0,0:0:0:0:
448,192,18120,1,0,0:0:0:0:
192,192,18120,128,0,18466:0:0:0:0:
64,192,18235,128,0,18466:0:0:0:0:
320,192,18350,128,0,18466:0:0:0:0:
448,192,18581,128,0,18696:0:0:0:0:
192,192,18581,128,0,18696:0:0:0:0:
192,192,18812,128,0,18927:0:0:0:0:
448,192,18812,128,0,19043:0:0:0:0:
64,192,19043,128,0,19158:0:0:0:0:
192,192,19043,128,0,19158:0:0:0:0:
448,192,19273,1,0,0:0:0:0:
64,192,19273,128,0,19389:0:0:0:0:
320,192,19273,128,0,19389:0:0:0:0:
64,192,19504,128,0,19620:0:0:0:0:
320,192,19504,128,0,19620:0:0:0:0:
192,192,19735,128,0,19850:0:0:0:0:
448,192,19735,128,0,19966:0:0:0:0:
192,192,19966,1,0,0:0:0:0:
64,192,19966,1,0,0:0:0:0:
448,192,20196,1,0,0:0:0:0:
320,192,20196,128,0,21120:0:0:0:0:
64,192,20196,1,0,0:0:0:0:
192,192,20427,1,0,0:0:0:0:
192,192,20543,1,0,0:0:0:0:
64,192,20658,1,0,0:0:0:0:
448,192,20773,1,0,0:0:0:0:
192,192,20889,1,0,0:0:0:0:
64,192,20889,1,0,0:0:0:0:
448,192,21004,1,0,0:0:0:0:
64,192,21120,128,0,21696:0:0:0:0:
192,192,21235,1,0,0:0:0:0:
320,192,21350,1,0,0:0:0:0:
448,192,21350,1,0,0:0:0:0:
192,192,21466,1,0,0:0:0:0:
448,192,21581,1,0,0:0:0:0:
448,192,21696,1,0,0:0:0:0:
192,192,21812,1,0,0:0:0:0:
64,192,21812,1,0,0:0:0:0:
64,192,21927,1,0,0:0:0:0:
320,192,22043,1,0,0:0:0:0:
192,192,22158,1,0,0:0:0:0:
448,192,22273,128,0,22504:0:0:0:0:
64,192,22273,128,0,22389:0:0:0:0:
64,192,22504,1,0,0:0:0:0:
320,192,22620,1,0,0:0:0:0:
448,192,22735,1,0,0:0:0:0:
192,192,22735,1,0,0:0:0:0:
64,192,22735,1,0,0:0:0:0:
64,192,22850,1,0,0:0:0:0:
320,192,22966,1,0,0:0:0:0:
320,192,23081,128,0,23196:0:0:0:0:
448,192,23196,128,0,23312:0:0:0:0:
64,192,23196,128,0,23427:0:0:0:0:
192,192,23312,1,0,0:0:0:0:
448,192,23427,128,0,23543:0:0:0:0:
320,192,23427,128,0,23543:0:0:0:0:
64,192,23543,1,0,0:0:0:0:
320,192,23658,1,0,0:0:0:0:
448,192,23658,1,0,0:0:0:0:
448,192,23773,1,0,0:0:0:0:
192,192,23889,1,0,0:0:0:0:
192,192,24004,128,0,24120:0:0:0:0:
448,192,24120,128,0,24350:0:0:0:0:
64,192,24120,128,0,24235:0:0:0:0:
320,192,24235,1,0,0:0:0:0:
64,192,24350,128,0,24466:0:0:0:0:
192,192,24350,128,0,24466:0:0:0:0:
448,192,24466,1,0,0:0:0:0:
64,192,24581,1,0,0:0:0:0:
320,192,24581,1,0,0:0:0:0:
64,192,24696,1,0,0:0:0:0:
320,192,24812,128,0,25043:0:0:0:0:
448,192,24812,128,0,24927:0:0:0:0:
192,192,24927,128,0,25158:0:0:0:0:
64,192,25043,128,0,25158:0:0:0:0:
448,192,25043,1,0,0:0:0:0:
320,192,25158,1,0,0:0:0:0:
192,192,25273,1,0,0:0:0:0:
64,192,25273,1,0,0:0:0:0:
64,192,25389,1,0,0:0:0:0:
448,192,25504,1,0,0:0:0:0:
320,192,25504,1,0,0:0:0:0:
448,192,25620,1,0,0:0:0:0:
192,192,25735,1,0,0:0:0:0:
64,192,25735,1,0,0:0:0:0:
320,192,25850,1,0,0:0:0:0:
64,192,25966,128,0,26196:0:0:0:0:
448,192,25966,128,0,26081:0:0:0:0:
448,192,26196,1,0,0:0:0:0:
192,192,26312,1,0,0:0:0:0:
64,192,26427,128,0,26543:0:0:0:0:
320,192,26427,128,0,26658:0:0:0:0:
448,192,26427,128,0,26543:0:0:0:0:
192,192,26543,128,0,26773:0:0:0:0:
64,192,26658,128,0,26773:0:0:0:0:
320,192,26773,1,0,0:0:0:0:
192,192,26889,128,0,27004:0:0:0:0:
64,192,26889,128,0,27235:0:0:0:0:
448,192,27004,1,0,0:0:0:0:
192,192,27120,1,0,0:0:0:0:
320,192,27235,1,0,0:0:0:0:
64,192,27350,128,0,27466:0:0:0:0:
448,192,27350,128,0,27466:0:0:0:0:
192,192,27350,128,0,27581:0:0:0:0:
320,192,27466,128,0,27696:0:0:0:0:
448,192,27581,128,0,27696:0:0:0:0:
192,192,27696,1,0,0:0:0:0:
320,192,27812,128,0,27927:0:0:0:0:
448,192,27812,128,0,28158:0:0:0:0:
64,192,27927,1,0,0:0:0:0:
320,192,28043,1,0,0:0:0:0:
192,192,28158,1,0,0:0:0:0:
320,192,28273,128,0,28504:0:0:0:0:
448,192,28273,128,0,28389:0:0:0:0:
64,192,28273,128,0,28389:0:0:0:0:
192,192,28389,128,0,28620:0:0:0:0:
64,192,28504,128,0,28620:0:0:0:0:
320,192,28620,1,0,0:0:0:0:
192,192,28735,128,0,28850:0:0:0:0:
64,192,28735,128,0,28966:0:0:0:0:
448,192,28850,1,0,0:0:0:0:
320,192,28966,128,0,29081:0:0:0:0:
192,192,28966,128,0,29196:0:0:0:0:
64,192,29081,1,0,0:0:0:0:
448,192,29196,128,0,29312:0:0:0:0:
320,192,29196,128,0,29427:0:0:0:0:
192,192,29312,128,0,29543:0:0:0:0:
448,192,29427,1,0,0:0:0:0:
64,192,29427,128,0,29543:0:0:0:0:
320,192,29543,1,0,0:0:0:0:
64,192,29658,128,0,29773:0:0:0:0:
448,192,29658,128,0,30004:0:0:0:0:
192,192,29658,1,0,0:0:0:0:
320,192,29889,1,0,0:0:0:0:
192,192,30004,1,0,0:0:0:0:
448,192,30120,1,0,0:0:0:0:
64,192,30120,1,0,0:0:0:0:
448,192,30235,1,0,0:0:0:0:
192,192,30350,1,0,0:0:0:0:
192,192,30466,128,0,30581:0:0:0:0:
448,192,30581,128,0,30812:0:0:0:0:
64,192,30581,128,0,30696:0:0:0:0:
320,192,30696,1,0,0:0:0:0:
192,192,30812,128,0,30927:0:0:0:0:
64,192,30812,128,0,30927:0:0:0:0:
448,192,30927,1,0,0:0:0:0:
64,192,31043,1,0,0:0:0:0:
192,192,31043,1,0,0:0:0:0:
64,192,31158,1,0,0:0:0:0:
320,192,31273,1,0,0:0:0:0:
320,192,31389,128,0,31504:0:0:0:0:
448,192,31504,128,0,31620:0:0:0:0:
64,192,31504,128,0,31735:0:0:0:0:
192,192,31620,1,0,0:0:0:0:
448,192,31735,128,0,31850:0:0:0:0:
320,192,31735,128,0,31850:0:0:0:0:
64,192,31850,1,0,0:0:0:0:
448,192,31966,1,0,0:0:0:0:
192,192,31966,1,0,0:0:0:0:
448,192,32081,1,0,0:0:0:0:
192,192,32196,128,0,32427:0:0:0:0:
64,192,32196,128,0,32312:0:0:0:0:
320,192,32312,128,0,32543:0:0:0:0:
448,192,32427,128,0,32543:0:0:0:0:
64,192,32427,1,0,0:0:0:0:
192,192,32543,1,0,0:0:0:0:
320,192,32658,1,0,0:0:0:0:
448,192,32658,1,0,0:0:0:0:
448,192,32773,1,0,0:0:0:0:
192,192,32889,1,0,0:0:0:0:
64,192,32889,1,0,0:0:0:0:
64,192,33004,1,0,0:0:0:0:
448,192,33120,1,0,0:0:0:0:
320,192,33120,1,0,0:0:0:0:
192,192,33235,1,0,0:0:0:0:
320,192,33350,128,0,35196:0:0:0:0:
64,192,33350,1,0,0:0:0:0:
448,192,33350,128,0,35658:0:0:0:0:
64,192,34581,1,0,0:0:0:0:
192,192,34684,1,0,0:0:0:0:
64,192,34786,1,0,0:0:0:0:
192,192,34889,1,0,0:0:0:0:
320,192,36004,1,0,0:0:0:0:
448,192,36033,1,0,0:0:0:0:
