osu file format v14

[General]
AudioFilename: audio.mp3
AudioLeadIn: 0
PreviewTime: 17968
Countdown: 0
SampleSet: Soft
StackLeniency: 0.4
Mode: 0
LetterboxInBreaks: 0
WidescreenStoryboard: 0

[Editor]
DistanceSpacing: 1
BeatDivisor: 16
GridSize: 4
TimelineZoom: 1

[Metadata]
Title:Buttercup
TitleUnicode:Buttercup
Artist:Jack Stauber
ArtistUnicode:Jack Stauber
Creator:PaRaDogi
Version:Electrifying Love
Source:
Tags:Le Mirai SirMirai Cacturne Ascended - ascended - pop english american trippy love phynta anime weird english male vocal wrestling bdsm pleasure Kick-Heart Kick Heart alternative acoustic indie synthpop -_ascended_- pop food
BeatmapID:3335242
BeatmapSetID:1521987

[Difficulty]
HPDrainRate:6
CircleSize:5.5
OverallDifficulty:8
ApproachRate:8.5
SliderMultiplier:1.8
SliderTickRate:1

[Events]
//Background and Video events
0,0,"kick_heart_by_mafalia_ddic64u-fullview.png",0,0
Video,71,"videoplayback.mp4"
//Break Periods
//Storyboard Layer 0 (Background)
//Storyboard Layer 1 (Fail)
//Storyboard Layer 2 (Pass)
//Storyboard Layer 3 (Foreground)
//Storyboard Layer 4 (Overlay)
//Storyboard Sound Samples

[TimingPoints]
2120,500,4,2,1,55,1,0
2120,-285.714285714284,4,2,1,35,0,0
16120,-133.333333333333,4,2,1,35,0,0
18120,-50,4,2,1,55,0,0
19120,-222.222222222221,4,2,1,55,0,0
21620,-50,4,2,1,55,0,0
21995,-50,4,2,1,5,0,0
22120,-50,4,2,1,55,0,0
23120,-222.222222222221,4,2,1,55,0,0
26120,-50,4,2,1,55,0,0
27120,-222.222222222221,4,2,1,55,0,0
29620,-50,4,2,1,55,0,0
29745,-50,4,2,1,5,0,0
30120,-50,4,2,1,55,0,0
31120,-222.222222222221,4,2,1,55,0,0
33620,-50,4,2,1,55,0,0
33745,-50,4,2,1,5,0,0
34120,-50,4,2,1,55,0,0
35120,-222.222222222221,4,2,1,55,0,0
37620,-50,4,2,1,55,0,0
37995,-50,4,2,1,5,0,0
38120,-50,4,2,1,55,0,0
39120,-222.222222222221,4,2,1,55,0,0
42120,-50,4,2,1,55,0,0
43120,-222.222222222221,4,2,1,55,0,0
45620,-50,4,2,1,55,0,0
45995,-50,4,2,1,5,0,0
46120,-50,4,2,1,55,0,0
47120,-222.222222222221,4,2,1,55,0,0
50120,-50,4,2,1,65,0,1
50245,-50,4,2,1,5,0,1
50370,-50,4,2,1,65,0,1
50620,-55.5555555555556,4,2,1,65,0,1
50745,-55.5555555555556,4,2,1,5,0,1
50870,-55.5555555555556,4,2,1,65,0,1
51120,-62.5,4,2,1,65,0,1
51245,-62.5,4,2,1,5,0,1
51370,-62.5,4,2,1,65,0,1
51620,-71.4285714285714,4,2,1,65,0,1
51745,-71.4285714285714,4,2,1,5,0,1
51870,-71.4285714285714,4,2,1,65,0,1
52120,-83.3333333333333,4,2,1,65,0,1
52245,-83.3333333333333,4,2,1,5,0,1
52370,-83.3333333333333,4,2,1,65,0,1
58120,-50,4,2,1,65,0,1
58245,-50,4,2,1,5,0,1
58370,-50,4,2,1,65,0,1
58620,-55.5555555555556,4,2,1,65,0,1
58745,-55.5555555555556,4,2,1,5,0,1
58870,-55.5555555555556,4,2,1,65,0,1
59120,-62.5,4,2,1,65,0,1
59245,-62.5,4,2,1,5,0,1
59370,-62.5,4,2,1,65,0,1
59620,-71.4285714285714,4,2,1,65,0,1
59745,-71.4285714285714,4,2,1,5,0,1
59870,-71.4285714285714,4,2,1,65,0,1
60120,-83.3333333333333,4,2,1,65,0,1
60245,-83.3333333333333,4,2,1,5,0,1
60370,-83.3333333333333,4,2,1,65,0,1
65745,-83.3333333333333,4,2,1,5,0,1
65870,-83.3333333333333,4,2,1,65,0,1
65995,-83.3333333333333,4,2,1,5,0,1
66120,-100,4,2,1,55,0,0
82120,-50,4,2,1,55,0,0
82870,-222.222222222221,4,2,1,55,0,0
85620,-50,4,2,1,55,0,0
85995,-50,4,2,1,5,0,0
86120,-50,4,2,1,55,0,0
87120,-222.222222222221,4,2,1,55,0,0
90120,-50,4,2,1,55,0,0
91120,-222.222222222221,4,2,1,55,0,0
93620,-50,4,2,1,55,0,0
93995,-50,4,2,1,5,0,0
94120,-50,4,2,1,55,0,0
95120,-222.222222222221,4,2,1,55,0,0
98120,-222.222222222221,4,2,1,55,0,0
113120,-222.222222222221,4,2,1,55,0,0
114120,-50,4,2,1,65,0,1
114245,-50,4,2,1,5,0,1
114370,-50,4,2,1,65,0,1
114620,-55.5555555555556,4,2,1,65,0,1
114745,-55.5555555555556,4,2,1,5,0,1
114870,-55.5555555555556,4,2,1,65,0,1
115120,-62.5,4,2,1,65,0,1
115245,-62.5,4,2,1,5,0,1
115370,-62.5,4,2,1,65,0,1
115620,-71.4285714285714,4,2,1,65,0,1
115745,-71.4285714285714,4,2,1,5,0,1
115870,-71.4285714285714,4,2,1,65,0,1
116120,-83.3333333333333,4,2,1,65,0,1
116245,-83.3333333333333,4,2,1,5,0,1
116370,-83.3333333333333,4,2,1,65,0,1
122120,-50,4,2,1,65,0,1
122245,-50,4,2,1,5,0,1
122370,-50,4,2,1,65,0,1
122620,-55.5555555555556,4,2,1,65,0,1
122745,-55.5555555555556,4,2,1,5,0,1
122870,-55.5555555555556,4,2,1,65,0,1
123120,-62.5,4,2,1,65,0,1
123245,-62.5,4,2,1,5,0,1
123370,-62.5,4,2,1,65,0,1
123620,-71.4285714285714,4,2,1,65,0,1
123745,-71.4285714285714,4,2,1,5,0,1
123870,-71.4285714285714,4,2,1,65,0,1
124120,-83.3333333333333,4,2,1,65,0,1
124245,-83.3333333333333,4,2,1,5,0,1
124370,-83.3333333333333,4,2,1,65,0,1
130120,-83.3333333333333,4,2,1,55,0,0
145120,-222.222222222221,4,2,1,55,0,0
146120,-50,4,2,1,65,0,1
146245,-50,4,2,1,5,0,1
146370,-50,4,2,1,65,0,1
146620,-55.5555555555556,4,2,1,65,0,1
146745,-55.5555555555556,4,2,1,5,0,1
146870,-55.5555555555556,4,2,1,65,0,1
147120,-62.5,4,2,1,65,0,1
147245,-62.5,4,2,1,5,0,1
147370,-62.5,4,2,1,65,0,1
147620,-71.4285714285714,4,2,1,65,0,1
147870,-71.4285714285714,4,2,1,5,0,1
148120,-83.3333333333333,4,2,1,65,0,1
148245,-83.3333333333333,4,2,1,5,0,1
148370,-83.3333333333333,4,2,1,65,0,1
154495,-83.3333333333333,4,2,1,5,0,1
154620,-55.5555555555556,4,2,1,65,0,1
154745,-55.5555555555556,4,2,1,5,0,1
154870,-55.5555555555556,4,2,1,65,0,1
155120,-62.5,4,2,1,65,0,1
155245,-62.5,4,2,1,5,0,1
155370,-62.5,4,2,1,65,0,1
155620,-71.4285714285714,4,2,1,65,0,1
155745,-71.4285714285714,4,2,1,5,0,1
155870,-71.4285714285714,4,2,1,65,0,1
156120,-83.3333333333333,4,2,1,65,0,1
157745,-83.3333333333333,4,2,1,20,0,1
157870,-83.3333333333333,4,2,1,65,0,1
157995,-83.3333333333333,4,2,1,20,0,1
158120,-83.3333333333333,4,2,1,65,0,1
160870,-83.3333333333333,4,2,1,45,0,0
162120,-83.3333333333333,4,2,1,55,0,0
178870,-285.714285714284,4,2,1,35,0,0
186245,-285.714285714284,4,2,1,5,0,0
186370,-285.714285714284,4,2,1,35,0,0
188870,-285.714285714284,4,2,1,5,0,0
188995,-285.714285714284,4,2,1,35,0,0
190120,-1000,4,2,1,35,0,0
193870,-1000,4,2,1,5,0,0
194120,-476.190476190476,4,2,1,35,0,0
194620,-476.190476190476,4,2,1,5,0,0
208120,-370.37037037037,4,2,1,5,0,0

[Colours]
Combo1 : 121,255,121
Combo2 : 255,113,184
Combo3 : 255,159,113
Combo4 : 171,171,214

[HitObjects]
59,148,2120,6,0,B|117:135|117:135|122:142|122:142|192:129,1,125.999996154785,2|2,0:0|0:0,0:0:0:0:
270,50,3620,2,0,P|288:73|284:84,1,31.4999990386963
347,99,4120,6,0,P|328:129|372:158,1,94.499997116089,2|0,0:0|0:0,0:0:0:0:
421,117,5120,2,0,P|434:132|429:146,1,31.4999990386963
367,159,5620,2,0,P|357:183|377:200,1,47.2499985580445
405,220,6120,6,0,B|372:239|347:238|345:230|316:228|270:251,1,125.999996154785,2|2,0:0|0:0,0:0:0:0:
237,353,7620,2,0,P|215:351|210:333,1,31.4999990386963,2|0,0:0|0:0,0:0:0:0:
170,299,8120,6,0,P|149:299|148:335,2,62.9999980773926,2|0|2,0:0|0:0|0:0,0:0:0:0:
75,378,9620,2,0,P|57:358|60:346,1,31.4999990386963,2|0,0:0|0:0,0:0:0:0:
9,314,10120,6,0,P|10:291|69:298,1,94.499997116089,2|0,0:0|0:0,0:0:0:0:
126,268,11120,2,0,P|139:283|180:272,2,62.9999980773926,2|2|0,0:0|0:0|0:0,0:0:0:0:
19,53,13120,6,0,P|25:80|77:64,1,94.499997116089,2|0,0:0|0:0,0:0:0:0:
256,192,14120,12,0,15870,0:0:0:0:
17,49,16120,6,0,P|55:25|117:75,1,135.000005149842,2|0,0:0|0:0,0:0:0:0:
142,136,17120,2,0,P|180:160|242:110,1,135.000005149842,2|0,0:0|0:0,0:0:0:0:
505,5,18120,6,0,P|438:108|320:331,1,360,4|8,0:0|0:0,0:0:0:0:
47,377,18870,5,2,0:0:0:0:
6,317,19120,2,0,P|21:297|80:302,1,80.9999975280763,2|8,1:0|0:0,0:0:0:0:
326,318,19870,1,2,0:0:0:0:
382,275,20120,2,0,P|402:280|414:302,1,40.4999987640381,2|0,1:0|0:0,0:0:0:0:
437,359,20620,2,0,P|458:373|505:345,1,80.9999975280763,10|2,0:0|1:0,0:0:0:0:
221,372,21620,6,0,P|173:231|95:73,1,270,2|0,0:0|0:0,0:0:0:0:
286,37,22120,6,0,P|170:242|127:370,1,360,4|8,0:0|0:0,0:0:0:0:
491,48,23120,6,0,P|467:43|454:55,2,40.4999987640381,2|2|10,1:0|0:0|0:0,0:0:0:0:
391,20,23870,1,2,0:0:0:0:
332,55,24120,2,0,P|336:98|377:105,2,80.9999975280763,2|8|0,1:0|0:0|1:0,0:0:0:0:
408,163,25620,1,8,0:0:0:0:
3,128,26120,6,0,P|126:165|337:294,1,360,4|8,0:0|0:0,0:0:0:0:
145,375,26870,5,0,0:0:0:0:
112,309,27120,2,0,P|84:302|74:349,1,80.9999975280763,2|10,1:0|0:0,0:0:0:0:
8,236,27870,1,2,0:0:0:0:
68,204,28120,2,0,P|79:186|72:162,1,40.4999987640381,2|0,1:0|0:0,0:0:0:0:
33,114,28620,2,0,P|21:97|53:53,1,80.9999975280763,10|2,0:0|1:0,0:0:0:0:
413,15,29620,6,0,P|472:99|484:108,1,90,2|0,0:0|0:0,0:0:0:0:
499,8,30120,6,0,P|411:87|279:300,1,360,4|8,0:0|0:0,0:0:0:0:
145,376,30870,5,0,0:0:0:0:
191,322,31120,2,0,P|215:342|218:360,1,40.4999987640381,2|0,1:0|0:0,0:0:0:0:
134,232,31620,2,0,P|110:252|107:270,1,40.4999987640381,10|0,0:0|0:0,0:0:0:0:
195,149,32120,2,0,P|220:159|263:129,1,80.9999975280763,2|8,1:0|0:0,0:0:0:0:
11,42,33620,6,0,P|80:111|83:133,1,90,2|0,0:0|0:0,0:0:0:0:
192,0,34120,6,0,P|102:70|-2:308,1,360,4|8,0:0|0:0,0:0:0:0:
205,364,35120,6,2,P|228:336|269:354,1,80.9999975280763,2|10,1:0|0:0,0:0:0:0:
422,374,35870,1,2,0:0:0:0:
471,324,36120,2,0,P|459:307|435:302,1,40.4999987640381,2|0,1:0|0:0,0:0:0:0:
434,231,36620,2,0,P|406:228|382:237,1,40.4999987640381,10|0,0:0|0:0,0:0:0:0:
335,188,37120,2,0,P|318:204|315:232,1,40.4999987640381,2|0,1:0|0:0,0:0:0:0:
260,366,37620,6,0,P|221:284|118:124,1,270,2|0,0:0|0:0,0:0:0:0:
259,39,38120,6,0,P|208:177|164:385,1,360,4|8,0:0|0:0,0:0:0:0:
11,91,39120,5,2,1:0:0:0:
69,55,39370,1,2,0:0:0:0:
130,83,39620,2,0,P|137:108|126:128,1,40.4999987640381,10|0,0:0|0:0,0:0:0:0:
202,97,40120,2,0,P|229:109|265:68,2,80.9999975280763,2|10|2,1:0|0:0|1:0,0:0:0:0:
316,33,41620,1,8,0:0:0:0:
330,367,42120,6,0,P|370:240|478:27,1,360,4|8,0:0|0:0,0:0:0:0:
329,134,42870,5,0,0:0:0:0:
271,170,43120,2,0,P|238:159|250:111,1,80.9999975280763,2|10,1:0|0:0,0:0:0:0:
134,247,43870,1,2,0:0:0:0:
192,283,44120,2,0,P|225:272|213:224,2,80.9999975280763,2|8|2,1:0|0:0|1:0,0:0:0:0:
264,347,45620,6,0,P|369:285|532:225,1,270,2|0,0:0|0:0,0:0:0:0:
487,366,46120,6,0,P|352:294|190:137,1,360,4|8,0:0|0:0,0:0:0:0:
494,11,47120,6,0,P|512:26|494:49,2,40.4999987640381,2|2|8,1:0|0:0|0:0,0:0:0:0:
449,64,47870,1,2,0:0:0:0:
488,122,48120,2,0,P|493:150|447:178,1,80.9999975280763,0|8,1:0|0:0,0:0:0:0:
330,205,48870,1,2,0:0:0:0:
360,269,49120,2,0,P|388:268|403:254,2,40.4999987640381,2|2|10,1:0|0:0|0:0,0:0:0:0:
281,365,49870,1,2,0:0:0:0:
103,71,50120,6,0,P|20:13|3:45,1,90,4|0,0:0|0:0,0:0:0:0:
0,9,50370,1,0,0:0:0:0:
278,109,50620,6,0,P|331:65|350:71,1,80.9999975280763,10|0,0:0|0:0,0:0:0:0:
377,75,50870,1,0,0:0:0:0:
189,231,51120,6,0,P|133:173|121:174,1,72,2|0,1:0|0:0,0:0:0:0:
112,171,51370,1,0,0:0:0:0:
246,282,51620,6,0,P|298:240|308:241,1,62.9999980773926,10|0,0:0|0:0,0:0:0:0:
314,237,51870,1,0,0:0:0:0:
198,364,52120,6,0,P|165:320|158:320,1,53.9999983520508,2|0,1:0|0:0,0:0:0:0:
172,321,52370,1,0,0:0:0:0:
306,12,52620,6,0,P|368:30|282:63,2,215.999993408203,10|2|8,0:0|1:0|0:0,0:0:0:0:
442,84,53870,1,0,0:0:0:0:
227,111,54120,6,0,P|238:173|280:179,1,107.999996704102,4|0,0:0|0:0,0:0:0:0:
99,168,54620,1,10,0:0:0:0:
136,82,54870,1,2,0:0:0:0:
17,200,55120,1,0,1:0:0:0:
37,288,55370,1,0,0:0:0:0:
175,371,55620,2,0,P|167:315|115:316,1,107.999996704102,8|0,0:0|0:0,0:0:0:0:
301,110,56120,6,0,P|290:172|248:178,1,107.999996704102,2|0,1:0|0:0,0:0:0:0:
429,167,56620,1,10,0:0:0:0:
392,81,56870,1,2,0:0:0:0:
511,199,57120,1,2,1:0:0:0:
491,287,57370,1,2,0:0:0:0:
353,370,57620,2,0,P|361:314|413:315,1,107.999996704102,10|0,0:0|0:0,0:0:0:0:
19,164,58120,6,0,L|8:49,1,90,6|0,0:0|0:0,0:0:0:0:
0,10,58370,1,0,0:0:0:0:
103,216,58620,6,0,L|117:117,1,80.9999975280763,10|0,0:0|0:0,0:0:0:0:
125,88,58870,1,0,0:0:0:0:
224,279,59120,6,0,L|215:201,1,72,2|0,1:0|0:0,0:0:0:0:
213,170,59370,1,0,0:0:0:0:
309,328,59620,6,0,L|319:265,1,62.9999980773926,10|0,0:0|0:0,0:0:0:0:
323,239,59870,1,0,0:0:0:0:
384,384,60120,6,0,L|379:329,1,53.9999983520508,2|0,1:0|0:0,0:0:0:0:
379,330,60370,1,0,0:0:0:0:
488,171,60620,6,0,L|451:387,2,215.999993408203,10|2|10,0:0|1:0|0:0,0:0:0:0:
453,258,61870,1,0,0:0:0:0:
393,91,62120,6,0,L|276:113,1,107.999996704102,4|0,0:0|0:0,0:0:0:0:
146,38,62620,1,10,0:0:0:0:
236,13,62870,1,2,0:0:0:0:
126,126,63120,1,0,1:0:0:0:
39,104,63370,1,0,0:0:0:0:
155,213,63620,2,0,L|288:179,1,107.999996704102,8|0,0:0|0:0,0:0:0:0:
373,38,64120,5,2,1:0:0:0:
283,13,64370,1,0,0:0:0:0:
393,126,64620,1,10,0:0:0:0:
480,104,64870,1,2,0:0:0:0:
364,213,65120,2,0,L|231:179,1,107.999996704102,0|0,1:0|0:0,0:0:0:0:
111,286,65620,2,0,L|97:220,1,53.9999983520508,2|0,0:0|0:0,0:0:0:0:
204,106,65870,2,0,L|190:172,1,53.9999983520508,2|0,0:0|0:0,0:0:0:0:
37,156,66120,6,0,L|138:132,1,90,4|0,0:0|0:0,0:0:0:0:
259,186,66620,1,10,0:0:0:0:
238,255,66870,1,2,0:0:0:0:
381,224,67120,2,0,P|382:140|327:160,1,135,2|0,1:0|0:0,0:0:0:0:
356,138,67620,1,8,0:0:0:0:
471,233,67870,1,2,0:0:0:0:
391,369,68120,5,2,1:0:0:0:
325,342,68370,1,2,0:0:0:0:
188,369,68620,2,0,P|130:339|190:280,1,135,10|0,0:0|0:0,0:0:0:0:
201,243,69120,2,0,P|218:191|172:163,1,90,2|0,1:0|0:0,0:0:0:0:
23,101,69620,2,0,P|-2:52|72:26,1,135,10|0,0:0|0:0,0:0:0:0:
120,42,70120,6,0,P|179:44|197:6,1,90,4|0,0:0|0:0,0:0:0:0:
354,4,70620,1,10,0:0:0:0:
412,46,70870,2,0,P|425:93|312:104,1,180,2|0,0:0|0:0,0:0:0:0:
194,23,71620,2,0,P|151:59|168:96,1,90,8|2,0:0|0:0,0:0:0:0:
213,227,72120,5,2,1:0:0:0:
227,159,72370,1,0,0:0:0:0:
95,247,72620,1,10,0:0:0:0:
63,311,72870,2,0,P|85:350|130:343,1,90,2|0,0:0|1:0,0:0:0:0:
278,306,73370,1,2,0:0:0:0:
291,372,73620,1,8,0:0:0:0:
409,266,73870,1,2,0:0:0:0:
433,194,74120,6,0,P|408:139|337:158,1,135,4|0,0:0|0:0,0:0:0:0:
343,149,74620,1,10,0:0:0:0:
312,87,74870,1,2,0:0:0:0:
174,168,75120,2,0,P|159:222|195:245,2,90,2|0|8,1:0|0:0|0:0,0:0:0:0:
78,44,75870,1,2,0:0:0:0:
14,85,76120,6,0,P|26:148|57:148,1,90,2|0,1:0|0:0,0:0:0:0:
194,101,76620,1,10,0:0:0:0:
205,34,76870,1,2,0:0:0:0:
319,144,77120,1,2,1:0:0:0:
333,209,77370,1,2,0:0:0:0:
265,348,77620,2,0,P|221:369|180:304,1,135,10|0,0:0|0:0,0:0:0:0:
168,244,78120,6,0,P|115:229|95:253,1,90,6|0,0:0|0:0,0:0:0:0:
2,130,78620,1,10,0:0:0:0:
52,80,78870,2,0,B|102:97|139:70|130:46|164:21|243:45,1,180,2|0,0:0|0:0,0:0:0:0:
343,142,79620,1,8,0:0:0:0:
406,110,79870,6,0,P|435:57|415:31,1,90,2|0,0:0|1:0,0:0:0:0:
277,198,80370,1,2,0:0:0:0:
297,267,80620,1,8,0:0:0:0:
319,336,80870,1,2,0:0:0:0:
253,128,81120,5,2,1:0:0:0:
319,336,81620,1,10,0:0:0:0:
461,173,82120,6,0,L|115:278,1,360,4|8,0:0|0:0,0:0:0:0:
0,48,82870,5,2,0:0:0:0:
57,83,83120,2,0,L|85:164,1,80.9999975280763,2|8,1:0|0:0,0:0:0:0:
177,42,83870,1,2,0:0:0:0:
222,86,84120,2,0,L|211:131,1,40.4999987640381,2|0,1:0|0:0,0:0:0:0:
304,10,84620,2,0,L|312:57,1,40.4999987640381,10|0,0:0|0:0,0:0:0:0:
400,88,85120,2,0,L|387:135,1,40.4999987640381,2|0,1:0|0:0,0:0:0:0:
500,271,85620,6,0,L|448:4,1,270,2|0,0:0|0:0,0:0:0:0:
511,27,86120,6,0,L|408:378,1,360,4|8,0:0|0:0,0:0:0:0:
145,384,86870,5,2,0:0:0:0:
171,321,87120,2,0,L|217:302,1,40.4999987640381,2|0,1:0|0:0,0:0:0:0:
323,264,87620,2,0,L|277:245,1,40.4999987640381,10|0,0:0|0:0,0:0:0:0:
178,167,88120,2,0,L|167:256,1,80.9999975280763,2|8,1:0|0:0,0:0:0:0:
12,17,89120,2,0,L|23:106,1,80.9999975280763,0|8,1:0|0:0,0:0:0:0:
479,144,90120,6,0,L|123:59,1,360,4|8,0:0|0:0,0:0:0:0:
35,242,91120,6,0,L|19:159,1,80.9999975280763,2|8,1:0|0:0,0:0:0:0:
116,229,91870,1,2,0:0:0:0:
173,203,92120,2,0,L|177:161,1,40.4999987640381,2|0,1:0|0:0,0:0:0:0:
268,246,92620,2,0,L|257:200,1,40.4999987640381,10|0,0:0|0:0,0:0:0:0:
356,271,93120,2,0,L|362:220,1,40.4999987640381,2|0,1:0|0:0,0:0:0:0:
495,98,93620,6,0,L|430:366,1,270,2|0,0:0|0:0,0:0:0:0:
499,344,94120,6,0,L|408:-6,1,360,4|8,0:0|0:0,0:0:0:0:
228,42,94870,5,2,0:0:0:0:
166,71,95120,2,0,L|159:23,1,40.4999987640381,2|0,1:0|0:0,0:0:0:0:
234,161,95620,2,0,L|243:119,1,40.4999987640381,10|0,0:0|0:0,0:0:0:0:
143,219,96120,2,0,L|64:205,2,80.9999975280763,2|10|0,1:0|0:0|1:0,0:0:0:0:
486,372,97620,5,2,0:0:0:0:
454,11,98120,6,0,P|461:32|481:-1,1,80.9999975280763,6|0,0:0|0:0,0:0:0:0:
333,31,98953,1,0,0:0:0:0:
322,42,99120,2,0,L|335:126,1,80.9999975280763,2|0,0:0|0:0,0:0:0:0:
205,32,99953,1,0,0:0:0:0:
190,42,100120,2,0,L|179:118,1,53.9999983520508,2|0,0:0|0:0,0:0:0:0:
137,137,100620,2,0,L|128:178,1,26.9999991760254,2|0,0:0|0:0,0:0:0:0:
84,202,100953,2,0,P|112:223|182:197,1,107.999996704102,2|0,0:0|0:0,0:0:0:0:
75,284,101953,1,0,0:0:0:0:
62,296,102120,6,0,B|72:333|72:333|70:338|70:338|83:380,1,80.9999975280763,4|0,0:0|0:0,0:0:0:0:
243,283,102953,1,2,0:0:0:0:
254,295,103120,2,0,L|247:353,1,53.9999983520508,2|0,0:0|0:0,0:0:0:0:
325,255,103620,1,2,0:0:0:0:
257,156,103953,1,2,0:0:0:0:
269,143,104120,2,0,P|301:129|328:164,1,80.9999975280763,2|2,0:0|0:0,0:0:0:0:
172,99,104953,2,0,P|201:72|128:74,1,161.999995056153,2|0,0:0|0:0,0:0:0:0:
70,85,106120,6,0,P|35:79|38:32,1,80.9999975280763,6|0,0:0|0:0,0:0:0:0:
14,211,106953,2,0,B|51:222|77:204|74:190|94:159|159:184,1,134.999995880127,2|0,0:0|0:0,0:0:0:0:
181,222,107953,1,2,0:0:0:0:
245,209,108120,2,0,P|266:177|249:141,2,80.9999975280763,2|2|2,0:0|0:0|0:0,0:0:0:0:
193,318,109453,1,0,0:0:0:0:
195,339,109620,2,0,P|227:354|248:340,1,53.9999983520508
285,304,110120,6,0,P|318:310|324:358,1,80.9999975280763,4|2,0:0|0:0,0:0:0:0:
445,373,110953,1,0,0:0:0:0:
464,359,111120,2,0,L|454:324,1,26.9999991760254,2|0,0:0|0:0,0:0:0:0:
483,280,111453,2,0,L|497:220,1,53.9999983520508,2|0,0:0|0:0,0:0:0:0:
469,173,111953,2,0,P|455:146|398:174,1,107.999996704102,2|0,0:0|0:0,0:0:0:0:
352,284,112870,5,2,0:0:0:0:
301,330,113120,2,0,P|277:311|277:293,2,40.4999987640381,0|0|8,1:0|0:0|0:0,0:0:0:0:
169,257,113870,1,2,0:0:0:0:
3,49,114120,6,0,P|94:28|107:51,1,90,6|0,0:0|0:0,0:0:0:0:
135,37,114370,1,0,0:0:0:0:
236,3,114620,6,0,P|266:91|257:99,1,80.9999975280763,10|0,0:0|0:0,0:0:0:0:
266,107,114870,1,0,0:0:0:0:
321,176,115120,6,0,P|262:231|249:226,1,72,2|0,1:0|0:0,0:0:0:0:
255,235,115370,1,0,0:0:0:0:
205,318,115620,6,0,P|177:251|183:246,1,62.9999980773926,10|0,0:0|0:0,0:0:0:0:
167,253,115870,1,0,0:0:0:0:
99,241,116120,6,0,P|136:198|142:199,1,53.9999983520508,2|0,1:0|0:0,0:0:0:0:
124,199,116370,1,0,0:0:0:0:
26,370,116620,6,0,P|73:364|2:326,2,215.999993408203,8|0|8,0:0|1:0|0:0,0:0:0:0:
157,369,117870,1,0,0:0:0:0:
377,373,118120,6,0,P|414:327|385:278,1,107.999996704102,0|0,1:0|0:0,0:0:0:0:
273,193,118620,1,10,0:0:0:0:
293,286,118870,1,2,0:0:0:0:
451,239,119120,1,0,1:0:0:0:
471,146,119370,1,0,0:0:0:0:
294,97,119620,2,0,P|363:130|399:108,1,107.999996704102,8|0,0:0|0:0,0:0:0:0:
135,373,120120,6,0,P|98:327|127:278,1,107.999996704102,2|0,1:0|0:0,0:0:0:0:
239,193,120620,1,10,0:0:0:0:
219,286,120870,1,2,0:0:0:0:
61,239,121120,1,0,1:0:0:0:
41,146,121370,1,0,0:0:0:0:
218,97,121620,2,0,P|149:130|113:108,1,107.999996704102,8|0,0:0|0:0,0:0:0:0:
359,4,122120,6,0,B|404:21|404:21|414:82,1,90,4|0,2:0|0:0,0:0:0:0:
421,126,122370,1,0,0:0:0:0:
509,176,122620,6,0,B|499:216|499:216|426:232,1,80.9999975280763,8|0,0:0|0:0,0:0:0:0:
419,225,122870,1,0,0:0:0:0:
353,345,123120,6,0,B|323:324|323:324|324:289,1,72,0|0,1:0|0:0,0:0:0:0:
327,258,123370,1,0,0:0:0:0:
226,244,123620,6,0,B|226:211|226:211|268:178,1,62.9999980773926,8|0,0:0|0:0,0:0:0:0:
269,185,123870,1,0,0:0:0:0:
247,114,124120,6,0,B|276:105|276:105|319:129,1,53.9999983520508,0|0,1:0|0:0,0:0:0:0:
296,116,124370,1,0,0:0:0:0:
220,17,124620,6,0,B|134:43|134:43|99:25|99:25|-9:57,2,215.999993408203,8|0|8,0:0|1:0|0:0,0:0:0:0:
133,65,125870,1,0,0:0:0:0:
25,207,126120,6,0,P|78:235|105:200,1,107.999996704102,4|0,0:0|0:0,0:0:0:0:
254,153,126620,1,10,0:0:0:0:
233,242,126870,1,2,0:0:0:0:
103,205,127120,1,0,1:0:0:0:
82,116,127370,1,0,0:0:0:0:
195,4,127620,2,0,P|250:31|241:77,1,107.999996704102,8|0,0:0|0:0,0:0:0:0:
487,207,128120,6,0,P|434:235|407:200,1,107.999996704102,2|0,1:0|0:0,0:0:0:0:
258,153,128620,1,10,0:0:0:0:
279,242,128870,1,2,0:0:0:0:
409,205,129120,1,2,1:0:0:0:
430,116,129370,1,2,0:0:0:0:
235,70,129620,1,10,0:0:0:0:
386,287,129870,1,2,0:0:0:0:
257,372,130120,6,0,P|186:366|176:326,1,107.999996704102,6|0,0:0|0:0,0:0:0:0:
56,237,130620,1,10,0:0:0:0:
85,150,130870,1,0,0:0:0:0:
195,91,131120,2,0,P|197:37|143:14,1,107.999996704102,2|0,1:0|0:0,0:0:0:0:
40,94,131620,2,0,P|-3:120|0:172,1,107.999996704102,10|0,0:0|0:0,0:0:0:0:
69,317,132120,5,2,1:0:0:0:
148,276,132370,1,0,0:0:0:0:
292,322,132620,1,10,0:0:0:0:
209,358,132870,1,2,0:0:0:0:
370,362,133120,2,0,P|394:302|364:271,1,107.999996704102,2|0,1:0|0:0,0:0:0:0:
198,145,133620,2,0,L|187:222,1,53.9999983520508,10|0,0:0|0:0,0:0:0:0:
300,72,133870,2,0,L|311:149,1,53.9999983520508,2|0,0:0|0:0,0:0:0:0:
157,35,134120,6,0,P|101:22|76:62,1,107.999996704102,2|0,1:0|0:0,0:0:0:0:
19,211,134620,1,10,0:0:0:0:
70,282,134870,1,2,0:0:0:0:
192,193,135120,2,0,P|201:137|153:118,2,107.999996704102,0|2|8,1:0|0:0|0:0,0:0:0:0:
250,258,135870,1,2,0:0:0:0:
355,35,136120,6,0,P|411:22|436:62,1,107.999996704102,2|0,1:0|0:0,0:0:0:0:
493,211,136620,1,10,0:0:0:0:
407,177,136870,1,2,0:0:0:0:
336,302,137120,1,2,1:0:0:0:
422,268,137370,1,2,0:0:0:0:
329,147,137620,1,10,0:0:0:0:
252,336,137870,1,2,0:0:0:0:
141,181,138120,6,0,P|170:135|223:146,1,107.999996704102,6|0,1:0|0:0,0:0:0:0:
125,344,138620,1,10,0:0:0:0:
92,261,138870,1,2,0:0:0:0:
217,141,139120,1,2,1:0:0:0:
200,230,139370,1,0,0:0:0:0:
50,92,139620,2,0,P|110:60|145:87,1,107.999996704102,10|0,0:0|0:0,0:0:0:0:
292,201,140120,6,0,P|351:199|371:154,1,107.999996704102,2|0,1:0|0:0,0:0:0:0:
450,23,140620,1,10,0:0:0:0:
476,113,140870,1,2,0:0:0:0:
345,250,141120,1,2,1:0:0:0:
371,160,141370,1,0,0:0:0:0:
395,324,141620,2,0,L|453:337,1,53.9999983520508,10|0,0:0|0:0,0:0:0:0:
219,285,141870,2,0,L|277:272,1,53.9999983520508,2|0,0:0|0:0,0:0:0:0:
101,373,142120,6,0,P|67:297|127:266,1,161.999995056153,2|0,1:0|0:0,0:0:0:0:
122,265,142620,1,8,0:0:0:0:
22,161,142870,1,2,0:0:0:0:
85,98,143120,2,0,P|146:115|152:154,1,107.999996704102,0|2,1:0|0:0,0:0:0:0:
219,285,143620,1,8,0:0:0:0:
305,256,143870,1,2,0:0:0:0:
394,112,144120,6,0,P|342:135|349:186,1,107.999996704102,2|0,1:0|0:0,0:0:0:0:
465,321,144620,1,10,0:0:0:0:
491,230,144870,1,0,0:0:0:0:
376,374,145120,6,0,P|349:368|333:378,2,40.4999987640381,2|2|10,1:0|0:0|0:0,0:0:0:0:
233,314,145870,1,2,0:0:0:0:
495,68,146120,6,0,L|481:161,1,90,4|0,0:0|0:0,0:0:0:0:
471,217,146370,1,0,0:0:0:0:
374,122,146620,6,0,L|363:22,1,80.9999975280763,10|0,0:0|0:0,0:0:0:0:
359,0,146870,1,0,0:0:0:0:
274,111,147120,6,0,L|260:200,1,72,2|0,1:0|0:0,0:0:0:0:
259,207,147370,1,0,0:0:0:0:
191,131,147620,6,0,B|173:50|173:50|208:88,1,125.999996154785,8|0,0:0|0:0,0:0:0:0:
123,126,148120,6,0,L|114:191,1,53.9999983520508,2|0,1:0|0:0,0:0:0:0:
115,179,148370,1,0,0:0:0:0:
35,364,148620,6,0,L|9:142,2,215.999993408203,10|2|10,0:0|1:0|0:0,0:0:0:0:
9,149,150120,6,0,P|79:100|106:125,1,107.999996704102,6|0,1:0|0:0,0:0:0:0:
212,188,150620,1,10,0:0:0:0:
235,102,150870,1,2,0:0:0:0:
129,224,151120,1,0,1:0:0:0:
155,315,151370,1,2,0:0:0:0:
296,380,151620,2,0,P|347:339|330:293,1,107.999996704102,8|2,0:0|0:0,0:0:0:0:
212,188,152120,6,0,P|200:125|249:101,1,107.999996704102,2|0,1:0|0:0,0:0:0:0:
368,27,152620,1,10,0:0:0:0:
451,63,152870,1,2,0:0:0:0:
512,206,153120,1,2,1:0:0:0:
421,196,153370,1,2,0:0:0:0:
317,320,153620,1,10,0:0:0:0:
408,298,153870,1,2,0:0:0:0:
231,250,154120,6,0,B|198:224|198:224|237:368,1,161.999995056153,6|0,1:0|0:0,0:0:0:0:
161,335,154620,6,0,L|140:254,1,80.9999975280763,10|0,0:0|0:0,0:0:0:0:
129,213,154870,1,0,0:0:0:0:
260,82,155120,6,0,L|243:161,1,72,2|0,1:0|0:0,0:0:0:0:
240,176,155370,1,0,0:0:0:0:
359,250,155620,6,0,L|349:178,1,62.9999980773926,10|0,0:0|0:0,0:0:0:0:
350,187,155870,1,0,0:0:0:0:
359,104,156120,6,0,P|463:52|446:133,2,215.999993408203,2|10|2,1:0|0:0|1:0,0:0:0:0:
490,163,157370,1,0,0:0:0:0:
450,353,157620,2,0,L|442:275,1,53.9999983520508,10|0,0:0|0:0,0:0:0:0:
355,189,157870,2,0,L|349:248,1,53.9999983520508,2|0,0:0|0:0,0:0:0:0:
268,361,158120,6,0,P|201:360|186:298,1,107.999996704102,6|0,1:0|0:0,0:0:0:0:
103,173,158620,1,10,0:0:0:0:
71,260,158870,1,2,0:0:0:0:
225,221,159120,1,2,1:0:0:0:
203,132,159370,1,2,0:0:0:0:
76,42,159620,1,8,0:0:0:0:
46,129,159870,1,2,0:0:0:0:
302,0,160120,6,0,P|281:67|204:0,1,161.999995056153,2|2,1:0|0:0,0:0:0:0:
206,48,160620,1,10,0:0:0:0:
493,175,160870,6,0,L|484:99,1,53.9999983520508,2|0,0:0|0:0,0:0:0:0:
410,225,161120,2,0,L|419:159,1,53.9999983520508,2|0,0:0|0:0,0:0:0:0:
344,270,161370,2,0,L|336:211,1,53.9999983520508,2|0,0:0|0:0,0:0:0:0:
258,324,161620,2,0,L|264:264,1,53.9999983520508,2|0,0:0|0:0,0:0:0:0:
285,159,161870,1,2,0:0:0:0:
193,84,162120,6,0,P|119:82|110:119,1,107.999996704102,4|0,0:0|0:0,0:0:0:0:
32,240,162620,1,10,0:0:0:0:
9,153,162870,1,0,0:0:0:0:
98,286,163120,2,0,P|170:316|197:289,1,107.999996704102,2|0,1:0|0:0,0:0:0:0:
309,209,163620,1,10,0:0:0:0:
295,301,163870,1,0,0:0:0:0:
233,158,164120,6,0,P|274:118|319:139,1,107.999996704102,2|0,1:0|0:0,0:0:0:0:
460,287,164620,2,0,P|411:301|377:263,1,107.999996704102,10|0,0:0|0:0,0:0:0:0:
466,138,165120,1,2,1:0:0:0:
443,49,165370,1,0,0:0:0:0:
357,173,165620,1,10,0:0:0:0:
377,263,165870,1,2,0:0:0:0:
350,353,166120,6,0,B|296:369|296:369|254:338,1,107.999996704102,2|0,1:0|0:0,0:0:0:0:
172,210,166620,1,10,0:0:0:0:
155,301,166870,1,2,0:0:0:0:
79,167,167120,2,0,P|99:104|152:111,1,107.999996704102,0|0,1:0|0:0,0:0:0:0:
254,27,167620,1,8,0:0:0:0:
200,138,167870,1,0,0:0:0:0:
334,193,168120,6,0,P|403:174|404:124,1,107.999996704102,2|0,1:0|0:0,0:0:0:0:
255,212,168620,1,10,0:0:0:0:
285,299,168870,1,2,0:0:0:0:
150,378,169120,1,2,1:0:0:0:
165,285,169370,1,2,0:0:0:0:
322,381,169620,1,10,0:0:0:0:
184,204,169870,1,2,0:0:0:0:
374,305,170120,6,0,P|429:278|434:231,1,107.999996704102,2|0,1:0|0:0,0:0:0:0:
346,112,170620,1,10,0:0:0:0:
259,142,170870,1,0,0:0:0:0:
151,262,171120,2,0,P|111:211|137:163,1,107.999996704102,2|0,1:0|0:0,0:0:0:0:
301,214,171620,2,0,P|310:264|273:300,1,107.999996704102,10|0,0:0|0:0,0:0:0:0:
138,377,172120,5,2,1:0:0:0:
94,299,172370,1,0,0:0:0:0:
234,177,172620,2,0,L|213:292,1,107.999996704102,10|0,0:0|0:0,0:0:0:0:
40,236,173120,2,0,L|20:129,1,107.999996704102,2|0,1:0|0:0,0:0:0:0:
146,37,173620,1,10,0:0:0:0:
213,93,173870,1,2,0:0:0:0:
337,7,174120,6,0,P|396:38|388:75,1,107.999996704102,2|0,1:0|0:0,0:0:0:0:
301,198,174620,1,8,0:0:0:0:
315,106,174870,1,2,0:0:0:0:
419,215,175120,2,0,P|415:271|368:291,1,107.999996704102,2|2,1:0|0:0,0:0:0:0:
241,371,175620,1,8,0:0:0:0:
218,285,175870,1,2,0:0:0:0:
236,140,176120,6,0,P|185:116|145:160,1,107.999996704102,2|0,1:0|0:0,0:0:0:0:
40,262,176620,1,8,0:0:0:0:
11,171,176870,1,2,0:0:0:0:
128,271,177120,1,2,1:0:0:0:
102,361,177370,1,2,0:0:0:0:
224,259,177620,1,10,0:0:0:0:
34,333,177870,1,2,0:0:0:0:
257,375,178120,5,6,1:0:0:0:
495,167,178870,6,0,P|470:144|416:198,1,125.999996154785,2|0,0:0|0:0,0:0:0:0:
380,250,180120,2,0,P|360:261|304:218,1,94.499997116089,2|0,0:0|0:0,0:0:0:0:
321,164,181120,1,2,0:0:0:0:
259,124,182120,6,0,B|221:115|198:135|200:147|179:169|135:158,1,125.999996154785,2|0,0:0|0:0,0:0:0:0:
28,55,183870,1,2,0:0:0:0:
5,117,184120,6,0,P|20:144|68:119,1,94.499997116089,2|0,0:0|0:0,0:0:0:0:
117,76,185120,2,0,P|154:66|166:121,1,94.499997116089,2|0,0:0|0:0,0:0:0:0:
188,173,186120,6,0,L|217:180,1,15.7499995193482,2|0,0:0|0:0,0:0:0:0:
238,230,186370,2,0,B|295:202|295:202|314:208|314:208|386:173,1,157.499995193482,2|0,0:0|0:0,0:0:0:0:
421,53,188120,2,0,P|474:44|474:68,1,94.499997116089,2|0,0:0|0:0,0:0:0:0:
475,95,188995,1,2,0:0:0:0:
470,108,189120,2,0,P|483:133|496:180,1,70.8749978370667,2|2,0:0|0:0,0:0:0:0:
412,334,190120,6,0,B|372:356|343:343|349:319|315:311|284:335,1,135,2|0,0:0|0:0,0:0:0:0:
213,304,194120,6,0,B|190:202|119:233|28:143|32:-11|212:-50|246:83|246:83|266:-47|478:-25|461:146|415:221|341:218|253:205|214:313|218:344,1,1058.3999677002,6|0,0:0|0:0,0:0:0:0:
