osu file format v14

[General]
AudioFilename: audio.mp3
AudioLeadIn: 0
PreviewTime: 9315
Countdown: 0
SampleSet: Normal
StackLeniency: 0.3
Mode: 0
LetterboxInBreaks: 0
WidescreenStoryboard: 1

[Editor]
Bookmarks: 7976,18547
DistanceSpacing: 1.2
BeatDivisor: 4
GridSize: 4
TimelineZoom: 1.55

[Metadata]
Title:Goosebumps Theme Song
TitleUnicode:Goosebumps Theme Song
Artist:Jack Lenz
ArtistUnicode:Jack Lenz
Creator:Hobbes2
Version:Insane
Source:Goosebumps
Tags:rl stine Lanturn ezek Gero Kenterz Voli
BeatmapID:1044537
BeatmapSetID:451285

[Difficulty]
HPDrainRate:6
CircleSize:4
OverallDifficulty:7.6
ApproachRate:9
SliderMultiplier:2.20000000596046
SliderTickRate:2

[Events]
//Background and Video events
0,0,"Goosebumps.jpg",0,0
Video,0,"SpookyHobbes.avi"
//Break Periods
//Storyboard Layer 0 (Background)
//Storyboard Layer 1 (Fail)
//Storyboard Layer 2 (Pass)
//Storyboard Layer 3 (Foreground)
//Storyboard Sound Samples

[TimingPoints]
244,571.428571428571,4,1,0,55,1,0
41386,594.059405940594,4,1,0,55,1,0
41905,-100,4,1,0,5,0,0
41980,-100,4,1,0,55,0,0
42499,-100,4,1,0,5,0,0
42574,-100,4,1,0,55,0,0
43672,571.428571428571,4,1,0,55,1,0
55957,-133.333333333333,4,1,0,55,0,0
56814,-100,4,1,0,55,0,0

[Colours]
Combo1 : 0,125,0
Combo2 : 102,244,113
Combo3 : 128,128,0
Combo4 : 166,83,0
Combo5 : 34,34,255
Combo6 : 0,64,64

[HitObjects]
139,190,8101,6,0,L|129:153,17,27.5000000745057,4|4|4|4|4|4|4|4|4|4|4|4|4|4|4|4|4|4,0:3|0:3|0:3|0:3|0:3|0:3|0:3|0:3|0:3|0:3|0:3|0:3|0:3|0:3|0:3|0:3|0:3|0:3,0:0:0:0:
155,242,9386,6,0,P|157:178|163:114,1,110.000000298023,4|2,0:0|0:0,0:0:0:0:
215,48,9815,1,0,0:0:0:0:
341,84,9958,2,0,P|345:138|346:193,1,110.000000298023,10|2,0:0|0:0,0:0:0:0:
288,274,10386,1,4,0:3:0:0:
404,274,10529,2,0,P|433:269|466:265,1,55.0000001490115,6|0,0:3|0:0,0:0:0:0:
252,367,10815,2,0,P|224:362|197:358,1,55.0000001490115,2|0,0:0|0:0,0:0:0:0:
345,193,11101,2,0,P|379:238|366:334,1,110.000000298023,8|0,0:0|0:0,0:0:0:0:
288,274,11529,1,4,0:3:0:0:
180,171,11672,6,0,L|180:253,1,82.5000002235172,4|0,0:3|2:0,0:0:0:0:
180,262,11958,2,0,P|152:274|126:296,2,36.6666667660077,2|0|0,0:2|0:0|0:0,0:0:0:0:
180,266,12243,2,0,P|182:347|180:383,1,110.000000298023,8|0,0:0|0:0,0:0:0:0:
94,346,12672,1,4,0:3:0:0:
12,266,12815,2,0,P|8:317|11:342,1,55.0000001490115,4|0,0:3|0:0,0:0:0:0:
83,164,13101,2,0,P|87:215|84:240,1,55.0000001490115,4|0,0:3|0:0,0:0:0:0:
94,346,13386,1,8,0:0:0:0:
94,346,13672,1,8,0:0:0:0:
83,164,13815,1,8,0:0:0:0:
200,272,13958,6,0,P|225:285|237:290,3,27.5000000745057,4|0|4|0,2:3|2:0|2:3|2:0,2:0:0:0:
274,306,14243,2,0,P|299:319|311:324,3,27.5000000745057,2|0|0|0,2:1|2:0|2:0|2:0,2:0:0:0:
346,345,14529,6,0,P|341:276|352:223,1,110.000000298023,10|2,0:0|0:0,0:0:0:0:
420,167,14958,1,4,0:3:0:0:
261,188,15101,2,0,P|220:193|190:192,1,55.0000001490115,6|0,0:3|0:0,0:0:0:0:
313,75,15386,2,0,P|340:75|367:80,1,55.0000001490115,6|0,0:3|0:0,0:0:0:0:
173,114,15672,2,0,P|122:177|132:236,1,110.000000298023,8|0,0:0|0:0,0:0:0:0:
179,283,16101,1,4,0:3:0:0:
179,283,16243,6,0,P|224:286|246:285,1,55.0000001490115,4|0,0:3|0:0,0:0:0:0:
337,193,16529,2,0,P|309:193|282:195,1,55.0000001490115
179,283,16815,2,0,P|182:336|186:359,1,55.0000001490115,8|0,0:0|0:0,0:0:0:0:
283,196,17101,1,4,0:3:0:0:
153,152,17243,1,4,0:3:0:0:
283,196,17386,6,0,P|310:193|337:194,1,55.0000001490115,0|8,0:0|0:0,0:0:0:0:
179,283,17672,2,8,P|151:285|124:285,1,55.0000001490115,0|0,0:0|0:0,0:0:0:0:
237,101,17958,1,8,0:0:0:0:
337,194,18101,1,0,0:0:0:0:
179,283,18243,1,8,0:0:0:0:
248,190,18386,1,8,0:0:0:0:
76,352,18529,6,0,P|75:278|74:248,1,82.5000002235172,2|0,0:0|2:0,0:0:0:0:
74,249,18815,2,0,P|73:195|71:178,1,55.0000001490115,0|2,0:0|0:0,0:0:0:0:
8,103,19101,1,8,0:0:0:0:
8,103,19386,6,0,P|19:55|34:25,2,55.0000001490115,2|2|0,0:0|0:0|0:0,0:0:0:0:
195,121,19815,1,2,0:0:0:0:
72,194,19958,1,0,0:0:0:0:
72,194,20243,5,10,0:0:0:0:
46,294,20386,1,2,0:0:0:0:
72,194,20529,1,0,0:0:0:0:
138,364,20672,1,2,0:0:0:0:
72,194,20815,6,0,P|64:112|68:65,1,110.000000298023,4|0,0:3|0:0,0:0:0:0:
128,8,21243,1,0,0:0:0:0:
169,150,21386,1,8,0:0:0:0:
169,150,21672,1,0,0:0:0:0:
22,8,21815,1,4,0:3:0:0:
218,63,21958,2,0,P|275:61|305:50,1,55.0000001490115,4|0,0:3|0:0,0:0:0:0:
70,139,22243,2,0,P|72:196|83:226,1,55.0000001490115,4|0,0:3|0:0,0:0:0:0:
142,264,22529,1,10,0:0:0:0:
142,264,22815,1,10,0:0:0:0:
282,176,22958,1,8,0:0:0:0:
356,341,23101,5,4,0:0:0:0:
204,150,23386,2,0,P|246:169|301:175,1,82.5000002235172,2|0,0:0|2:0,0:0:0:0:
359,150,23672,2,0,P|317:169|262:175,1,82.5000002235172,10|0,0:0|2:0,0:0:0:0:
204,200,23958,2,0,P|246:181|301:175,1,82.5000002235172,2|0,0:0|2:0,0:0:0:0:
359,200,24243,2,0,P|317:181|262:175,1,82.5000002235172,2|0,0:1|2:0,0:0:0:0:
281,174,24529,2,0,P|278:218|280:254,1,55.0000001490115,2|0,0:1|0:0,0:0:0:0:
450,333,24815,2,0,P|455:282|450:220,1,110.000000298023,8|0,0:0|0:0,0:0:0:0:
414,131,25243,1,4,0:3:0:0:
227,107,25386,6,0,B|264:85|283:52|283:52|324:103|325:156|265:181,1,220.000000596046,4|8,0:3|0:0,0:0:0:0:
188,213,26101,1,0,0:0:0:0:
119,107,26243,2,0,P|115:61|120:31,1,55.0000001490115,0|4,0:0|0:3,0:0:0:0:
30,158,26529,6,0,P|28:221|33:275,1,110.000000298023,4|2,0:3|2:2,0:0:0:0:
33,275,26886,1,2,0:2:0:0:
34,283,26958,2,0,P|82:285|86:284,1,27.5000000745057,2|2,2:2|2:2,2:0:0:0:
104,300,27101,2,0,P|98:348|97:357,2,36.6666667660077,0|0|0,2:0|2:0|2:0,2:0:0:0:
147,300,27386,2,0,P|203:305|227:302,1,55.0000001490115,8|8,0:0|0:0,0:0:0:0:
285,231,27672,6,0,L|277:360,2,110.000000298023,4|2|10,0:3|0:0|0:0,0:0:0:0:
285,231,28529,1,2,0:0:0:0:
255,96,28672,1,4,0:3:0:0:
370,180,28815,2,0,P|416:204|435:210,1,55.0000001490115,6|0,0:3|0:0,0:0:0:0:
255,96,29101,2,0,P|209:72|190:66,1,55.0000001490115,2|0,0:0|0:0,0:0:0:0:
175,230,29386,2,0,P|251:234|307:226,1,110.000000298023,8|0,0:0|0:0,0:0:0:0:
370,180,29815,1,4,0:3:0:0:
182,49,29958,6,0,P|179:94|179:127,1,55.0000001490115,0|4,0:0|0:3,0:0:0:0:
366,125,30243,2,0,P|368:152|369:179,1,55.0000001490115,0|0,0:0|0:0,0:0:0:0:
178,120,30529,2,0,P|168:174|161:192,1,55.0000001490115,8|0,0:0|0:0,0:0:0:0:
370,196,30815,1,4,0:3:0:0:
163,189,30958,1,4,0:3:0:0:
385,202,31101,2,0,P|430:207|455:214,1,55.0000001490115,0|8,0:0|0:0,0:0:0:0:
148,197,31386,2,0,P|103:192|78:185,1,55.0000001490115,0|0,0:0|0:0,0:0:0:0:
195,266,31672,5,8,0:0:0:0:
248,349,31815,1,0,0:0:0:0:
96,270,31958,1,8,0:0:0:0:
240,177,32101,1,8,0:0:0:0:
195,266,32243,6,0,P|158:194|149:116,1,110.000000298023,4|2,0:0|0:2,0:0:0:0:
162,66,32672,1,0,0:0:0:0:
295,19,32815,2,0,P|371:7|415:22,1,110.000000298023,8|2,0:0|0:2,0:0:0:0:
435,108,33243,1,0,0:0:0:0:
272,162,33386,2,0,P|264:135|261:108,1,55.0000001490115,4|0,0:3|0:0,0:0:0:0:
405,202,33672,2,0,P|402:229|394:255,1,55.0000001490115,4|0,0:3|0:0,0:0:0:0:
256,218,33958,2,0,L|262:70,1,110.000000298023,8|2,0:0|0:2,0:0:0:0:
321,30,34386,1,0,0:0:0:0:
386,218,34529,6,0,L|380:70,1,110.000000298023,4|2,0:0|0:2,0:0:0:0:
321,30,34958,1,0,0:0:0:0:
256,218,35101,1,8,0:0:0:0:
448,343,35386,5,2,0:2:0:0:
502,259,35529,1,4,0:3:0:0:
403,255,35672,2,0,P|333:234|292:212,2,110.000000298023,4|2|8,0:3|0:2|0:0,0:0:0:0:
418,57,36529,1,8,0:0:0:0:
243,33,36672,1,8,0:0:0:0:
464,29,36815,6,0,P|471:88|464:150,1,110.000000298023,4|2,0:0|0:2,0:0:0:0:
417,230,37243,1,0,0:0:0:0:
297,173,37386,2,0,P|289:136|288:115,2,55.0000001490115,8|0|2,0:0|0:0|0:2,0:0:0:0:
422,254,37815,1,0,0:0:0:0:
292,197,37958,2,0,P|300:160|301:139,2,55.0000001490115,4|0|4,0:3|0:0|0:3,0:0:0:0:
427,278,38386,1,0,0:0:0:0:
287,221,38529,2,0,P|279:184|278:163,2,55.0000001490115,8|0|2,0:0|0:0|0:2,0:0:0:0:
432,302,38958,1,0,0:0:0:0:
351,71,39101,6,0,P|266:70|214:78,1,110.000000298023,4|2,0:0|0:2,0:0:0:0:
146,103,39529,1,0,0:0:0:0:
287,221,39672,1,8,0:0:0:0:
287,221,39958,2,0,P|279:184|278:163,1,55.0000001490115,2|4,0:2|0:3,0:0:0:0:
394,206,40243,2,0,L|342:316,2,110.000000298023,4|2|8,0:3|0:2|0:0,0:0:0:0:
394,206,41101,1,8,0:0:0:0:
480,310,41243,1,8,0:0:0:0:
441,115,41386,6,0,P|432:69|427:42,1,55.0000001490115,4|4,0:3|0:3,0:0:0:0:
291,83,41683,2,0,P|239:71|196:71,1,82.5000002235172,4|0,0:3|2:0,0:0:0:0:
182,74,41980,6,0,P|191:120|196:147,1,55.0000001490115,4|4,0:3|0:3,0:0:0:0:
267,250,42277,2,0,P|319:262|362:262,1,82.5000002235172,4|0,0:3|2:0,0:0:0:0:
375,263,42574,5,4,0:3:0:0:
291,83,42722,1,4,0:3:0:0:
178,246,42871,1,4,0:3:0:0:
319,81,43672,5,4,0:3:0:0:
304,165,43814,1,2,0:0:0:0:
238,110,43957,1,2,0:0:0:0:
384,135,44100,2,0,L|442:148,2,55.0000001490115,0|10|2,0:0|0:0|0:0,0:0:0:0:
168,260,44529,5,2,0:0:0:0:
183,176,44671,1,4,0:3:0:0:
249,231,44814,1,4,0:3:0:0:
103,206,44957,2,0,L|45:193,2,55.0000001490115,2|4|2,0:0|0:3|0:0,0:0:0:0:
319,81,45386,5,8,0:0:0:0:
304,165,45528,1,2,0:0:0:0:
238,110,45671,1,2,0:0:0:0:
384,135,45814,2,0,L|442:148,2,55.0000001490115,0|2|2,0:0|0:0|0:0,0:0:0:0:
168,260,46243,5,0,0:0:0:0:
183,176,46385,1,2,0:0:0:0:
249,231,46528,1,8,0:0:0:0:
103,206,46671,2,0,L|45:193,2,55.0000001490115,2|4|4,0:0|0:3|0:3,0:0:0:0:
319,81,47100,5,4,0:3:0:0:
304,165,47242,1,2,0:0:0:0:
238,110,47385,1,6,0:3:0:0:
384,135,47528,2,0,L|442:148,2,55.0000001490115,0|10|2,0:0|0:0|0:0,0:0:0:0:
195,218,47957,2,0,L|249:231,1,55.0000001490115,8|8,0:0|0:0,0:0:0:0:
71,334,48243,6,0,P|71:241|62:190,1,110.000000298023,4|2,0:0|0:0,0:0:0:0:
9,144,48672,1,0,0:0:0:0:
195,218,48814,2,0,P|256:231|311:230,1,110.000000298023,10|2,0:0|0:0,0:0:0:0:
394,191,49243,1,4,0:3:0:0:
315,133,49386,2,0,P|306:99|295:54,1,55.0000001490115,6|0,0:3|0:0,0:0:0:0:
384,289,49671,2,0,P|393:323|404:368,1,55.0000001490115,6|0,0:3|0:0,0:0:0:0:
394,191,49957,1,8,0:0:0:0:
165,323,50243,1,0,0:0:0:0:
165,58,50529,6,0,P|226:27|288:18,1,110.000000298023,4|0,0:3|0:0,0:0:0:0:
365,18,50957,1,0,0:0:0:0:
205,258,51100,2,0,P|174:197|165:135,1,110.000000298023,8|0,0:0|0:0,0:0:0:0:
165,58,51528,1,4,0:3:0:0:
405,218,51671,2,0,P|344:249|282:258,1,110.000000298023,4|6,0:3|0:3,0:0:0:0:
205,258,52099,1,0,0:0:0:0:
365,18,52243,2,0,P|378:58|384:82,1,55.0000001490115,10|0,0:0|0:0,0:0:0:0:
148,110,52529,2,0,P|155:83|164:57,1,55.0000001490115,2|8,0:0|0:0,0:0:0:0:
321,178,52814,5,6,0:3:0:0:
205,258,52957,1,0,0:0:0:0:
332,318,53100,2,0,P|389:335|412:338,1,55.0000001490115,2|0,0:0|0:0,0:0:0:0:
321,178,53386,1,10,0:0:0:0:
236,357,53529,1,0,0:0:0:0:
228,158,53671,2,0,P|233:105|238:77,1,55.0000001490115,6|4,0:3|0:3,0:0:0:0:
205,258,53957,6,0,P|152:253|124:248,1,55.0000001490115,6|8,0:3|0:0,0:0:0:0:
321,178,54243,2,0,P|374:183|402:188,1,55.0000001490115,2|0,0:0|0:0,0:0:0:0:
236,357,54529,1,10,0:0:0:0:
228,158,54671,1,0,0:0:0:0:
332,318,54814,1,10,0:0:0:0:
317,50,55100,5,6,0:0:0:0:
228,158,55243,1,0,0:0:0:0:
430,90,55386,1,2,0:0:0:0:
139,259,55671,1,10,0:0:0:0:
88,52,55813,1,0,0:0:0:0:
228,158,55957,6,0,B|331:237|233:283|336:390,1,247.500010111928,2|8,0:0|0:0,0:0:0:0:
418,166,57100,5,8,0:0:0:0:
459,247,57243,1,8,0:0:0:0:
459,84,57386,5,4,2:0:0:0:
288,357,57671,1,2,2:2:0:0:
267,36,57957,1,2,2:2:0:0:
474,283,58243,1,2,2:2:0:0:
161,205,58529,1,2,2:2:0:0:
459,84,58814,1,2,2:2:0:0:
96,347,59100,5,4,2:0:0:0:
