osu file format v14

[General]
AudioFilename: audio.mp3
AudioLeadIn: 0
PreviewTime: 9197
Countdown: 0
SampleSet: None
StackLeniency: 0.7
Mode: 0
LetterboxInBreaks: 0
WidescreenStoryboard: 1

[Editor]
Bookmarks: 7769,9197,15912,18340,22912,32054,41197,43483,48054,50197,54912,58912
DistanceSpacing: 1.2
BeatDivisor: 2
GridSize: 32
TimelineZoom: 1

[Metadata]
Title:Tingbumps
TitleUnicode:Tingbumps
Artist:Jack Lenz & Roadman Shaq
ArtistUnicode:Jack Lenz & Roadman Shaq
Creator:fowwo
Version:Normal
Source:
Tags:
BeatmapID:1828305
BeatmapSetID:874823

[Difficulty]
HPDrainRate:4
CircleSize:3
OverallDifficulty:4
ApproachRate:5
SliderMultiplier:2
SliderTickRate:1

[Events]
//Background and Video events
0,0,"tingbumpsBackground.jpg",0,0
//Break Periods
//Storyboard Layer 0 (Background)
//Storyboard Layer 1 (Fail)
//Storyboard Layer 2 (Pass)
//Storyboard Layer 3 (Foreground)
//Storyboard Sound Samples

[TimingPoints]
55,571.428571428571,4,3,0,80,1,0
32054,-100,4,3,0,100,0,1
41197,-100,4,3,0,80,0,0

[Colours]
Combo1 : 128,0,255
Combo2 : 255,0,128
Combo3 : 255,175,0
Combo4 : 200,255,0
SliderTrackOverride : 80,0,80
SliderBorder : 0,200,255

[HitObjects]
257,85,9197,5,4,0:0:0:0:
152,144,9483,2,0,P|137:191|137:241,1,99.9999999999999,2|10,0:0|0:0,0:0:0:0:
203,341,10054,2,0,L|302:332,1,99.9999999999999,2|2,0:0|0:0,0:0:0:0:
418,367,10626,2,0,P|403:319|403:269,1,99.9999999999999,6|8,0:0|0:0,0:0:0:0:
473,172,11197,1,0,0:0:0:0:
377,98,11483,6,0,L|368:-1,2,99.9999999999999,0|4|8,0:0|0:0|0:0,0:0:0:0:
304,194,12340,1,0,0:0:0:0:
196,139,12626,2,0,L|204:39,2,99.9999999999999,4|4|8,0:0|0:0|0:0,0:0:0:0:
83,180,13483,2,0,P|68:227|68:277,1,99.9999999999999,0|4,0:0|0:0,0:0:0:0:
153,362,14054,6,0,L|252:353,1,99.9999999999999,2|10,0:0|0:0,0:0:0:0:
319,263,14626,2,0,P|318:213|304:165,1,99.9999999999999,2|2,0:0|0:0,0:0:0:0:
182,171,15197,2,0,L|82:179,1,99.9999999999999,6|8,0:0|0:0,0:0:0:0:
8,83,15769,1,0,0:0:0:0:
109,19,16054,6,0,B|209:-6|201:65|301:39,1,200,4|8,0:0|0:0,0:0:0:0:
416,1,16912,1,0,0:0:0:0:
496,89,17197,2,0,P|510:136|510:186,1,99.9999999999999,4|4,0:0|0:0,0:0:0:0:
441,285,17769,2,0,P|441:334|455:382,1,99.9999999999999,8|0,0:0|0:0,0:0:0:0:
358,311,18340,6,0,B|307:304|260:326|260:326|237:314|212:312,1,150,4|10,0:0|0:0,0:0:0:0:
59,208,19197,2,0,B|110:201|157:223|157:223|180:211|205:209,1,150,4|10,0:0|0:0,0:0:0:0:
358,105,20054,2,0,B|307:98|260:120|260:120|237:108|212:106,1,150,4|10,0:0|0:0,0:0:0:0:
154,123,20626,6,0,P|106:108|56:108,2,99.9999999999999,0|4|8,0:0|0:0|0:0,0:0:0:0:
209,210,21483,1,0,0:0:0:0:
154,297,21769,2,0,P|106:311|56:311,2,99.9999999999999,4|4|8,0:0|0:0|0:0,0:0:0:0:
209,210,22626,1,0,0:0:0:0:
322,250,22912,1,4,0:0:0:0:
265,144,23197,6,0,P|264:94|278:46,1,99.9999999999999,2|10,0:0|0:0,0:0:0:0:
389,1,23769,2,0,P|410:44|418:94,1,99.9999999999999,2|2,0:0|0:0,0:0:0:0:
509,173,24340,2,0,P|487:216|479:266,1,99.9999999999999,6|8,0:0|0:0,0:0:0:0:
511,382,24912,1,0,0:0:0:0:
401,334,25197,6,0,B|301:309|309:380|209:354,1,200,4|8,0:0|0:0,0:0:0:0:
95,311,26054,1,0,0:0:0:0:
183,230,26340,2,0,P|184:180|170:132,2,99.9999999999999,4|4|8,0:0|0:0|0:0,0:0:0:0:
95,311,27197,2,0,P|81:263|82:213,1,99.9999999999999,0|4,0:0|0:0,0:0:0:0:
170,132,27769,6,0,L|269:123,1,99.9999999999999,2|10,0:0|0:0,0:0:0:0:
231,236,28340,2,0,P|229:285|243:333,1,99.9999999999999,2|2,0:0|0:0,0:0:0:0:
353,382,28912,2,0,L|452:373,1,99.9999999999999,6|8,0:0|0:0,0:0:0:0:
395,267,29483,1,0,0:0:0:0:
512,298,29769,6,0,P|497:202|418:146,1,200,4|8,0:0|0:0,0:0:0:0:
315,208,30626,1,0,0:0:0:0:
349,92,30912,2,0,P|341:42|319:-1,1,99.9999999999999,4|4,0:0|0:0,0:0:0:0:
199,6,31483,2,0,P|185:53|186:103,1,99.9999999999999,8|0,0:0|0:0,0:0:0:0:
230,215,32054,6,0,L|131:206,1,99.9999999999999,6|2,0:0|0:0,0:0:0:0:
101,323,32626,2,0,L|2:332,2,99.9999999999999,10|2|2,0:0|0:0|0:0,0:0:0:0:
206,380,33483,1,6,0:0:0:0:
296,301,33769,1,10,0:0:0:0:
399,360,34054,1,2,0:0:0:0:
485,276,34340,2,0,P|486:226|472:178,1,99.9999999999999,2|6,0:0|0:0,0:0:0:0:
387,92,34912,6,0,L|288:101,1,100,10|2,0:0|0:0,0:0:0:0:
195,178,35483,2,0,B|95:203|103:132|1:158,1,200,6|10,0:0|0:0,0:0:0:0:
41,271,36340,1,0,0:0:0:0:
2,384,36626,6,0,L|101:375,1,99.9999999999999,6|2,0:0|0:0,0:0:0:0:
207,319,37197,2,0,P|254:332|304:331,2,99.9999999999999,10|2|2,0:0|0:0|0:0,0:0:0:0:
126,229,38054,1,6,0:0:0:0:
243,202,38340,1,10,0:0:0:0:
165,110,38626,1,2,0:0:0:0:
283,88,38912,2,0,L|381:71,1,100,2|6,0:0|0:0,0:0:0:0:
431,180,39483,6,0,L|332:163,1,100,10|2,0:0|0:0,0:0:0:0:
264,262,40054,2,0,B|164:287|172:216|70:242,1,200,6|10,0:0|0:0,0:0:0:0:
0,343,40912,1,0,0:0:0:0:
113,382,41197,6,0,L|211:365,1,100,8|4,0:0|0:0,0:0:0:0:
264,262,41769,2,0,L|165:245,1,100,8|8,0:0|0:0,0:0:0:0:
113,142,42340,2,0,L|211:125,1,100,4|4,0:0|0:0,0:0:0:0:
256,192,43483,12,0,47483,2:0:0:0:
256,320,48054,5,4,0:0:0:0:
344,238,48340,2,0,P|359:191|359:141,1,100,2|10,0:0|0:0,0:0:0:0:
300,35,48912,2,0,L|201:44,1,99.9999999999999,2|2,0:0|0:0,0:0:0:0:
86,6,49483,2,0,P|101:53|101:103,1,100,6|8,0:0|0:0,0:0:0:0:
33,202,50054,1,0,0:0:0:0:
114,290,50340,6,0,B|214:315|206:244|307:270,1,200,4|8,0:0|0:0,0:0:0:0:
373,371,51197,1,0,0:0:0:0:
489,341,51483,2,0,P|504:293|503:243,1,100,4|4,0:0|0:0,0:0:0:0:
390,202,52054,2,0,P|374:154|375:104,1,100,8|0,0:0|0:0,0:0:0:0:
452,12,52626,6,0,B|352:-13|360:58|258:31,1,200,4|8,0:0|0:0,0:0:0:0:
141,2,53483,1,0,0:0:0:0:
178,116,53769,2,0,P|178:165|163:213,1,100,4|4,0:0|0:0,0:0:0:0:
68,287,54340,2,0,P|117:286|165:301,1,100,8|0,0:0|0:0,0:0:0:0:
254,382,54912,6,0,L|353:373,1,99.9999999999999,8|4,0:0|0:0,0:0:0:0:
421,274,55483,2,0,L|322:265,1,99.9999999999999,8|8,0:0|0:0,0:0:0:0:
254,165,56054,2,0,P|253:115|268:67,2,100,4|4|8,0:0|0:0|0:0,0:0:0:0:
321,264,56912,1,0,0:0:0:0:
204,237,57197,1,0,0:0:0:0:
237,352,57483,6,0,P|187:352|139:337,1,100,2|2,0:0|0:0,0:0:0:0:
71,238,58054,2,0,P|70:188|85:140,1,100,2|2,0:0|0:0,0:0:0:0:
180,65,58626,2,0,P|229:64|277:79,1,100,2|4,0:0|0:0,0:0:0:0:
