osu file format v14

[General]
AudioFilename: audio.mp3
AudioLeadIn: 0
PreviewTime: 2734
Countdown: 1
SampleSet: None
StackLeniency: 0.7
Mode: 0
LetterboxInBreaks: 0
WidescreenStoryboard: 1

[Editor]
DistanceSpacing: 1
BeatDivisor: 4
GridSize: 32
TimelineZoom: 1

[Metadata]
Title:CANDY CANES (full version)
TitleUnicode:CANDY CANES (full version)
Artist:Jack Douglass
ArtistUnicode:Jack Douglass
Creator:Ethan
Version:Insane+
Source:
Tags:youtube jacksfilms
BeatmapID:1167204
BeatmapSetID:551002

[Difficulty]
HPDrainRate:4
CircleSize:4.2
OverallDifficulty:7.3
ApproachRate:9
SliderMultiplier:1.4
SliderTickRate:1

[Events]
//Background and Video events
0,0,"Candy_Cane_Background.jpg",0,0
//Break Periods
//Storyboard Layer 0 (Background)
//Storyboard Layer 1 (Fail)
//Storyboard Layer 2 (Pass)
//Storyboard Layer 3 (Foreground)
//Storyboard Sound Samples

[TimingPoints]
2734.76404494382,337.078651685393,4,3,1,100,1,0

[HitObjects]
256,88,2734,6,0,P|200:96|136:172,1,140
369,152,3240,2,0,P|323:101|256:88,1,140
256,184,3745,1,0,0:0:0:0:
256,340,3914,1,0,0:0:0:0:
256,260,4083,6,0,P|312:252|376:176,1,140
142,195,4589,2,0,P|188:246|255:259,1,140
256,164,5094,1,0,0:0:0:0:
256,8,5263,1,0,0:0:0:0:
140,88,5431,5,0,0:0:0:0:
376,88,5599,1,0,0:0:0:0:
168,240,5768,1,0,0:0:0:0:
256,80,5937,1,0,0:0:0:0:
344,240,6105,1,0,0:0:0:0:
80,160,6274,1,0,0:0:0:0:
448,164,6442,1,0,0:0:0:0:
256,332,6611,1,0,0:0:0:0:
256,152,6779,6,0,P|256:212|168:212,1,140
188,108,7285,2,0,P|252:76|320:100,1,140
344,200,7790,1,0,0:0:0:0:
256,112,8128,5,0,0:0:0:0:
176,271,8296,1,0,0:0:0:0:
336,271,8465,1,0,0:0:0:0:
312,134,8633,5,0,0:0:0:0:
142,192,8801,1,0,0:0:0:0:
254,304,8970,1,0,0:0:0:0:
336,192,9139,5,0,0:0:0:0:
176,112,9307,1,0,0:0:0:0:
176,271,9476,1,0,0:0:0:0:
312,248,9644,5,0,0:0:0:0:
254,78,9812,1,0,0:0:0:0:
142,190,9981,1,0,0:0:0:0:
256,271,10150,5,0,0:0:0:0:
336,112,10318,1,0,0:0:0:0:
176,112,10487,1,0,0:0:0:0:
198,248,10655,5,0,0:0:0:0:
368,190,10823,1,0,0:0:0:0:
256,78,10992,1,0,0:0:0:0:
176,192,11161,5,0,0:0:0:0:
336,271,11329,1,0,0:0:0:0:
336,112,11498,1,0,0:0:0:0:
198,134,11666,5,0,0:0:0:0:
256,304,11834,1,0,0:0:0:0:
368,192,12003,1,0,0:0:0:0:
256,112,12172,5,0,0:0:0:0:
176,271,12340,1,0,0:0:0:0:
336,271,12509,1,0,0:0:0:0:
312,134,12677,5,0,0:0:0:0:
142,192,12845,1,0,0:0:0:0:
254,304,13014,1,0,0:0:0:0:
336,192,13183,5,0,0:0:0:0:
176,112,13351,1,0,0:0:0:0:
176,271,13520,1,0,0:0:0:0:
312,248,13688,5,0,0:0:0:0:
254,78,13856,1,0,0:0:0:0:
142,190,14025,1,0,0:0:0:0:
256,271,14194,5,0,0:0:0:0:
336,112,14362,1,0,0:0:0:0:
176,112,14531,1,0,0:0:0:0:
198,248,14699,5,0,0:0:0:0:
368,190,14867,1,0,0:0:0:0:
256,78,15036,1,0,0:0:0:0:
176,192,15205,5,0,0:0:0:0:
336,271,15373,1,0,0:0:0:0:
336,112,15542,1,0,0:0:0:0:
198,134,15710,5,0,0:0:0:0:
256,304,15878,1,0,0:0:0:0:
368,192,16047,1,0,0:0:0:0:
256,112,16217,5,0,0:0:0:0:
176,271,16385,1,0,0:0:0:0:
336,271,16554,1,0,0:0:0:0:
312,134,16722,5,0,0:0:0:0:
142,192,16890,1,0,0:0:0:0:
254,304,17059,1,0,0:0:0:0:
336,192,17228,5,0,0:0:0:0:
176,112,17396,1,0,0:0:0:0:
176,271,17565,1,0,0:0:0:0:
312,248,17733,5,0,0:0:0:0:
254,78,17901,1,0,0:0:0:0:
142,190,18070,1,0,0:0:0:0:
256,271,18239,5,0,0:0:0:0:
336,112,18407,1,0,0:0:0:0:
176,112,18576,1,0,0:0:0:0:
198,248,18744,5,0,0:0:0:0:
368,190,18912,1,0,0:0:0:0:
256,78,19081,1,0,0:0:0:0:
176,192,19250,5,0,0:0:0:0:
336,271,19418,1,0,0:0:0:0:
336,112,19587,1,0,0:0:0:0:
198,134,19755,5,0,0:0:0:0:
256,304,19923,1,0,0:0:0:0:
368,192,20092,1,0,0:0:0:0:
256,112,20262,5,0,0:0:0:0:
176,271,20430,1,0,0:0:0:0:
336,271,20599,1,0,0:0:0:0:
312,134,20767,5,0,0:0:0:0:
142,192,20935,1,0,0:0:0:0:
254,304,21104,1,0,0:0:0:0:
336,192,21273,5,0,0:0:0:0:
176,112,21441,1,0,0:0:0:0:
176,271,21610,1,0,0:0:0:0:
312,248,21778,5,0,0:0:0:0:
254,78,21946,1,0,0:0:0:0:
142,190,22115,1,0,0:0:0:0:
256,271,22284,5,0,0:0:0:0:
336,112,22452,1,0,0:0:0:0:
176,112,22621,1,0,0:0:0:0:
198,248,22789,5,0,0:0:0:0:
368,190,22957,1,0,0:0:0:0:
256,78,23126,1,0,0:0:0:0:
176,192,23295,5,0,0:0:0:0:
336,271,23463,1,0,0:0:0:0:
336,112,23632,1,0,0:0:0:0:
198,134,23800,5,0,0:0:0:0:
256,304,23968,1,0,0:0:0:0:
368,192,24137,1,0,0:0:0:0:
256,112,24307,5,0,0:0:0:0:
176,271,24475,1,0,0:0:0:0:
336,271,24644,1,0,0:0:0:0:
312,134,24812,5,0,0:0:0:0:
142,192,24980,1,0,0:0:0:0:
254,304,25149,1,0,0:0:0:0:
336,192,25318,5,0,0:0:0:0:
176,112,25486,1,0,0:0:0:0:
176,271,25655,1,0,0:0:0:0:
312,248,25823,5,0,0:0:0:0:
254,78,25991,1,0,0:0:0:0:
142,190,26160,1,0,0:0:0:0:
256,271,26329,5,0,0:0:0:0:
336,112,26497,1,0,0:0:0:0:
176,112,26666,1,0,0:0:0:0:
198,248,26834,5,0,0:0:0:0:
368,190,27002,1,0,0:0:0:0:
256,78,27171,1,0,0:0:0:0:
176,192,27340,5,0,0:0:0:0:
336,271,27508,1,0,0:0:0:0:
336,112,27677,1,0,0:0:0:0:
198,134,27845,5,0,0:0:0:0:
256,304,28013,1,0,0:0:0:0:
368,192,28182,1,0,0:0:0:0:
256,112,28352,5,0,0:0:0:0:
176,271,28520,1,0,0:0:0:0:
336,271,28689,1,0,0:0:0:0:
312,134,28857,5,0,0:0:0:0:
142,192,29025,1,0,0:0:0:0:
254,304,29194,1,0,0:0:0:0:
336,192,29363,5,0,0:0:0:0:
176,112,29531,1,0,0:0:0:0:
176,271,29700,1,0,0:0:0:0:
312,248,29868,5,0,0:0:0:0:
254,78,30036,1,0,0:0:0:0:
142,190,30205,1,0,0:0:0:0:
256,271,30374,5,0,0:0:0:0:
336,112,30542,1,0,0:0:0:0:
176,112,30711,1,0,0:0:0:0:
198,248,30879,5,0,0:0:0:0:
368,190,31047,1,0,0:0:0:0:
256,78,31216,1,0,0:0:0:0:
176,192,31385,5,0,0:0:0:0:
336,271,31553,1,0,0:0:0:0:
336,112,31722,1,0,0:0:0:0:
198,134,31890,5,0,0:0:0:0:
256,304,32058,1,0,0:0:0:0:
368,192,32227,1,0,0:0:0:0:
256,112,32397,5,0,0:0:0:0:
176,271,32565,1,0,0:0:0:0:
336,271,32734,1,0,0:0:0:0:
312,134,32902,5,0,0:0:0:0:
142,192,33070,1,0,0:0:0:0:
254,304,33239,1,0,0:0:0:0:
336,192,33408,5,0,0:0:0:0:
176,112,33576,1,0,0:0:0:0:
176,271,33745,1,0,0:0:0:0:
312,248,33913,5,0,0:0:0:0:
254,78,34081,1,0,0:0:0:0:
142,190,34250,1,0,0:0:0:0:
256,271,34419,5,0,0:0:0:0:
336,112,34587,1,0,0:0:0:0:
176,112,34756,1,0,0:0:0:0:
198,248,34924,5,0,0:0:0:0:
368,190,35092,1,0,0:0:0:0:
256,78,35261,1,0,0:0:0:0:
176,192,35430,5,0,0:0:0:0:
336,271,35598,1,0,0:0:0:0:
336,112,35767,1,0,0:0:0:0:
198,134,35935,5,0,0:0:0:0:
256,304,36103,1,0,0:0:0:0:
368,192,36272,1,0,0:0:0:0:
256,112,36442,5,0,0:0:0:0:
176,271,36610,1,0,0:0:0:0:
336,271,36779,1,0,0:0:0:0:
312,134,36947,5,0,0:0:0:0:
142,192,37115,1,0,0:0:0:0:
254,304,37284,1,0,0:0:0:0:
336,192,37453,5,0,0:0:0:0:
176,112,37621,1,0,0:0:0:0:
176,271,37790,1,0,0:0:0:0:
312,248,37958,5,0,0:0:0:0:
254,78,38126,1,0,0:0:0:0:
142,190,38295,1,0,0:0:0:0:
256,271,38464,5,0,0:0:0:0:
336,112,38632,1,0,0:0:0:0:
176,112,38801,1,0,0:0:0:0:
198,248,38969,5,0,0:0:0:0:
368,190,39137,1,0,0:0:0:0:
256,78,39306,1,0,0:0:0:0:
176,192,39475,5,0,0:0:0:0:
336,271,39643,1,0,0:0:0:0:
336,112,39812,1,0,0:0:0:0:
198,134,39980,5,0,0:0:0:0:
256,304,40148,1,0,0:0:0:0:
368,192,40317,1,0,0:0:0:0:
256,112,40487,5,0,0:0:0:0:
176,271,40655,1,0,0:0:0:0:
336,271,40824,1,0,0:0:0:0:
312,134,40992,5,0,0:0:0:0:
142,192,41160,1,0,0:0:0:0:
254,304,41329,1,0,0:0:0:0:
336,192,41498,5,0,0:0:0:0:
176,112,41666,1,0,0:0:0:0:
176,271,41835,1,0,0:0:0:0:
312,248,42003,5,0,0:0:0:0:
254,78,42171,1,0,0:0:0:0:
142,190,42340,1,0,0:0:0:0:
256,271,42509,5,0,0:0:0:0:
336,112,42677,1,0,0:0:0:0:
176,112,42846,1,0,0:0:0:0:
198,248,43014,5,0,0:0:0:0:
368,190,43182,1,0,0:0:0:0:
256,78,43351,1,0,0:0:0:0:
176,192,43520,5,0,0:0:0:0:
336,271,43688,1,0,0:0:0:0:
336,112,43857,1,0,0:0:0:0:
198,134,44025,5,0,0:0:0:0:
256,304,44193,1,0,0:0:0:0:
368,192,44362,1,0,0:0:0:0:
256,112,44532,5,0,0:0:0:0:
176,271,44700,1,0,0:0:0:0:
336,271,44869,1,0,0:0:0:0:
312,134,45037,5,0,0:0:0:0:
142,192,45205,1,0,0:0:0:0:
254,304,45374,1,0,0:0:0:0:
336,192,45543,5,0,0:0:0:0:
176,112,45711,1,0,0:0:0:0:
176,271,45880,1,0,0:0:0:0:
312,248,46048,5,0,0:0:0:0:
254,78,46216,1,0,0:0:0:0:
142,190,46385,1,0,0:0:0:0:
256,271,46554,5,0,0:0:0:0:
336,112,46722,1,0,0:0:0:0:
176,112,46891,1,0,0:0:0:0:
198,248,47059,5,0,0:0:0:0:
368,190,47227,1,0,0:0:0:0:
256,78,47396,1,0,0:0:0:0:
176,192,47565,5,0,0:0:0:0:
336,271,47733,1,0,0:0:0:0:
336,112,47902,1,0,0:0:0:0:
198,134,48070,5,0,0:0:0:0:
256,304,48238,1,0,0:0:0:0:
368,192,48407,1,0,0:0:0:0:
256,112,48577,5,0,0:0:0:0:
176,271,48745,1,0,0:0:0:0:
336,271,48914,1,0,0:0:0:0:
312,134,49082,5,0,0:0:0:0:
142,192,49250,1,0,0:0:0:0:
254,304,49419,1,0,0:0:0:0:
336,192,49588,5,0,0:0:0:0:
176,112,49756,1,0,0:0:0:0:
176,271,49925,1,0,0:0:0:0:
312,248,50093,5,0,0:0:0:0:
254,78,50261,1,0,0:0:0:0:
142,190,50430,1,0,0:0:0:0:
256,271,50599,5,0,0:0:0:0:
336,112,50767,1,0,0:0:0:0:
176,112,50936,1,0,0:0:0:0:
198,248,51104,5,0,0:0:0:0:
368,190,51272,1,0,0:0:0:0:
256,78,51441,1,0,0:0:0:0:
176,192,51610,5,0,0:0:0:0:
336,271,51778,1,0,0:0:0:0:
336,112,51947,1,0,0:0:0:0:
198,134,52115,5,0,0:0:0:0:
256,304,52283,1,0,0:0:0:0:
368,192,52452,1,0,0:0:0:0:
256,112,52622,5,0,0:0:0:0:
176,271,52790,1,0,0:0:0:0:
336,271,52959,1,0,0:0:0:0:
312,134,53127,5,0,0:0:0:0:
142,192,53295,1,0,0:0:0:0:
254,304,53464,1,0,0:0:0:0:
336,192,53633,5,0,0:0:0:0:
176,112,53801,1,0,0:0:0:0:
176,271,53970,1,0,0:0:0:0:
312,248,54138,5,0,0:0:0:0:
254,78,54306,1,0,0:0:0:0:
142,190,54475,1,0,0:0:0:0:
256,271,54644,5,0,0:0:0:0:
336,112,54812,1,0,0:0:0:0:
176,112,54981,1,0,0:0:0:0:
198,248,55149,5,0,0:0:0:0:
368,190,55317,1,0,0:0:0:0:
256,78,55486,1,0,0:0:0:0:
176,192,55655,5,0,0:0:0:0:
336,271,55823,1,0,0:0:0:0:
336,112,55992,1,0,0:0:0:0:
198,134,56160,5,0,0:0:0:0:
256,304,56328,1,0,0:0:0:0:
368,192,56497,1,0,0:0:0:0:
256,112,56667,5,0,0:0:0:0:
176,271,56835,1,0,0:0:0:0:
336,271,57004,1,0,0:0:0:0:
312,134,57172,5,0,0:0:0:0:
142,192,57340,1,0,0:0:0:0:
254,304,57509,1,0,0:0:0:0:
336,192,57678,5,0,0:0:0:0:
176,112,57846,1,0,0:0:0:0:
176,271,58015,1,0,0:0:0:0:
312,248,58183,5,0,0:0:0:0:
254,78,58351,1,0,0:0:0:0:
142,190,58520,1,0,0:0:0:0:
256,271,58689,5,0,0:0:0:0:
336,112,58857,1,0,0:0:0:0:
176,112,59026,1,0,0:0:0:0:
198,248,59194,5,0,0:0:0:0:
368,190,59362,1,0,0:0:0:0:
256,78,59531,1,0,0:0:0:0:
176,192,59700,5,0,0:0:0:0:
336,271,59868,1,0,0:0:0:0:
336,112,60037,1,0,0:0:0:0:
198,134,60205,5,0,0:0:0:0:
256,304,60373,1,0,0:0:0:0:
368,192,60542,1,0,0:0:0:0:
256,112,60712,5,0,0:0:0:0:
176,271,60880,1,0,0:0:0:0:
336,271,61049,1,0,0:0:0:0:
312,134,61217,5,0,0:0:0:0:
142,192,61385,1,0,0:0:0:0:
254,304,61554,1,0,0:0:0:0:
336,192,61723,5,0,0:0:0:0:
176,112,61891,1,0,0:0:0:0:
176,271,62060,1,0,0:0:0:0:
312,248,62228,5,0,0:0:0:0:
254,78,62396,1,0,0:0:0:0:
142,190,62565,1,0,0:0:0:0:
256,271,62734,5,0,0:0:0:0:
336,112,62902,1,0,0:0:0:0:
176,112,63071,1,0,0:0:0:0:
198,248,63239,5,0,0:0:0:0:
368,190,63407,1,0,0:0:0:0:
256,78,63576,1,0,0:0:0:0:
176,192,63745,5,0,0:0:0:0:
336,271,63913,1,0,0:0:0:0:
336,112,64082,1,0,0:0:0:0:
198,134,64250,5,0,0:0:0:0:
256,304,64418,1,0,0:0:0:0:
368,192,64587,1,0,0:0:0:0:
256,112,64757,5,0,0:0:0:0:
176,271,64925,1,0,0:0:0:0:
336,271,65094,1,0,0:0:0:0:
312,134,65262,5,0,0:0:0:0:
142,192,65430,1,0,0:0:0:0:
254,304,65599,1,0,0:0:0:0:
336,192,65768,5,0,0:0:0:0:
176,112,65936,1,0,0:0:0:0:
176,271,66105,1,0,0:0:0:0:
312,248,66273,5,0,0:0:0:0:
254,78,66441,1,0,0:0:0:0:
142,190,66610,1,0,0:0:0:0:
256,271,66779,5,0,0:0:0:0:
336,112,66947,1,0,0:0:0:0:
176,112,67116,1,0,0:0:0:0:
198,248,67284,5,0,0:0:0:0:
368,190,67452,1,0,0:0:0:0:
256,78,67621,1,0,0:0:0:0:
176,192,67790,5,0,0:0:0:0:
336,271,67958,1,0,0:0:0:0:
336,112,68127,1,0,0:0:0:0:
198,134,68295,5,0,0:0:0:0:
256,304,68463,1,0,0:0:0:0:
368,192,68632,1,0,0:0:0:0:
256,112,68802,5,0,0:0:0:0:
176,271,68970,1,0,0:0:0:0:
336,271,69139,1,0,0:0:0:0:
312,134,69307,5,0,0:0:0:0:
142,192,69475,1,0,0:0:0:0:
254,304,69644,1,0,0:0:0:0:
336,192,69813,5,0,0:0:0:0:
176,112,69981,1,0,0:0:0:0:
176,271,70150,1,0,0:0:0:0:
312,248,70318,5,0,0:0:0:0:
254,78,70486,1,0,0:0:0:0:
142,190,70655,1,0,0:0:0:0:
256,271,70824,5,0,0:0:0:0:
336,112,70992,1,0,0:0:0:0:
176,112,71161,1,0,0:0:0:0:
198,248,71329,5,0,0:0:0:0:
368,190,71497,1,0,0:0:0:0:
256,78,71666,1,0,0:0:0:0:
176,192,71835,5,0,0:0:0:0:
336,271,72003,1,0,0:0:0:0:
336,112,72172,1,0,0:0:0:0:
198,134,72340,5,0,0:0:0:0:
256,304,72508,1,0,0:0:0:0:
368,192,72677,1,0,0:0:0:0:
256,112,72847,5,0,0:0:0:0:
176,271,73015,1,0,0:0:0:0:
336,271,73184,1,0,0:0:0:0:
312,134,73352,5,0,0:0:0:0:
142,192,73520,1,0,0:0:0:0:
254,304,73689,1,0,0:0:0:0:
336,192,73858,5,0,0:0:0:0:
176,112,74026,1,0,0:0:0:0:
176,271,74195,1,0,0:0:0:0:
312,248,74363,5,0,0:0:0:0:
254,78,74531,1,0,0:0:0:0:
142,190,74700,1,0,0:0:0:0:
256,271,74869,5,0,0:0:0:0:
336,112,75037,1,0,0:0:0:0:
176,112,75206,1,0,0:0:0:0:
198,248,75374,5,0,0:0:0:0:
368,190,75542,1,0,0:0:0:0:
256,78,75711,1,0,0:0:0:0:
176,192,75880,5,0,0:0:0:0:
336,271,76048,1,0,0:0:0:0:
336,112,76217,1,0,0:0:0:0:
198,134,76385,5,0,0:0:0:0:
256,304,76553,1,0,0:0:0:0:
368,192,76722,1,0,0:0:0:0:
256,112,76892,5,0,0:0:0:0:
176,271,77060,1,0,0:0:0:0:
336,271,77229,1,0,0:0:0:0:
312,134,77397,5,0,0:0:0:0:
142,192,77565,1,0,0:0:0:0:
254,304,77734,1,0,0:0:0:0:
336,192,77903,5,0,0:0:0:0:
176,112,78071,1,0,0:0:0:0:
176,271,78240,1,0,0:0:0:0:
312,248,78408,5,0,0:0:0:0:
254,78,78576,1,0,0:0:0:0:
142,190,78745,1,0,0:0:0:0:
256,271,78914,5,0,0:0:0:0:
336,112,79082,1,0,0:0:0:0:
176,112,79251,1,0,0:0:0:0:
198,248,79419,5,0,0:0:0:0:
368,190,79587,1,0,0:0:0:0:
256,78,79756,1,0,0:0:0:0:
176,192,79925,5,0,0:0:0:0:
336,271,80093,1,0,0:0:0:0:
336,112,80262,1,0,0:0:0:0:
198,134,80430,5,0,0:0:0:0:
256,304,80598,1,0,0:0:0:0:
368,192,80767,1,0,0:0:0:0:
256,112,80937,5,0,0:0:0:0:
176,271,81105,1,0,0:0:0:0:
336,271,81274,1,0,0:0:0:0:
312,134,81442,5,0,0:0:0:0:
142,192,81610,1,0,0:0:0:0:
254,304,81779,1,0,0:0:0:0:
336,192,81948,5,0,0:0:0:0:
176,112,82116,1,0,0:0:0:0:
176,271,82285,1,0,0:0:0:0:
312,248,82453,5,0,0:0:0:0:
254,78,82621,1,0,0:0:0:0:
142,190,82790,1,0,0:0:0:0:
256,271,82959,5,0,0:0:0:0:
336,112,83127,1,0,0:0:0:0:
176,112,83296,1,0,0:0:0:0:
198,248,83464,5,0,0:0:0:0:
368,190,83632,1,0,0:0:0:0:
256,78,83801,1,0,0:0:0:0:
176,192,83970,5,0,0:0:0:0:
336,271,84138,1,0,0:0:0:0:
336,112,84307,1,0,0:0:0:0:
198,134,84475,5,0,0:0:0:0:
256,304,84643,1,0,0:0:0:0:
368,192,84812,1,0,0:0:0:0:
256,112,84981,5,0,0:0:0:0:
176,271,85149,1,0,0:0:0:0:
336,271,85318,1,0,0:0:0:0:
312,134,85486,5,0,0:0:0:0:
142,192,85654,1,0,0:0:0:0:
254,304,85823,1,0,0:0:0:0:
336,192,85992,5,0,0:0:0:0:
176,112,86160,1,0,0:0:0:0:
176,271,86329,1,0,0:0:0:0:
312,248,86497,5,0,0:0:0:0:
254,78,86665,1,0,0:0:0:0:
142,190,86834,1,0,0:0:0:0:
256,271,87003,5,0,0:0:0:0:
336,112,87171,1,0,0:0:0:0:
176,112,87340,1,0,0:0:0:0:
198,248,87508,5,0,0:0:0:0:
368,190,87676,1,0,0:0:0:0:
256,78,87845,1,0,0:0:0:0:
176,192,88014,5,0,0:0:0:0:
336,271,88182,1,0,0:0:0:0:
336,112,88351,1,0,0:0:0:0:
198,134,88519,5,0,0:0:0:0:
256,304,88687,1,0,0:0:0:0:
368,192,88856,1,0,0:0:0:0:
256,112,89026,5,0,0:0:0:0:
176,271,89194,1,0,0:0:0:0:
336,271,89363,1,0,0:0:0:0:
312,134,89531,5,0,0:0:0:0:
142,192,89699,1,0,0:0:0:0:
254,304,89868,1,0,0:0:0:0:
336,192,90037,5,0,0:0:0:0:
176,112,90205,1,0,0:0:0:0:
176,271,90374,1,0,0:0:0:0:
312,248,90542,5,0,0:0:0:0:
254,78,90710,1,0,0:0:0:0:
142,190,90879,1,0,0:0:0:0:
256,271,91048,5,0,0:0:0:0:
336,112,91216,1,0,0:0:0:0:
176,112,91385,1,0,0:0:0:0:
198,248,91553,5,0,0:0:0:0:
368,190,91721,1,0,0:0:0:0:
256,78,91890,1,0,0:0:0:0:
176,192,92059,5,0,0:0:0:0:
336,271,92227,1,0,0:0:0:0:
336,112,92396,1,0,0:0:0:0:
198,134,92564,5,0,0:0:0:0:
256,304,92732,1,0,0:0:0:0:
368,192,92901,1,0,0:0:0:0:
256,112,93071,5,0,0:0:0:0:
176,271,93239,1,0,0:0:0:0:
336,271,93408,1,0,0:0:0:0:
312,134,93576,5,0,0:0:0:0:
142,192,93744,1,0,0:0:0:0:
254,304,93913,1,0,0:0:0:0:
336,192,94082,5,0,0:0:0:0:
176,112,94250,1,0,0:0:0:0:
