osu file format v14

[General]
AudioFilename: audio.mp3
AudioLeadIn: 0
PreviewTime: 2734
Countdown: 1
SampleSet: Normal
StackLeniency: 0.7
Mode: 1
LetterboxInBreaks: 0
WidescreenStoryboard: 1

[Editor]
DistanceSpacing: 1.4
BeatDivisor: 4
GridSize: 4
TimelineZoom: 1

[Metadata]
Title:CANDY CANES (full version)
TitleUnicode:CANDY CANES (full version)
Artist:Jack Douglass
ArtistUnicode:Jack Douglass
Creator:Ethan
Version:Futsuu+
Source:
Tags:youtube jacksfilms
BeatmapID:1167208
BeatmapSetID:551002

[Difficulty]
HPDrainRate:4
CircleSize:4
OverallDifficulty:4
ApproachRate:9
SliderMultiplier:0.400000005960464
SliderTickRate:1

[Events]
//Background and Video events
0,0,"candy-canes.jpg",0,0
//Break Periods
//Storyboard Layer 0 (Background)
//Storyboard Layer 1 (Fail)
//Storyboard Layer 2 (Pass)
//Storyboard Layer 3 (Foreground)
//Storyboard Sound Samples

[TimingPoints]
2734.76404494382,337.078651685393,4,1,0,100,1,0

[HitObjects]
256,192,2734,5,0,0:0:0:0:
256,136,3071,1,0,0:0:0:0:
200,136,3408,1,0,0:0:0:0:
200,192,3745,1,8,0:0:0:0:
256,192,4083,1,0,0:0:0:0:
256,136,4420,1,0,0:0:0:0:
200,136,4757,1,0,0:0:0:0:
200,192,5094,1,8,0:0:0:0:
256,192,5431,1,0,0:0:0:0:
256,136,5768,1,0,0:0:0:0:
200,136,6105,1,0,0:0:0:0:
200,192,6442,1,8,0:0:0:0:
256,192,6779,1,0,0:0:0:0:
256,136,7116,1,0,0:0:0:0:
200,136,7453,1,0,0:0:0:0:
200,192,7790,1,8,0:0:0:0:
204,248,8128,5,0,0:0:0:0:
232,248,8296,1,0,0:0:0:0:
260,240,8465,1,8,0:0:0:0:
288,232,8633,1,8,0:0:0:0:
312,216,8802,1,0,0:0:0:0:
356,180,9139,1,8,0:0:0:0:
204,248,9476,5,0,0:0:0:0:
232,248,9644,1,0,0:0:0:0:
260,240,9813,1,8,0:0:0:0:
288,232,9981,1,8,0:0:0:0:
312,216,10150,1,0,0:0:0:0:
356,180,10487,1,8,0:0:0:0:
204,248,10824,5,0,0:0:0:0:
232,248,10992,1,0,0:0:0:0:
260,240,11161,1,8,0:0:0:0:
288,232,11329,1,8,0:0:0:0:
312,216,11498,1,0,0:0:0:0:
356,180,11835,1,8,0:0:0:0:
204,248,12172,5,0,0:0:0:0:
232,248,12340,1,0,0:0:0:0:
260,240,12509,1,8,0:0:0:0:
288,232,12677,1,8,0:0:0:0:
312,216,12846,1,0,0:0:0:0:
356,180,13183,1,8,0:0:0:0:
204,248,13521,5,0,0:0:0:0:
232,248,13689,1,0,0:0:0:0:
260,240,13858,1,8,0:0:0:0:
288,232,14026,1,8,0:0:0:0:
312,216,14195,1,0,0:0:0:0:
356,180,14532,1,8,0:0:0:0:
204,248,14869,5,0,0:0:0:0:
232,248,15037,1,0,0:0:0:0:
260,240,15206,1,8,0:0:0:0:
288,232,15374,1,8,0:0:0:0:
312,216,15543,1,0,0:0:0:0:
356,180,15880,1,8,0:0:0:0:
204,248,16217,5,0,0:0:0:0:
232,248,16385,1,0,0:0:0:0:
260,240,16554,1,8,0:0:0:0:
288,232,16722,1,8,0:0:0:0:
312,216,16891,1,0,0:0:0:0:
356,180,17228,1,8,0:0:0:0:
204,248,17565,5,0,0:0:0:0:
232,248,17733,1,0,0:0:0:0:
260,240,17902,1,8,0:0:0:0:
288,232,18070,1,8,0:0:0:0:
312,216,18239,1,0,0:0:0:0:
356,180,18576,1,8,0:0:0:0:
204,248,18914,5,0,0:0:0:0:
232,248,19082,1,0,0:0:0:0:
260,240,19251,1,8,0:0:0:0:
288,232,19419,1,8,0:0:0:0:
312,216,19588,1,0,0:0:0:0:
356,180,19925,1,8,0:0:0:0:
204,248,20262,5,0,0:0:0:0:
232,248,20430,1,0,0:0:0:0:
260,240,20599,1,8,0:0:0:0:
288,232,20767,1,8,0:0:0:0:
312,216,20936,1,0,0:0:0:0:
356,180,21273,1,8,0:0:0:0:
204,248,21610,5,0,0:0:0:0:
232,248,21778,1,0,0:0:0:0:
260,240,21947,1,8,0:0:0:0:
288,232,22115,1,8,0:0:0:0:
312,216,22284,1,0,0:0:0:0:
356,180,22621,1,8,0:0:0:0:
204,248,22958,5,0,0:0:0:0:
232,248,23126,1,0,0:0:0:0:
260,240,23295,1,8,0:0:0:0:
288,232,23463,1,8,0:0:0:0:
312,216,23632,1,0,0:0:0:0:
356,180,23969,1,8,0:0:0:0:
204,248,24307,5,0,0:0:0:0:
232,248,24475,1,0,0:0:0:0:
260,240,24644,1,8,0:0:0:0:
288,232,24812,1,8,0:0:0:0:
312,216,24981,1,0,0:0:0:0:
356,180,25318,1,8,0:0:0:0:
204,248,25655,5,0,0:0:0:0:
232,248,25823,1,0,0:0:0:0:
260,240,25992,1,8,0:0:0:0:
288,232,26160,1,8,0:0:0:0:
312,216,26329,1,0,0:0:0:0:
356,180,26666,1,8,0:0:0:0:
204,248,27003,5,0,0:0:0:0:
232,248,27171,1,0,0:0:0:0:
260,240,27340,1,8,0:0:0:0:
288,232,27508,1,8,0:0:0:0:
312,216,27677,1,0,0:0:0:0:
356,180,28014,1,8,0:0:0:0:
204,248,28351,5,0,0:0:0:0:
232,248,28519,1,0,0:0:0:0:
260,240,28688,1,8,0:0:0:0:
288,232,28856,1,8,0:0:0:0:
312,216,29025,1,0,0:0:0:0:
356,180,29362,1,8,0:0:0:0:
204,248,29701,5,0,0:0:0:0:
232,248,29869,1,0,0:0:0:0:
260,240,30038,1,8,0:0:0:0:
288,232,30206,1,8,0:0:0:0:
312,216,30375,1,0,0:0:0:0:
356,180,30712,1,8,0:0:0:0:
204,248,31049,5,0,0:0:0:0:
232,248,31217,1,0,0:0:0:0:
260,240,31386,1,8,0:0:0:0:
288,232,31554,1,8,0:0:0:0:
312,216,31723,1,0,0:0:0:0:
356,180,32060,1,8,0:0:0:0:
204,248,32397,5,0,0:0:0:0:
232,248,32565,1,0,0:0:0:0:
260,240,32734,1,8,0:0:0:0:
288,232,32902,1,8,0:0:0:0:
312,216,33071,1,0,0:0:0:0:
356,180,33408,1,8,0:0:0:0:
204,248,33745,5,0,0:0:0:0:
232,248,33913,1,0,0:0:0:0:
260,240,34082,1,8,0:0:0:0:
288,232,34250,1,8,0:0:0:0:
312,216,34419,1,0,0:0:0:0:
356,180,34756,1,8,0:0:0:0:
204,248,35094,5,0,0:0:0:0:
232,248,35262,1,0,0:0:0:0:
260,240,35431,1,8,0:0:0:0:
288,232,35599,1,8,0:0:0:0:
312,216,35768,1,0,0:0:0:0:
356,180,36105,1,8,0:0:0:0:
204,248,36442,5,0,0:0:0:0:
232,248,36610,1,0,0:0:0:0:
260,240,36779,1,8,0:0:0:0:
288,232,36947,1,8,0:0:0:0:
312,216,37116,1,0,0:0:0:0:
356,180,37453,1,8,0:0:0:0:
204,248,37790,5,0,0:0:0:0:
232,248,37958,1,0,0:0:0:0:
260,240,38127,1,8,0:0:0:0:
288,232,38295,1,8,0:0:0:0:
312,216,38464,1,0,0:0:0:0:
356,180,38801,1,8,0:0:0:0:
204,248,39138,5,0,0:0:0:0:
232,248,39306,1,0,0:0:0:0:
260,240,39475,1,8,0:0:0:0:
288,232,39643,1,8,0:0:0:0:
312,216,39812,1,0,0:0:0:0:
356,180,40149,1,8,0:0:0:0:
204,248,40487,5,0,0:0:0:0:
232,248,40655,1,0,0:0:0:0:
260,240,40824,1,8,0:0:0:0:
288,232,40992,1,8,0:0:0:0:
312,216,41161,1,0,0:0:0:0:
356,180,41498,1,8,0:0:0:0:
204,248,41835,5,0,0:0:0:0:
232,248,42003,1,0,0:0:0:0:
260,240,42172,1,8,0:0:0:0:
288,232,42340,1,8,0:0:0:0:
312,216,42509,1,0,0:0:0:0:
356,180,42846,1,8,0:0:0:0:
204,248,43183,5,0,0:0:0:0:
232,248,43351,1,0,0:0:0:0:
260,240,43520,1,8,0:0:0:0:
288,232,43688,1,8,0:0:0:0:
312,216,43857,1,0,0:0:0:0:
356,180,44194,1,8,0:0:0:0:
204,248,44531,5,0,0:0:0:0:
232,248,44699,1,0,0:0:0:0:
260,240,44868,1,8,0:0:0:0:
288,232,45036,1,8,0:0:0:0:
312,216,45205,1,0,0:0:0:0:
356,180,45542,1,8,0:0:0:0:
204,248,45880,5,0,0:0:0:0:
232,248,46048,1,0,0:0:0:0:
260,240,46217,1,8,0:0:0:0:
288,232,46385,1,8,0:0:0:0:
312,216,46554,1,0,0:0:0:0:
356,180,46891,1,8,0:0:0:0:
204,248,47228,5,0,0:0:0:0:
232,248,47396,1,0,0:0:0:0:
260,240,47565,1,8,0:0:0:0:
288,232,47733,1,8,0:0:0:0:
312,216,47902,1,0,0:0:0:0:
356,180,48239,1,8,0:0:0:0:
204,248,48576,5,0,0:0:0:0:
232,248,48744,1,0,0:0:0:0:
260,240,48913,1,8,0:0:0:0:
288,232,49081,1,8,0:0:0:0:
312,216,49250,1,0,0:0:0:0:
356,180,49587,1,8,0:0:0:0:
204,248,49924,5,0,0:0:0:0:
232,248,50092,1,0,0:0:0:0:
260,240,50261,1,8,0:0:0:0:
288,232,50429,1,8,0:0:0:0:
312,216,50598,1,0,0:0:0:0:
356,180,50935,1,8,0:0:0:0:
204,248,51274,5,0,0:0:0:0:
232,248,51442,1,0,0:0:0:0:
260,240,51611,1,8,0:0:0:0:
288,232,51779,1,8,0:0:0:0:
312,216,51948,1,0,0:0:0:0:
356,180,52285,1,8,0:0:0:0:
204,248,52622,5,0,0:0:0:0:
232,248,52790,1,0,0:0:0:0:
260,240,52959,1,8,0:0:0:0:
288,232,53127,1,8,0:0:0:0:
312,216,53296,1,0,0:0:0:0:
356,180,53633,1,8,0:0:0:0:
204,248,53970,5,0,0:0:0:0:
232,248,54138,1,0,0:0:0:0:
260,240,54307,1,8,0:0:0:0:
288,232,54475,1,8,0:0:0:0:
312,216,54644,1,0,0:0:0:0:
356,180,54981,1,8,0:0:0:0:
204,248,55318,5,0,0:0:0:0:
232,248,55486,1,0,0:0:0:0:
260,240,55655,1,8,0:0:0:0:
288,232,55823,1,8,0:0:0:0:
312,216,55992,1,0,0:0:0:0:
356,180,56329,1,8,0:0:0:0:
204,248,56667,5,0,0:0:0:0:
232,248,56835,1,0,0:0:0:0:
260,240,57004,1,8,0:0:0:0:
288,232,57172,1,8,0:0:0:0:
312,216,57341,1,0,0:0:0:0:
356,180,57678,1,8,0:0:0:0:
204,248,58015,5,0,0:0:0:0:
232,248,58183,1,0,0:0:0:0:
260,240,58352,1,8,0:0:0:0:
288,232,58520,1,8,0:0:0:0:
312,216,58689,1,0,0:0:0:0:
356,180,59026,1,8,0:0:0:0:
204,248,59363,5,0,0:0:0:0:
232,248,59531,1,0,0:0:0:0:
260,240,59700,1,8,0:0:0:0:
288,232,59868,1,8,0:0:0:0:
312,216,60037,1,0,0:0:0:0:
356,180,60374,1,8,0:0:0:0:
204,248,60711,5,0,0:0:0:0:
232,248,60879,1,0,0:0:0:0:
260,240,61048,1,8,0:0:0:0:
288,232,61216,1,8,0:0:0:0:
312,216,61385,1,0,0:0:0:0:
356,180,61722,1,8,0:0:0:0:
204,248,62060,5,0,0:0:0:0:
232,248,62228,1,0,0:0:0:0:
260,240,62397,1,8,0:0:0:0:
288,232,62565,1,8,0:0:0:0:
312,216,62734,1,0,0:0:0:0:
356,180,63071,1,8,0:0:0:0:
204,248,63408,5,0,0:0:0:0:
232,248,63576,1,0,0:0:0:0:
260,240,63745,1,8,0:0:0:0:
288,232,63913,1,8,0:0:0:0:
312,216,64082,1,0,0:0:0:0:
356,180,64419,1,8,0:0:0:0:
204,248,64756,5,0,0:0:0:0:
232,248,64924,1,0,0:0:0:0:
260,240,65093,1,8,0:0:0:0:
288,232,65261,1,8,0:0:0:0:
312,216,65430,1,0,0:0:0:0:
356,180,65767,1,8,0:0:0:0:
204,248,66104,5,0,0:0:0:0:
232,248,66272,1,0,0:0:0:0:
260,240,66441,1,8,0:0:0:0:
288,232,66609,1,8,0:0:0:0:
312,216,66778,1,0,0:0:0:0:
356,180,67115,1,8,0:0:0:0:
204,248,67453,5,0,0:0:0:0:
232,248,67621,1,0,0:0:0:0:
260,240,67790,1,8,0:0:0:0:
288,232,67958,1,8,0:0:0:0:
312,216,68127,1,0,0:0:0:0:
356,180,68464,1,8,0:0:0:0:
204,248,68801,5,0,0:0:0:0:
232,248,68969,1,0,0:0:0:0:
260,240,69138,1,8,0:0:0:0:
288,232,69306,1,8,0:0:0:0:
312,216,69475,1,0,0:0:0:0:
356,180,69812,1,8,0:0:0:0:
204,248,70149,5,0,0:0:0:0:
232,248,70317,1,0,0:0:0:0:
260,240,70486,1,8,0:0:0:0:
288,232,70654,1,8,0:0:0:0:
312,216,70823,1,0,0:0:0:0:
356,180,71160,1,8,0:0:0:0:
204,248,71497,5,0,0:0:0:0:
232,248,71665,1,0,0:0:0:0:
260,240,71834,1,8,0:0:0:0:
288,232,72002,1,8,0:0:0:0:
312,216,72171,1,0,0:0:0:0:
356,180,72508,1,8,0:0:0:0:
204,248,72847,5,0,0:0:0:0:
232,248,73015,1,0,0:0:0:0:
260,240,73184,1,8,0:0:0:0:
288,232,73352,1,8,0:0:0:0:
312,216,73521,1,0,0:0:0:0:
356,180,73858,1,8,0:0:0:0:
204,248,74195,5,0,0:0:0:0:
232,248,74363,1,0,0:0:0:0:
260,240,74532,1,8,0:0:0:0:
288,232,74700,1,8,0:0:0:0:
312,216,74869,1,0,0:0:0:0:
356,180,75206,1,8,0:0:0:0:
204,248,75543,5,0,0:0:0:0:
232,248,75711,1,0,0:0:0:0:
260,240,75880,1,8,0:0:0:0:
288,232,76048,1,8,0:0:0:0:
312,216,76217,1,0,0:0:0:0:
356,180,76554,1,8,0:0:0:0:
204,248,76891,5,0,0:0:0:0:
232,248,77059,1,0,0:0:0:0:
260,240,77228,1,8,0:0:0:0:
288,232,77396,1,8,0:0:0:0:
312,216,77565,1,0,0:0:0:0:
356,180,77902,1,8,0:0:0:0:
204,248,78240,5,0,0:0:0:0:
232,248,78408,1,0,0:0:0:0:
260,240,78577,1,8,0:0:0:0:
288,232,78745,1,8,0:0:0:0:
312,216,78914,1,0,0:0:0:0:
356,180,79251,1,8,0:0:0:0:
204,248,79588,5,0,0:0:0:0:
232,248,79756,1,0,0:0:0:0:
260,240,79925,1,8,0:0:0:0:
288,232,80093,1,8,0:0:0:0:
312,216,80262,1,0,0:0:0:0:
356,180,80599,1,8,0:0:0:0:
204,248,80936,5,0,0:0:0:0:
232,248,81104,1,0,0:0:0:0:
260,240,81273,1,8,0:0:0:0:
288,232,81441,1,8,0:0:0:0:
312,216,81610,1,0,0:0:0:0:
356,180,81947,1,8,0:0:0:0:
204,248,82284,5,0,0:0:0:0:
232,248,82452,1,0,0:0:0:0:
260,240,82621,1,8,0:0:0:0:
288,232,82789,1,8,0:0:0:0:
312,216,82958,1,0,0:0:0:0:
356,180,83295,1,8,0:0:0:0:
204,248,83633,5,0,0:0:0:0:
232,248,83801,1,0,0:0:0:0:
260,240,83970,1,8,0:0:0:0:
288,232,84138,1,8,0:0:0:0:
312,216,84307,1,0,0:0:0:0:
356,180,84644,1,8,0:0:0:0:
204,248,84981,5,0,0:0:0:0:
232,248,85149,1,0,0:0:0:0:
260,240,85318,1,8,0:0:0:0:
288,232,85486,1,8,0:0:0:0:
312,216,85655,1,0,0:0:0:0:
356,180,85992,1,8,0:0:0:0:
204,248,86329,5,0,0:0:0:0:
232,248,86497,1,0,0:0:0:0:
260,240,86666,1,8,0:0:0:0:
288,232,86834,1,8,0:0:0:0:
312,216,87003,1,0,0:0:0:0:
356,180,87340,1,8,0:0:0:0:
204,248,87677,5,0,0:0:0:0:
232,248,87845,1,0,0:0:0:0:
260,240,88014,1,8,0:0:0:0:
288,232,88182,1,8,0:0:0:0:
312,216,88351,1,0,0:0:0:0:
356,180,88688,1,8,0:0:0:0:
204,248,89026,5,0,0:0:0:0:
232,248,89194,1,0,0:0:0:0:
260,240,89363,1,8,0:0:0:0:
288,232,89531,1,8,0:0:0:0:
312,216,89700,1,0,0:0:0:0:
356,180,90037,1,8,0:0:0:0:
204,248,90374,5,0,0:0:0:0:
232,248,90542,1,0,0:0:0:0:
260,240,90711,1,8,0:0:0:0:
288,232,90879,1,8,0:0:0:0:
312,216,91048,1,0,0:0:0:0:
356,180,91385,1,8,0:0:0:0:
204,248,91722,5,0,0:0:0:0:
232,248,91890,1,0,0:0:0:0:
260,240,92059,1,8,0:0:0:0:
288,232,92227,1,8,0:0:0:0:
312,216,92396,1,0,0:0:0:0:
356,180,92733,1,8,0:0:0:0:
204,248,93070,5,0,0:0:0:0:
232,248,93238,1,0,0:0:0:0:
260,240,93407,1,8,0:0:0:0:
288,232,93575,1,8,0:0:0:0:
312,216,93744,1,0,0:0:0:0:
356,180,94081,1,8,0:0:0:0:
