osu file format v14

[General]
AudioFilename: audio.mp3
AudioLeadIn: 0
PreviewTime: 2734
Countdown: 1
SampleSet: None
StackLeniency: 0.7
Mode: 0
LetterboxInBreaks: 0
WidescreenStoryboard: 1

[Editor]
DistanceSpacing: 1
BeatDivisor: 4
GridSize: 32
TimelineZoom: 1

[Metadata]
Title:CANDY CANES (full version)
TitleUnicode:CANDY CANES (full version)
Artist:Jack Douglass
ArtistUnicode:Jack Douglass
Creator:Ethan
Version:Extra
Source:
Tags:youtube jacksfilms
BeatmapID:1167205
BeatmapSetID:551002

[Difficulty]
HPDrainRate:4
CircleSize:4.2
OverallDifficulty:7.3
ApproachRate:9.5
SliderMultiplier:1.4
SliderTickRate:1

[Events]
//Background and Video events
0,0,"Candy_Cane_Background.jpg",0,0
//Break Periods
//Storyboard Layer 0 (Background)
//Storyboard Layer 1 (Fail)
//Storyboard Layer 2 (Pass)
//Storyboard Layer 3 (Foreground)
//Storyboard Sound Samples

[TimingPoints]
2734.76404494382,337.078651685393,4,3,1,100,1,0

[HitObjects]
256,88,2734,6,0,P|200:96|136:172,1,140
369,152,3240,2,0,P|323:101|256:88,1,140
256,184,3745,1,0,0:0:0:0:
256,340,3914,1,0,0:0:0:0:
256,260,4083,6,0,P|312:252|376:176,1,140
142,195,4589,2,0,P|188:246|255:259,1,140
256,164,5094,1,0,0:0:0:0:
256,8,5263,1,0,0:0:0:0:
140,88,5431,5,0,0:0:0:0:
376,88,5599,1,0,0:0:0:0:
168,240,5768,1,0,0:0:0:0:
256,80,5937,1,0,0:0:0:0:
344,240,6105,1,0,0:0:0:0:
80,160,6274,1,0,0:0:0:0:
448,164,6442,1,0,0:0:0:0:
256,332,6611,1,0,0:0:0:0:
256,152,6779,6,0,P|256:212|168:212,1,140
188,108,7285,2,0,P|252:76|320:100,1,140
344,200,7790,1,0,0:0:0:0:
256,128,8128,5,0,0:0:0:0:
192,256,8296,1,0,0:0:0:0:
320,256,8465,1,0,0:0:0:0:
301,146,8633,5,0,0:0:0:0:
165,192,8801,1,0,0:0:0:0:
255,282,8970,1,0,0:0:0:0:
320,192,9139,5,0,0:0:0:0:
192,128,9307,1,0,0:0:0:0:
192,256,9476,1,0,0:0:0:0:
301,237,9644,5,0,0:0:0:0:
255,101,9812,1,0,0:0:0:0:
165,191,9981,1,0,0:0:0:0:
256,256,10150,5,0,0:0:0:0:
320,128,10318,1,0,0:0:0:0:
192,128,10487,1,0,0:0:0:0:
210,237,10655,5,0,0:0:0:0:
346,191,10823,1,0,0:0:0:0:
256,101,10992,1,0,0:0:0:0:
192,192,11161,5,0,0:0:0:0:
320,256,11329,1,0,0:0:0:0:
320,128,11498,1,0,0:0:0:0:
210,146,11666,5,0,0:0:0:0:
256,282,11834,1,0,0:0:0:0:
346,192,12003,1,0,0:0:0:0:
256,115,12172,5,0,0:0:0:0:
179,268,12340,1,0,0:0:0:0:
332,268,12509,1,0,0:0:0:0:
310,136,12677,5,0,0:0:0:0:
146,192,12845,1,0,0:0:0:0:
254,300,13014,1,0,0:0:0:0:
332,192,13183,5,0,0:0:0:0:
179,115,13351,1,0,0:0:0:0:
179,268,13520,1,0,0:0:0:0:
310,246,13688,5,0,0:0:0:0:
254,82,13856,1,0,0:0:0:0:
146,190,14025,1,0,0:0:0:0:
256,268,14194,5,0,0:0:0:0:
332,115,14362,1,0,0:0:0:0:
179,115,14531,1,0,0:0:0:0:
200,246,14699,5,0,0:0:0:0:
364,190,14867,1,0,0:0:0:0:
256,82,15036,1,0,0:0:0:0:
179,192,15205,5,0,0:0:0:0:
332,268,15373,1,0,0:0:0:0:
332,115,15542,1,0,0:0:0:0:
200,136,15710,5,0,0:0:0:0:
256,300,15878,1,0,0:0:0:0:
364,192,16047,1,0,0:0:0:0:
256,128,16217,5,0,0:0:0:0:
192,256,16385,1,0,0:0:0:0:
320,256,16554,1,0,0:0:0:0:
301,146,16722,5,0,0:0:0:0:
165,192,16890,1,0,0:0:0:0:
255,282,17059,1,0,0:0:0:0:
320,192,17228,5,0,0:0:0:0:
192,128,17396,1,0,0:0:0:0:
192,256,17565,1,0,0:0:0:0:
301,237,17733,5,0,0:0:0:0:
255,101,17901,1,0,0:0:0:0:
165,191,18070,1,0,0:0:0:0:
256,256,18239,5,0,0:0:0:0:
320,128,18407,1,0,0:0:0:0:
192,128,18576,1,0,0:0:0:0:
210,237,18744,5,0,0:0:0:0:
346,191,18912,1,0,0:0:0:0:
256,101,19081,1,0,0:0:0:0:
192,192,19250,5,0,0:0:0:0:
320,256,19418,1,0,0:0:0:0:
320,128,19587,1,0,0:0:0:0:
210,146,19755,5,0,0:0:0:0:
256,282,19923,1,0,0:0:0:0:
346,192,20092,1,0,0:0:0:0:
256,128,20262,5,0,0:0:0:0:
192,256,20430,1,0,0:0:0:0:
320,256,20599,1,0,0:0:0:0:
301,146,20767,5,0,0:0:0:0:
165,192,20935,1,0,0:0:0:0:
255,282,21104,1,0,0:0:0:0:
320,192,21273,5,0,0:0:0:0:
192,128,21441,1,0,0:0:0:0:
192,256,21610,1,0,0:0:0:0:
301,237,21778,5,0,0:0:0:0:
255,101,21946,1,0,0:0:0:0:
165,191,22115,1,0,0:0:0:0:
256,256,22284,5,0,0:0:0:0:
320,128,22452,1,0,0:0:0:0:
192,128,22621,1,0,0:0:0:0:
210,237,22789,5,0,0:0:0:0:
346,191,22957,1,0,0:0:0:0:
256,101,23126,1,0,0:0:0:0:
192,192,23295,5,0,0:0:0:0:
320,256,23463,1,0,0:0:0:0:
320,128,23632,1,0,0:0:0:0:
210,146,23800,5,0,0:0:0:0:
256,282,23968,1,0,0:0:0:0:
346,192,24137,1,0,0:0:0:0:
257,102,24307,5,0,0:0:0:0:
164,279,24475,1,0,0:0:0:0:
343,283,24644,1,0,0:0:0:0:
320,128,24812,5,0,0:0:0:0:
128,189,24980,1,0,0:0:0:0:
252,317,25149,1,0,0:0:0:0:
345,193,25318,5,0,0:0:0:0:
168,100,25486,1,0,0:0:0:0:
164,279,25655,1,0,0:0:0:0:
317,256,25823,5,0,0:0:0:0:
256,64,25991,1,0,0:0:0:0:
128,188,26160,1,0,0:0:0:0:
254,281,26329,5,0,0:0:0:0:
347,104,26497,1,0,0:0:0:0:
168,100,26666,1,0,0:0:0:0:
190,253,26834,5,0,0:0:0:0:
381,192,27002,1,0,0:0:0:0:
258,64,27171,1,0,0:0:0:0:
166,190,27340,5,0,0:0:0:0:
343,283,27508,1,0,0:0:0:0:
347,104,27677,1,0,0:0:0:0:
192,126,27845,5,0,0:0:0:0:
253,317,28013,1,0,0:0:0:0:
381,194,28182,1,0,0:0:0:0:
256,89,28352,5,0,0:0:0:0:
153,294,28520,1,0,0:0:0:0:
358,294,28689,1,0,0:0:0:0:
328,118,28857,5,0,0:0:0:0:
110,192,29025,1,0,0:0:0:0:
254,336,29194,1,0,0:0:0:0:
358,192,29363,5,0,0:0:0:0:
153,89,29531,1,0,0:0:0:0:
153,294,29700,1,0,0:0:0:0:
328,264,29868,5,0,0:0:0:0:
254,46,30036,1,0,0:0:0:0:
110,190,30205,1,0,0:0:0:0:
256,294,30374,5,0,0:0:0:0:
358,89,30542,1,0,0:0:0:0:
153,89,30711,1,0,0:0:0:0:
182,264,30879,5,0,0:0:0:0:
400,190,31047,1,0,0:0:0:0:
256,46,31216,1,0,0:0:0:0:
153,192,31385,5,0,0:0:0:0:
358,294,31553,1,0,0:0:0:0:
358,89,31722,1,0,0:0:0:0:
182,118,31890,5,0,0:0:0:0:
256,336,32058,1,0,0:0:0:0:
400,192,32227,1,0,0:0:0:0:
256,76,32397,5,0,0:0:0:0:
140,307,32565,1,0,0:0:0:0:
371,307,32734,1,0,0:0:0:0:
336,109,32902,5,0,0:0:0:0:
92,192,33070,1,0,0:0:0:0:
254,353,33239,1,0,0:0:0:0:
371,192,33408,5,0,0:0:0:0:
140,76,33576,1,0,0:0:0:0:
140,307,33745,1,0,0:0:0:0:
336,272,33913,5,0,0:0:0:0:
254,28,34081,1,0,0:0:0:0:
92,190,34250,1,0,0:0:0:0:
256,307,34419,5,0,0:0:0:0:
371,76,34587,1,0,0:0:0:0:
140,76,34756,1,0,0:0:0:0:
173,272,34924,5,0,0:0:0:0:
417,190,35092,1,0,0:0:0:0:
256,28,35261,1,0,0:0:0:0:
140,192,35430,5,0,0:0:0:0:
371,307,35598,1,0,0:0:0:0:
371,76,35767,1,0,0:0:0:0:
173,109,35935,5,0,0:0:0:0:
256,353,36103,1,0,0:0:0:0:
417,192,36272,1,0,0:0:0:0:
260,64,36442,5,0,0:0:0:0:
123,315,36610,1,0,0:0:0:0:
379,324,36779,1,0,0:0:0:0:
349,103,36947,5,0,0:0:0:0:
74,185,37115,1,0,0:0:0:0:
247,371,37284,1,0,0:0:0:0:
383,196,37453,5,0,0:0:0:0:
132,59,37621,1,0,0:0:0:0:
123,315,37790,1,0,0:0:0:0:
342,285,37958,5,0,0:0:0:0:
260,10,38126,1,0,0:0:0:0:
74,183,38295,1,0,0:0:0:0:
251,319,38464,5,0,0:0:0:0:
388,68,38632,1,0,0:0:0:0:
132,59,38801,1,0,0:0:0:0:
160,278,38969,5,0,0:0:0:0:
435,196,39137,1,0,0:0:0:0:
262,10,39306,1,0,0:0:0:0:
128,187,39475,5,0,0:0:0:0:
379,324,39643,1,0,0:0:0:0:
388,68,39812,1,0,0:0:0:0:
167,96,39980,5,0,0:0:0:0:
249,371,40148,1,0,0:0:0:0:
435,198,40317,1,0,0:0:0:0:
256,64,40487,5,0,0:0:0:0:
128,320,40655,1,0,0:0:0:0:
384,320,40824,1,0,0:0:0:0:
346,100,40992,5,0,0:0:0:0:
74,192,41160,1,0,0:0:0:0:
254,372,41329,1,0,0:0:0:0:
384,192,41498,5,0,0:0:0:0:
128,64,41666,1,0,0:0:0:0:
128,320,41835,1,0,0:0:0:0:
346,282,42003,5,0,0:0:0:0:
254,10,42171,1,0,0:0:0:0:
74,190,42340,1,0,0:0:0:0:
256,320,42509,5,0,0:0:0:0:
384,64,42677,1,0,0:0:0:0:
128,64,42846,1,0,0:0:0:0:
164,282,43014,5,0,0:0:0:0:
436,190,43182,1,0,0:0:0:0:
256,10,43351,1,0,0:0:0:0:
128,192,43520,5,0,0:0:0:0:
384,320,43688,1,0,0:0:0:0:
384,64,43857,1,0,0:0:0:0:
164,100,44025,5,0,0:0:0:0:
256,372,44193,1,0,0:0:0:0:
436,192,44362,1,0,0:0:0:0:
256,76,44532,5,0,0:0:0:0:
140,307,44700,1,0,0:0:0:0:
371,307,44869,1,0,0:0:0:0:
336,109,45037,5,0,0:0:0:0:
92,192,45205,1,0,0:0:0:0:
254,353,45374,1,0,0:0:0:0:
371,192,45543,5,0,0:0:0:0:
140,76,45711,1,0,0:0:0:0:
140,307,45880,1,0,0:0:0:0:
336,272,46048,5,0,0:0:0:0:
254,28,46216,1,0,0:0:0:0:
92,190,46385,1,0,0:0:0:0:
256,307,46554,5,0,0:0:0:0:
371,76,46722,1,0,0:0:0:0:
140,76,46891,1,0,0:0:0:0:
173,272,47059,5,0,0:0:0:0:
417,190,47227,1,0,0:0:0:0:
256,28,47396,1,0,0:0:0:0:
140,192,47565,5,0,0:0:0:0:
371,307,47733,1,0,0:0:0:0:
371,76,47902,1,0,0:0:0:0:
173,109,48070,5,0,0:0:0:0:
256,353,48238,1,0,0:0:0:0:
417,192,48407,1,0,0:0:0:0:
256,89,48577,5,0,0:0:0:0:
153,294,48745,1,0,0:0:0:0:
358,294,48914,1,0,0:0:0:0:
328,118,49082,5,0,0:0:0:0:
110,192,49250,1,0,0:0:0:0:
254,336,49419,1,0,0:0:0:0:
358,192,49588,5,0,0:0:0:0:
153,89,49756,1,0,0:0:0:0:
153,294,49925,1,0,0:0:0:0:
328,264,50093,5,0,0:0:0:0:
254,46,50261,1,0,0:0:0:0:
110,190,50430,1,0,0:0:0:0:
256,294,50599,5,0,0:0:0:0:
358,89,50767,1,0,0:0:0:0:
153,89,50936,1,0,0:0:0:0:
182,264,51104,5,0,0:0:0:0:
400,190,51272,1,0,0:0:0:0:
256,46,51441,1,0,0:0:0:0:
153,192,51610,5,0,0:0:0:0:
358,294,51778,1,0,0:0:0:0:
358,89,51947,1,0,0:0:0:0:
182,118,52115,5,0,0:0:0:0:
256,336,52283,1,0,0:0:0:0:
400,192,52452,1,0,0:0:0:0:
256,102,52622,5,0,0:0:0:0:
166,281,52790,1,0,0:0:0:0:
345,281,52959,1,0,0:0:0:0:
318,127,53127,5,0,0:0:0:0:
128,192,53295,1,0,0:0:0:0:
254,317,53464,1,0,0:0:0:0:
345,192,53633,5,0,0:0:0:0:
166,102,53801,1,0,0:0:0:0:
166,281,53970,1,0,0:0:0:0:
318,254,54138,5,0,0:0:0:0:
254,64,54306,1,0,0:0:0:0:
128,190,54475,1,0,0:0:0:0:
256,281,54644,5,0,0:0:0:0:
345,102,54812,1,0,0:0:0:0:
166,102,54981,1,0,0:0:0:0:
191,254,55149,5,0,0:0:0:0:
381,190,55317,1,0,0:0:0:0:
256,64,55486,1,0,0:0:0:0:
166,192,55655,5,0,0:0:0:0:
345,281,55823,1,0,0:0:0:0:
345,102,55992,1,0,0:0:0:0:
191,127,56160,5,0,0:0:0:0:
256,317,56328,1,0,0:0:0:0:
381,192,56497,1,0,0:0:0:0:
256,115,56667,5,0,0:0:0:0:
179,268,56835,1,0,0:0:0:0:
332,268,57004,1,0,0:0:0:0:
310,136,57172,5,0,0:0:0:0:
146,192,57340,1,0,0:0:0:0:
254,300,57509,1,0,0:0:0:0:
332,192,57678,5,0,0:0:0:0:
179,115,57846,1,0,0:0:0:0:
179,268,58015,1,0,0:0:0:0:
310,246,58183,5,0,0:0:0:0:
254,82,58351,1,0,0:0:0:0:
146,190,58520,1,0,0:0:0:0:
256,268,58689,5,0,0:0:0:0:
332,115,58857,1,0,0:0:0:0:
179,115,59026,1,0,0:0:0:0:
200,246,59194,5,0,0:0:0:0:
364,190,59362,1,0,0:0:0:0:
256,82,59531,1,0,0:0:0:0:
179,192,59700,5,0,0:0:0:0:
332,268,59868,1,0,0:0:0:0:
332,115,60037,1,0,0:0:0:0:
200,136,60205,5,0,0:0:0:0:
256,300,60373,1,0,0:0:0:0:
364,192,60542,1,0,0:0:0:0:
256,128,60712,5,0,0:0:0:0:
192,256,60880,1,0,0:0:0:0:
320,256,61049,1,0,0:0:0:0:
301,146,61217,5,0,0:0:0:0:
165,192,61385,1,0,0:0:0:0:
255,282,61554,1,0,0:0:0:0:
320,192,61723,5,0,0:0:0:0:
192,128,61891,1,0,0:0:0:0:
192,256,62060,1,0,0:0:0:0:
301,237,62228,5,0,0:0:0:0:
255,101,62396,1,0,0:0:0:0:
165,191,62565,1,0,0:0:0:0:
256,256,62734,5,0,0:0:0:0:
320,128,62902,1,0,0:0:0:0:
192,128,63071,1,0,0:0:0:0:
210,237,63239,5,0,0:0:0:0:
346,191,63407,1,0,0:0:0:0:
256,101,63576,1,0,0:0:0:0:
192,192,63745,5,0,0:0:0:0:
320,256,63913,1,0,0:0:0:0:
320,128,64082,1,0,0:0:0:0:
210,146,64250,5,0,0:0:0:0:
256,282,64418,1,0,0:0:0:0:
346,192,64587,1,0,0:0:0:0:
256,128,64757,5,0,0:0:0:0:
192,256,64925,1,0,0:0:0:0:
320,256,65094,1,0,0:0:0:0:
301,146,65262,5,0,0:0:0:0:
165,192,65430,1,0,0:0:0:0:
255,282,65599,1,0,0:0:0:0:
320,192,65768,5,0,0:0:0:0:
192,128,65936,1,0,0:0:0:0:
192,256,66105,1,0,0:0:0:0:
301,237,66273,5,0,0:0:0:0:
255,101,66441,1,0,0:0:0:0:
165,191,66610,1,0,0:0:0:0:
256,256,66779,5,0,0:0:0:0:
320,128,66947,1,0,0:0:0:0:
192,128,67116,1,0,0:0:0:0:
210,237,67284,5,0,0:0:0:0:
346,191,67452,1,0,0:0:0:0:
256,101,67621,1,0,0:0:0:0:
192,192,67790,5,0,0:0:0:0:
320,256,67958,1,0,0:0:0:0:
320,128,68127,1,0,0:0:0:0:
210,146,68295,5,0,0:0:0:0:
256,282,68463,1,0,0:0:0:0:
346,192,68632,1,0,0:0:0:0:
256,140,68802,5,0,0:0:0:0:
204,243,68970,1,0,0:0:0:0:
307,243,69139,1,0,0:0:0:0:
292,155,69307,5,0,0:0:0:0:
183,192,69475,1,0,0:0:0:0:
255,264,69644,1,0,0:0:0:0:
307,192,69813,5,0,0:0:0:0:
204,140,69981,1,0,0:0:0:0:
204,243,70150,1,0,0:0:0:0:
292,228,70318,5,0,0:0:0:0:
255,119,70486,1,0,0:0:0:0:
183,191,70655,1,0,0:0:0:0:
256,243,70824,5,0,0:0:0:0:
307,140,70992,1,0,0:0:0:0:
204,140,71161,1,0,0:0:0:0:
219,228,71329,5,0,0:0:0:0:
328,191,71497,1,0,0:0:0:0:
256,119,71666,1,0,0:0:0:0:
204,192,71835,5,0,0:0:0:0:
307,243,72003,1,0,0:0:0:0:
307,140,72172,1,0,0:0:0:0:
219,155,72340,5,0,0:0:0:0:
256,264,72508,1,0,0:0:0:0:
328,192,72677,1,0,0:0:0:0:
256,128,72847,5,0,0:0:0:0:
192,256,73015,1,0,0:0:0:0:
320,256,73184,1,0,0:0:0:0:
301,146,73352,5,0,0:0:0:0:
165,192,73520,1,0,0:0:0:0:
255,282,73689,1,0,0:0:0:0:
320,192,73858,5,0,0:0:0:0:
192,128,74026,1,0,0:0:0:0:
192,256,74195,1,0,0:0:0:0:
301,237,74363,5,0,0:0:0:0:
255,101,74531,1,0,0:0:0:0:
165,191,74700,1,0,0:0:0:0:
256,256,74869,5,0,0:0:0:0:
320,128,75037,1,0,0:0:0:0:
192,128,75206,1,0,0:0:0:0:
210,237,75374,5,0,0:0:0:0:
346,191,75542,1,0,0:0:0:0:
256,101,75711,1,0,0:0:0:0:
192,192,75880,5,0,0:0:0:0:
320,256,76048,1,0,0:0:0:0:
320,128,76217,1,0,0:0:0:0:
210,146,76385,5,0,0:0:0:0:
256,282,76553,1,0,0:0:0:0:
346,192,76722,1,0,0:0:0:0:
256,153,76892,5,0,0:0:0:0:
217,230,77060,1,0,0:0:0:0:
294,230,77229,1,0,0:0:0:0:
283,164,77397,5,0,0:0:0:0:
201,192,77565,1,0,0:0:0:0:
255,246,77734,1,0,0:0:0:0:
294,192,77903,5,0,0:0:0:0:
217,153,78071,1,0,0:0:0:0:
217,230,78240,1,0,0:0:0:0:
283,219,78408,5,0,0:0:0:0:
255,137,78576,1,0,0:0:0:0:
201,191,78745,1,0,0:0:0:0:
256,230,78914,5,0,0:0:0:0:
294,153,79082,1,0,0:0:0:0:
217,153,79251,1,0,0:0:0:0:
228,219,79419,5,0,0:0:0:0:
310,191,79587,1,0,0:0:0:0:
256,137,79756,1,0,0:0:0:0:
217,192,79925,5,0,0:0:0:0:
294,230,80093,1,0,0:0:0:0:
294,153,80262,1,0,0:0:0:0:
228,164,80430,5,0,0:0:0:0:
256,246,80598,1,0,0:0:0:0:
310,192,80767,1,0,0:0:0:0:
256,160,80937,5,0,0:0:0:0:
224,224,81105,1,0,0:0:0:0:
288,224,81274,1,0,0:0:0:0:
278,169,81442,5,0,0:0:0:0:
210,192,81610,1,0,0:0:0:0:
255,237,81779,1,0,0:0:0:0:
288,192,81948,5,0,0:0:0:0:
224,160,82116,1,0,0:0:0:0:
224,224,82285,1,0,0:0:0:0:
278,214,82453,5,0,0:0:0:0:
255,146,82621,1,0,0:0:0:0:
210,191,82790,1,0,0:0:0:0:
256,224,82959,5,0,0:0:0:0:
288,160,83127,1,0,0:0:0:0:
224,160,83296,1,0,0:0:0:0:
233,214,83464,5,0,0:0:0:0:
301,191,83632,1,0,0:0:0:0:
256,146,83801,1,0,0:0:0:0:
224,192,83970,5,0,0:0:0:0:
288,224,84138,1,0,0:0:0:0:
288,160,84307,1,0,0:0:0:0:
233,169,84475,5,0,0:0:0:0:
256,237,84643,1,0,0:0:0:0:
301,192,84812,1,0,0:0:0:0:
256,160,84981,5,0,0:0:0:0:
224,224,85149,1,0,0:0:0:0:
288,224,85318,1,0,0:0:0:0:
278,169,85486,5,0,0:0:0:0:
210,192,85654,1,0,0:0:0:0:
255,237,85823,1,0,0:0:0:0:
288,192,85992,5,0,0:0:0:0:
224,160,86160,1,0,0:0:0:0:
224,224,86329,1,0,0:0:0:0:
278,214,86497,5,0,0:0:0:0:
255,146,86665,1,0,0:0:0:0:
210,191,86834,1,0,0:0:0:0:
256,224,87003,5,0,0:0:0:0:
288,160,87171,1,0,0:0:0:0:
224,160,87340,1,0,0:0:0:0:
233,214,87508,5,0,0:0:0:0:
301,191,87676,1,0,0:0:0:0:
256,146,87845,1,0,0:0:0:0:
224,192,88014,5,0,0:0:0:0:
288,224,88182,1,0,0:0:0:0:
288,160,88351,1,0,0:0:0:0:
233,169,88519,5,0,0:0:0:0:
256,237,88687,1,0,0:0:0:0:
301,192,88856,1,0,0:0:0:0:
256,160,89026,5,0,0:0:0:0:
224,224,89194,1,0,0:0:0:0:
288,224,89363,1,0,0:0:0:0:
278,169,89531,5,0,0:0:0:0:
210,192,89699,1,0,0:0:0:0:
255,237,89868,1,0,0:0:0:0:
288,192,90037,5,0,0:0:0:0:
224,160,90205,1,0,0:0:0:0:
224,224,90374,1,0,0:0:0:0:
278,214,90542,5,0,0:0:0:0:
255,146,90710,1,0,0:0:0:0:
210,191,90879,1,0,0:0:0:0:
256,224,91048,5,0,0:0:0:0:
288,160,91216,1,0,0:0:0:0:
224,160,91385,1,0,0:0:0:0:
233,214,91553,5,0,0:0:0:0:
301,191,91721,1,0,0:0:0:0:
256,146,91890,1,0,0:0:0:0:
224,192,92059,5,0,0:0:0:0:
288,224,92227,1,0,0:0:0:0:
288,160,92396,1,0,0:0:0:0:
233,169,92564,5,0,0:0:0:0:
256,237,92732,1,0,0:0:0:0:
301,192,92901,1,0,0:0:0:0:
256,160,93071,5,0,0:0:0:0:
224,224,93239,1,0,0:0:0:0:
288,224,93408,1,0,0:0:0:0:
278,169,93576,5,0,0:0:0:0:
210,192,93744,1,0,0:0:0:0:
255,237,93913,1,0,0:0:0:0:
288,192,94082,5,0,0:0:0:0:
224,160,94250,1,0,0:0:0:0:
