osu file format v14

[General]
AudioFilename: audio.mp3
AudioLeadIn: 0
PreviewTime: 2734
Countdown: 1
SampleSet: Normal
StackLeniency: 0.7
Mode: 0
LetterboxInBreaks: 0
WidescreenStoryboard: 1

[Editor]
DistanceSpacing: 1.4
BeatDivisor: 4
GridSize: 4
TimelineZoom: 1

[Metadata]
Title:CANDY CANES (full version)
TitleUnicode:CANDY CANES (full version)
Artist:Jack Douglass
ArtistUnicode:Jack Douglass
Creator:Ethan
Version:Easy
Source:
Tags:youtube jacksfilms
BeatmapID:1167200
BeatmapSetID:551002

[Difficulty]
HPDrainRate:0.5
CircleSize:2.5
OverallDifficulty:1
ApproachRate:1.5
SliderMultiplier:1
SliderTickRate:1

[Events]
//Background and Video events
0,0,"Candy_Cane_Background.jpg",0,0
//Break Periods
//Storyboard Layer 0 (Background)
//Storyboard Layer 1 (Fail)
//Storyboard Layer 2 (Pass)
//Storyboard Layer 3 (Foreground)
//Storyboard Sound Samples

[TimingPoints]
2734.76404494382,337.078651685393,4,1,0,100,1,0

[HitObjects]
256,192,2734,6,0,B|256:88|256:88|256:52|292:32|340:32|372:48|372:92|372:92|372:136,1,300,0|0,0:0|0:0,0:0:0:0:
372,196,4083,2,0,B|372:300|372:300|372:336|336:356|288:356|256:340|256:296|256:296|256:252,1,300,0|0,0:0|0:0,0:0:0:0:
256,184,5431,6,0,P|252:120|140:72,1,200,0|0,0:0|0:0,0:0:0:0:
176,148,6779,2,0,B|120:188|64:152|64:152|44:236|80:288|132:304|148:296,1,300,0|0,0:0|0:0,0:0:0:0:
256,300,8128,6,0,L|256:192,1,100
219,293,8802,6,0,L|256:192,1,100
186,274,9476,6,0,L|256:192,1,100
162,246,10150,6,0,L|256:192,1,100
149,210,10824,6,0,L|256:192,1,100
149,173,11498,6,0,L|256:192,1,100
162,138,12172,6,0,L|256:192,1,100
186,109,12846,6,0,L|256:192,1,100
219,90,13521,6,0,L|256:192,1,100
255,83,14195,6,0,L|256:192,1,100
292,90,14869,6,0,L|256:192,1,100
325,109,15543,6,0,L|256:192,1,100
349,138,16217,6,0,L|256:192,1,100
362,173,16891,6,0,L|256:192,1,100
362,210,17565,6,0,L|256:192,1,100
349,246,18239,6,0,L|256:192,1,100
325,274,18914,6,0,L|256:192,1,100
292,293,19588,6,0,L|256:192,1,100
256,300,20262,6,0,L|256:192,1,100
219,293,20936,6,0,L|256:192,1,100
186,274,21610,6,0,L|256:192,1,100
162,246,22284,6,0,L|256:192,1,100
149,210,22958,6,0,L|256:192,1,100
149,173,23632,6,0,L|256:192,1,100
162,138,24307,6,0,L|256:192,1,100
186,109,24981,6,0,L|256:192,1,100
219,90,25655,6,0,L|256:192,1,100
255,83,26329,6,0,L|256:192,1,100
292,90,27003,6,0,L|256:192,1,100
325,109,27677,6,0,L|256:192,1,100
349,138,28351,6,0,L|256:192,1,100
362,173,29025,6,0,L|256:192,1,100
362,210,29701,6,0,L|256:192,1,100
349,246,30375,6,0,L|256:192,1,100
325,274,31049,6,0,L|256:192,1,100
292,293,31723,6,0,L|256:192,1,100
256,300,32397,6,0,L|256:192,1,100
219,293,33071,6,0,L|256:192,1,100
186,274,33745,6,0,L|256:192,1,100
162,246,34419,6,0,L|256:192,1,100
149,210,35094,6,0,L|256:192,1,100
149,173,35768,6,0,L|256:192,1,100
162,138,36442,6,0,L|256:192,1,100
186,109,37116,6,0,L|256:192,1,100
219,90,37790,6,0,L|256:192,1,100
256,84,38464,6,0,L|256:192,1,100
292,90,39138,6,0,L|256:192,1,100
325,109,39812,6,0,L|256:192,1,100
349,137,40487,6,0,L|256:192,1,100
362,173,41161,6,0,L|256:192,1,100
362,210,41835,6,0,L|256:192,1,100
349,245,42509,6,0,L|256:192,1,100
325,274,43183,6,0,L|256:192,1,100
292,293,43857,6,0,L|256:192,1,100
256,300,44531,6,0,L|256:192,1,100
219,293,45205,6,0,L|256:192,1,100
186,274,45880,6,0,L|256:192,1,100
162,246,46554,6,0,L|256:192,1,100
149,210,47228,6,0,L|256:192,1,100
149,173,47902,6,0,L|256:192,1,100
162,138,48576,6,0,L|256:192,1,100
186,109,49250,6,0,L|256:192,1,100
219,90,49924,6,0,L|256:192,1,100
256,84,50598,6,0,L|256:192,1,100
292,90,51274,6,0,L|256:192,1,100
325,109,51948,6,0,L|256:192,1,100
349,137,52622,6,0,L|256:192,1,100
362,173,53296,6,0,L|256:192,1,100
362,210,53970,6,0,L|256:192,1,100
349,246,54644,6,0,L|256:192,1,100
325,274,55318,6,0,L|256:192,1,100
292,293,55992,6,0,L|256:192,1,100
256,300,56667,6,0,L|256:192,1,100
219,293,57341,6,0,L|256:192,1,100
186,274,58015,6,0,L|256:192,1,100
162,246,58689,6,0,L|256:192,1,100
149,210,59363,6,0,L|256:192,1,100
149,173,60037,6,0,L|256:192,1,100
162,138,60711,6,0,L|256:192,1,100
186,109,61385,6,0,L|256:192,1,100
219,90,62060,6,0,L|256:192,1,100
256,84,62734,6,0,L|256:192,1,100
292,90,63408,6,0,L|256:192,1,100
325,109,64082,6,0,L|256:192,1,100
349,137,64756,6,0,L|256:192,1,100
362,173,65430,6,0,L|256:192,1,100
362,210,66104,6,0,L|256:192,1,100
349,246,66778,6,0,L|256:192,1,100
325,274,67453,6,0,L|256:192,1,100
292,293,68127,6,0,L|256:192,1,100
256,300,68801,6,0,L|256:192,1,100
219,293,69475,6,0,L|256:192,1,100
186,274,70149,6,0,L|256:192,1,100
162,246,70823,6,0,L|256:192,1,100
149,210,71497,6,0,L|256:192,1,100
149,173,72171,6,0,L|256:192,1,100
162,138,72847,6,0,L|256:192,1,100
186,109,73521,6,0,L|256:192,1,100
219,90,74195,6,0,L|256:192,1,100
255,84,74869,6,0,L|256:192,1,100
292,90,75543,6,0,L|256:192,1,100
325,109,76217,6,0,L|256:192,1,100
349,137,76891,6,0,L|256:192,1,100
362,173,77565,6,0,L|256:192,1,100
362,210,78240,6,0,L|256:192,1,100
349,246,78914,6,0,L|256:192,1,100
325,274,79588,6,0,L|256:192,1,100
292,293,80262,6,0,L|256:192,1,100
256,300,80936,6,0,L|256:192,1,100
219,293,81610,6,0,L|256:192,1,100
186,274,82284,6,0,L|256:192,1,100
162,246,82958,6,0,L|256:192,1,100
149,210,83633,6,0,L|256:192,1,100,0|0,3:0|3:0,3:0:0:0:
149,173,84307,6,0,L|256:192,1,100,0|0,3:0|3:0,3:0:0:0:
162,138,84981,6,0,L|256:192,1,100,0|0,3:0|3:0,3:0:0:0:
186,109,85655,6,0,L|256:192,1,100,0|0,3:0|3:0,3:0:0:0:
219,90,86329,6,0,L|256:192,1,100,0|0,3:0|3:0,3:0:0:0:
256,84,87003,6,0,L|256:192,1,100,0|0,3:0|3:0,3:0:0:0:
292,90,87677,6,0,L|256:192,1,100,0|0,3:0|3:0,3:0:0:0:
325,109,88351,6,0,L|256:192,1,100,0|0,3:0|3:0,3:0:0:0:
349,137,89026,6,0,L|256:192,1,100,0|0,3:0|3:0,3:0:0:0:
362,173,89700,6,0,L|256:192,1,100,0|0,3:0|3:0,3:0:0:0:
362,210,90374,6,0,L|256:192,1,100,0|0,3:0|3:0,3:0:0:0:
349,246,91048,6,0,L|256:192,1,100,0|0,3:0|3:0,3:0:0:0:
325,274,91722,6,0,L|256:192,1,100,0|0,3:0|3:0,3:0:0:0:
292,293,92396,6,0,L|256:192,1,100,0|0,3:0|3:0,3:0:0:0:
255,299,93070,6,0,L|256:192,1,100,0|0,3:0|3:0,3:0:0:0:
219,293,93744,6,0,L|256:192,1,100,0|0,3:0|3:0,3:0:0:0:
