osu file format v14

[General]
AudioFilename: audio.mp3
AudioLeadIn: 0
PreviewTime: 2734
Countdown: 1
SampleSet: None
StackLeniency: 0.7
Mode: 2
LetterboxInBreaks: 0
WidescreenStoryboard: 1

[Editor]
DistanceSpacing: 1
BeatDivisor: 4
GridSize: 4
TimelineZoom: 1

[Metadata]
Title:CANDY CANES (full version)
TitleUnicode:CANDY CANES (full version)
Artist:Jack Douglass
ArtistUnicode:Jack Douglass
Creator:Ethan
Version:Cup
Source:
Tags:youtube jacksfilms
BeatmapID:1167199
BeatmapSetID:551002

[Difficulty]
HPDrainRate:2
CircleSize:2
OverallDifficulty:2
ApproachRate:2
SliderMultiplier:0.7
SliderTickRate:1

[Events]
//Background and Video events
0,0,"N2IQvIK.jpg",0,0
//Break Periods
//Storyboard Layer 0 (Background)
//Storyboard Layer 1 (Fail)
//Storyboard Layer 2 (Pass)
//Storyboard Layer 3 (Foreground)
//Storyboard Sound Samples

[TimingPoints]
2734.76404494382,337.078651685393,4,3,1,100,1,0

[HitObjects]
256,192,2734,6,0,L|112:192,1,140
256,192,4083,2,0,L|404:192,1,140
256,188,5431,2,0,B|212:128|312:128|256:52|256:52|224:84|168:84|136:52|136:52,1,280
256,308,8128,6,0,P|256:236|192:192,1,140
268,68,9476,2,0,P|300:132|372:156,1,140
256,308,10824,6,0,P|256:236|192:192,1,140
268,68,12172,2,0,P|300:132|372:156,1,140
256,308,13521,6,0,P|256:236|192:192,1,140
268,68,14869,2,0,P|300:132|372:156,1,140
256,308,16217,6,0,P|256:236|192:192,1,140
268,68,17565,2,0,P|300:132|372:156,1,140
256,308,18914,6,0,P|256:236|192:192,1,140
268,68,20262,2,0,P|300:132|372:156,1,140
256,308,21610,6,0,P|256:236|192:192,1,140
268,68,22958,2,0,P|300:132|372:156,1,140
256,308,24307,6,0,P|256:236|192:192,1,140
268,68,25655,2,0,P|300:132|372:156,1,140
256,308,27003,6,0,P|256:236|192:192,1,140
268,68,28351,2,0,P|300:132|372:156,1,140
256,308,29701,6,0,P|256:236|192:192,1,140
268,68,31049,2,0,P|300:132|372:156,1,140
256,308,32397,6,0,P|256:236|192:192,1,140
268,68,33745,2,0,P|300:132|372:156,1,140
256,308,35094,6,0,P|256:236|192:192,1,140
268,68,36442,2,0,P|300:132|372:156,1,140
256,308,37790,6,0,P|256:236|192:192,1,140
268,68,39138,2,0,P|300:132|372:156,1,140
256,308,40487,6,0,P|256:236|192:192,1,140
268,68,41835,2,0,P|300:132|372:156,1,140
256,308,43183,6,0,P|256:236|192:192,1,140
268,68,44531,2,0,P|300:132|372:156,1,140
256,308,45880,6,0,P|256:236|192:192,1,140
268,68,47228,2,0,P|300:132|372:156,1,140
256,308,48576,6,0,P|256:236|192:192,1,140
268,68,49924,2,0,P|300:132|372:156,1,140
256,308,51274,6,0,P|256:236|192:192,1,140
268,68,52622,2,0,P|300:132|372:156,1,140
256,308,53970,6,0,P|256:236|192:192,1,140
268,68,55318,2,0,P|300:132|372:156,1,140
256,308,56667,6,0,P|256:236|192:192,1,140
268,68,58015,2,0,P|300:132|372:156,1,140
256,308,59363,6,0,P|256:236|192:192,1,140
268,68,60711,2,0,P|300:132|372:156,1,140
256,308,62060,6,0,P|256:236|192:192,1,140
268,68,63408,2,0,P|300:132|372:156,1,140
256,308,64756,6,0,P|256:236|192:192,1,140
268,68,66104,2,0,P|300:132|372:156,1,140
256,308,67453,6,0,P|256:236|192:192,1,140
268,68,68801,2,0,P|300:132|372:156,1,140
256,308,70149,6,0,P|256:236|192:192,1,140
268,68,71497,2,0,P|300:132|372:156,1,140
256,308,72847,6,0,P|256:236|192:192,1,140
268,68,74195,2,0,P|300:132|372:156,1,140
256,308,75543,6,0,P|256:236|192:192,1,140
268,68,76891,2,0,P|300:132|372:156,1,140
256,308,78240,6,0,P|256:236|192:192,1,140
268,68,79588,2,0,P|300:132|372:156,1,140
256,308,80936,6,0,P|256:236|192:192,1,140
268,68,82284,2,0,P|300:132|372:156,1,140
256,308,83633,6,0,P|256:236|192:192,1,140
268,68,84981,2,0,P|300:132|372:156,1,140
256,308,86329,6,0,P|256:236|192:192,1,140
268,68,87677,2,0,P|300:132|372:156,1,140
256,308,89026,6,0,P|256:236|192:192,1,140
268,68,90374,2,0,P|300:132|372:156,1,140
256,308,91722,6,0,P|256:236|192:192,1,140
268,68,93070,2,0,P|300:132|372:156,1,140
