osu file format v14

[General]
AudioFilename: audio.mp3
AudioLeadIn: 0
PreviewTime: 225519
Countdown: 0
SampleSet: Soft
StackLeniency: 0.4
Mode: 0
LetterboxInBreaks: 0
SkinPreference:Default
WidescreenStoryboard: 0

[Editor]
Bookmarks: 428,14756,43413,72069,100726,115054,129383,158039,186696,201025,226099,239308,240427,254756,269084,276248,294964
DistanceSpacing: 0.4
BeatDivisor: 4
GridSize: 8
TimelineZoom: 2.3

[Metadata]
Title:Lullaby For You (English Version)
TitleUnicode:Lullaby For You (English Version)
Artist:JYONGRI
ArtistUnicode:JYONGRI
Creator:Phynta
Version:Wonderful World
Source:すばらしきこのせかい
Tags:subarashiki kono sekai it's its a wonderful world the world ends with you twewy ost original soundtrack ending ed credits theme english pop kissing me ep vgm videogame video game music square enix
BeatmapID:3397986
BeatmapSetID:1664518

[Difficulty]
HPDrainRate:4.5
CircleSize:4.3
OverallDifficulty:7.2
ApproachRate:7.5
SliderMultiplier:2.5
SliderTickRate:1

[Events]
//Background and Video events
0,0,"yea.jpg",0,0
//Break Periods
2,227890,237811
//Storyboard Layer 0 (Background)
//Storyboard Layer 1 (Fail)
//Storyboard Layer 2 (Pass)
//Storyboard Layer 3 (Foreground)
//Storyboard Layer 4 (Overlay)
//Storyboard Sound Samples

[TimingPoints]
428,895.522388059701,4,2,1,40,1,0
43413,-100,4,2,1,50,0,0
68487,-88.4955752212389,4,2,1,50,0,0
69383,-80,4,2,1,50,0,0
70278,-80,4,2,1,60,0,0
72069,-66.6666666666667,4,2,1,70,0,1
72405,-66.6666666666667,4,2,1,5,0,1
72517,-66.6666666666667,4,2,1,70,0,1
72853,-66.6666666666667,4,2,1,5,0,1
72965,-66.6666666666667,4,2,1,70,0,1
77442,-74.0740740740741,4,2,1,70,0,1
78338,-83.3333333333333,4,2,1,70,0,1
78786,-125,4,2,1,70,0,1
79233,-100,4,2,1,70,0,1
81025,-80,4,2,1,70,0,1
86398,-66.6666666666667,4,2,1,70,0,1
91771,-74.0740740740741,4,2,1,70,0,1
92666,-83.3333333333333,4,2,1,70,0,1
93114,-125,4,2,1,70,0,1
93562,-100,4,2,1,70,0,1
95353,-80,4,2,1,70,0,1
100726,-66.6666666666667,4,2,1,70,0,1
101398,-80,4,2,1,70,0,1
102069,-66.6666666666667,4,2,1,70,0,1
102853,-66.6666666666667,4,2,1,5,0,1
102965,-66.6666666666667,4,2,1,70,0,1
104084,-80,4,2,1,70,0,1
106099,-66.6666666666667,4,2,1,70,0,1
114159,-100,4,2,1,70,0,0
115054,-100,4,2,1,50,0,0
117741,-100,4,2,0,50,0,0
118636,-100,4,2,1,50,0,0
121099,-100,4,2,0,50,0,0
121771,-100,4,2,1,50,0,0
124905,-100,4,2,0,50,0,0
125801,-100,4,2,1,50,0,0
135427,-100,4,2,0,50,0,0
135987,-100,4,2,1,50,0,0
142592,-100,4,2,0,50,0,0
143263,-100,4,2,1,50,0,0
154457,-88.4955752212389,4,2,1,50,0,0
155353,-80,4,2,1,50,0,0
156248,-80,4,2,1,60,0,0
158039,-66.6666666666667,4,2,1,70,0,1
158375,-66.6666666666667,4,2,1,5,0,1
158487,-66.6666666666667,4,2,1,70,0,1
158823,-66.6666666666667,4,2,1,5,0,1
158935,-66.6666666666667,4,2,1,70,0,1
163413,-74.0740740740741,4,2,1,70,0,1
164308,-83.3333333333333,4,2,1,70,0,1
164756,-125,4,2,1,70,0,1
165204,-100,4,2,1,70,0,1
166995,-80,4,2,1,70,0,1
172368,-66.6666666666667,4,2,1,70,0,1
177741,-74.0740740740741,4,2,1,70,0,1
178636,-83.3333333333333,4,2,1,70,0,1
179084,-125,4,2,1,70,0,1
179532,-100,4,2,1,70,0,1
181323,-80,4,2,1,70,0,1
186696,-66.6666666666667,4,2,1,70,0,1
187368,-80,4,2,1,70,0,1
188039,-66.6666666666667,4,2,1,70,0,1
188823,-66.6666666666667,4,2,1,5,0,1
188935,-66.6666666666667,4,2,1,70,0,1
190054,-80,4,2,1,70,0,1
192069,-66.6666666666667,4,2,1,70,0,1
200129,-100,4,2,1,70,0,0
201025,-100,4,2,1,50,0,0
209980,-117.647058823529,4,2,1,50,0,0
211771,-142.857142857143,4,2,1,50,0,0
215353,-100,4,2,1,50,0,0
217144,-117.647058823529,4,2,1,50,0,0
218935,-142.857142857143,4,2,1,50,0,0
220726,-181.818181818182,4,2,1,50,0,0
222517,-133.333333333333,4,2,1,45,0,0
225204,-200,4,2,1,40,0,0
238636,-80,4,2,1,60,0,0
240427,-66.6666666666667,4,2,1,70,0,1
244010,-50,4,2,0,70,0,1
244905,-57.1428571428571,4,2,1,70,0,1
245801,-74.0740740740741,4,2,1,70,0,1
246696,-83.3333333333333,4,2,1,70,0,1
247144,-125,4,2,1,70,0,1
247592,-100,4,2,1,70,0,1
249383,-80,4,2,1,70,0,1
254756,-66.6666666666667,4,2,1,70,0,1
255427,-80,4,2,1,70,0,1
256099,-66.6666666666667,4,2,1,70,0,1
256547,-57.1428571428571,4,2,1,70,0,1
257666,-66.6666666666667,4,2,1,70,0,1
258114,-80,4,2,1,70,0,1
260129,-66.6666666666667,4,2,1,70,0,1
268189,-100,4,2,1,70,0,0
269084,-100,4,2,1,40,0,0
272666,-133.333333333333,4,2,1,40,0,0
276248,-100,4,2,1,50,0,0
278935,-100,4,2,0,50,0,0
279830,-100,4,2,1,50,0,0
282293,-100,4,2,0,50,0,0
282965,-100,4,2,1,50,0,0
286099,-100,4,2,0,50,0,0
286995,-100,4,2,1,50,0,0
288786,909.090909090909,4,2,1,50,1,0
289751,1463.41463414634,4,2,1,45,1,0
291214,1250,4,2,1,40,1,0
295589,-100,4,2,1,35,0,0
296214,-100,4,2,1,30,0,0
296839,-100,4,2,1,25,0,0
297464,-100,4,2,1,20,0,0
298089,-100,4,2,1,15,0,0
298714,-100,4,2,1,10,0,0
299339,-100,4,2,1,5,0,0

[Colours]
Combo1 : 157,171,234
Combo2 : 243,124,73
Combo3 : 148,207,156
Combo4 : 242,217,113

[HitObjects]
21,369,14756,6,0,P|59:325|142:318,1,140.625,0|2,0:0|0:0,0:0:0:0:
152,325,15726,2,0,P|113:305|103:221,1,125,2|0,0:0|0:0,0:0:0:0:
161,165,16398,2,0,P|168:139|80:147,1,166.666666666667,2|0,0:0|0:0,0:0:0:0:
98,228,17293,5,2,0:0:0:0:
98,228,18114,5,2,0:0:0:0:
185,246,18338,2,0,P|218:201|293:199,1,125,2|2,0:0|0:0,0:0:0:0:
385,240,19010,2,0,P|338:265|333:341,1,125,2|2,0:0|0:0,0:0:0:0:
440,342,19905,1,2,0:0:0:0:
500,17,21025,5,2,0:0:0:0:
257,135,21920,6,0,P|259:80|330:51,1,125,2|2,0:0|0:0,0:0:0:0:
409,54,22666,2,0,P|427:87|362:119,1,125,2|2,0:0|0:0,0:0:0:0:
302,26,23487,1,2,0:0:0:0:
302,26,23711,1,2,0:0:0:0:
257,135,24607,1,0,0:0:0:0:
161,100,25054,6,0,P|158:71|171:33,1,62.5,2|2,0:0|0:0,0:0:0:0:
12,113,25502,6,0,P|64:127|106:185,1,125,2|2,0:0|0:0,0:0:0:0:
203,236,26174,2,0,P|164:285|162:359,1,125,2|2,0:0|0:0,0:0:0:0:
80,276,27069,1,2,0:0:0:0:
80,276,27293,1,2,0:0:0:0:
203,236,28189,1,0,0:0:0:0:
274,372,29084,6,0,P|299:340|401:329,1,145.833333333333,2|2,0:0|0:0,0:0:0:0:
460,367,29830,1,2,0:0:0:0:
320,297,30278,2,0,P|309:264|354:198,1,104.166666666667,2|0,0:0|0:0,0:0:0:0:
424,153,30875,6,0,B|436:182|465:193|465:193|433:194|409:221,1,125,2|2,0:0|0:0,0:0:0:0:
338,205,31622,2,0,B|324:175|295:163|295:163|328:163|352:136,1,125,2|2,0:0|0:0,0:0:0:0:
200,8,32666,5,2,0:0:0:0:
100,97,33114,1,2,0:0:0:0:
100,97,33413,2,0,P|63:108|61:32,1,125,2|2,0:0|0:0,0:0:0:0:
211,116,34233,6,0,P|175:134|148:217,1,125,2|2,0:0|0:0,0:0:0:0:
83,325,35185,2,0,P|71:284|8:205,1,140.625,2|0,0:0|0:0,0:0:0:0:
11,207,35801,1,2,0:0:0:0:
153,371,36304,6,0,P|272:351|387:312,1,234.375,2|0,0:0|0:0,0:0:0:0:
379,315,37592,5,2,0:0:0:0:
294,371,38039,2,0,P|236:342|55:281,1,250,2|0,0:0|0:0,0:0:0:0:
0,363,39383,5,2,0:0:0:0:
191,284,39830,2,0,P|179:173|145:27,1,250,2|0,0:0|0:0,0:0:0:0:
209,102,40950,6,0,P|182:150|158:222,1,125,2|2,0:0|0:0,0:0:0:0:
294,134,41622,6,0,P|311:114|231:14,1,187.5,2|0,0:0|0:0,0:0:0:0:
79,156,42517,6,0,P|58:150|118:89,1,187.5,2|0,0:0|0:0,0:0:0:0:
190,368,43413,6,0,P|248:344|320:342,1,125,2|2,1:2|0:0,0:0:0:0:
385,361,44084,1,0,0:0:0:0:
494,237,44308,2,0,P|454:252|435:303,1,93.75,10|0,0:0|0:0,0:0:0:0:
434,296,44756,1,2,0:0:0:0:
397,168,44980,6,0,P|375:109|333:48,1,125,2|0,0:0|0:0,0:0:0:0:
329,56,45651,2,0,P|341:80|375:97,1,62.5,2|2,0:0|0:0,0:0:0:0:
508,6,46099,6,0,P|492:41|459:201,1,187.5,10|2,0:0|0:0,0:0:0:0:
270,273,46995,6,0,P|255:239|173:249,1,125,2|2,1:2|0:0,0:0:0:0:
105,330,47666,2,0,P|141:334|174:257,1,125,2|2,0:0|0:0,0:0:0:0:
138,159,48338,1,0,0:0:0:0:
138,159,48562,2,0,P|116:188|165:255,1,125,2|0,0:0|0:0,0:0:0:0:
228,189,49233,1,0,1:0:0:0:
7,379,49681,6,0,P|36:336|10:265,1,125,8|0,0:1|0:0,0:0:0:0:
15,270,50353,1,2,0:0:0:0:
138,159,50577,6,0,P|155:86|183:34,1,125,2|2,1:2|0:0,0:0:0:0:
66,14,51248,2,0,P|67:42|81:80,1,62.5,2|8,0:0|0:0,0:0:0:0:
225,156,51696,2,0,P|219:182|199:217,1,62.5,2|0,0:0|0:0,0:0:0:0:
201,211,52144,1,2,0:0:0:0:
77,74,52368,6,0,P|42:93|27:181,1,125
238,22,53263,1,8,0:0:0:0:
335,157,53711,1,0,0:0:0:0:
335,157,53935,1,2,0:0:0:0:
448,34,54159,6,0,P|379:44|328:70,1,125,2|2,1:2|0:0,0:0:0:0:
245,120,54830,2,0,P|301:145|323:218,2,125,2|2|2,0:0|0:0|0:0,0:0:0:0:
65,56,55950,6,0,P|89:96|112:176,1,125,0|0,0:0|1:0,0:0:0:0:
111,170,56845,2,0,P|122:145|152:113,1,62.5,8|0,1:0|0:0,0:0:0:0:
235,214,57293,1,0,0:0:0:0:
235,214,57517,1,0,0:0:0:0:
142,294,57741,6,0,P|82:272|19:263,1,125,2|2,1:2|0:0,0:0:0:0:
21,263,58413,1,2,0:0:0:0:
148,374,58636,1,8,0:0:0:0:
148,374,58860,2,0,B|216:381|200:319|263:324,1,125,2|0,0:0|0:0,0:0:0:0:
455,370,59532,6,0,P|416:354|415:301,1,93.75,2|0,0:0|0:0,0:0:0:0:
411,307,59980,1,2,0:0:0:0:
349,263,60204,2,0,P|332:289|333:322,1,62.5,2|8,0:0|0:0,0:0:0:0:
495,313,60651,2,0,P|487:273|401:233,1,125,2|0,0:0|0:0,0:0:0:0:
273,231,61323,6,0,P|257:183|262:136,1,93.75,2|0,1:2|0:0,0:0:0:0:
260,140,61771,1,2,0:0:0:0:
347,184,61995,2,0,P|388:181|479:158,2,125,2|2|2,0:0|0:0|0:0,0:0:0:0:
235,66,63114,5,0,0:0:0:0:
235,66,63338,2,0,P|202:83|183:106,1,62.5,2|0,0:0|1:0,0:0:0:0:
110,111,63786,2,0,P|90:154|106:234,1,125,2|0,0:0|0:0,0:0:0:0:
164,278,64457,2,0,P|183:247|182:216,1,62.5,2|2,0:0|0:0,0:0:0:0:
5,128,64905,6,0,P|71:112|144:23,1,187.5,0|0,1:0|0:0,0:0:0:0:
144,22,65801,1,8,0:0:0:0:
338,212,66248,6,0,P|351:178|341:147,1,62.5,2|0,0:0|0:0,0:0:0:0:
263,145,66696,2,0,P|249:178|259:209,1,62.5,2|0,0:0|0:0,0:0:0:0:
291,280,67144,1,2,0:0:0:0:
499,66,67592,6,0,P|472:23|417:26,1,93.75,10|0,0:0|0:0,0:0:0:0:
411,33,68039,2,0,P|400:53|407:95,1,62.5,2|2,0:0|0:0,0:0:0:0:
501,270,68487,6,0,P|435:247|361:237,1,141.250000431061,2|0,1:2|0:0,0:0:0:0:
290,259,69159,1,0,0:0:0:0:
501,174,69383,6,0,P|444:185|403:272,1,156.25,8|0,1:0|0:0,0:0:0:0:
450,347,70054,1,2,0:0:0:0:
290,259,70278,6,0,P|279:245|274:221,3,39.0625,2|2|10|2,1:2|0:0|0:1|0:0,0:0:0:0:
341,318,70726,6,0,P|344:342|336:360,3,39.0625,2|2|2|2,0:0|0:0|1:2|1:2,0:0:0:0:
270,332,71174,6,0,L|224:326,1,39.0625,2|2,1:2|0:0,0:0:0:0:
173,276,71398,2,0,L|134:281,1,39.0625,2|2,1:2|0:0,0:0:0:0:
67,307,71622,5,8,1:0:0:0:
52,319,71733,1,2,0:0:0:0:
44,337,71845,2,0,P|39:357|48:379,1,39.0625,2|2,0:0|0:0,0:0:0:0:
108,210,72069,6,0,P|108:159|57:73,1,140.625005364418,6|0,1:2|0:0,0:0:0:0:
0,53,72517,2,0,P|14:86|119:88,1,140.625005364418,2|0,0:0|0:0,0:0:0:0:
183,6,72965,2,0,B|281:-11|250:90|347:79,1,187.500007152558,10|2,0:1|0:0,0:0:0:0:
342,79,73636,1,0,0:0:0:0:
500,7,73860,6,0,P|379:13|331:247,1,375.000014305115,2|8,1:2|0:1,0:0:0:0:
412,252,74980,2,0,P|397:212|313:234,1,140.625005364418
315,226,75427,2,0,P|328:258|320:283,1,46.8750017881394,2|0,0:0|0:0,0:0:0:0:
204,373,75651,6,0,P|126:340|16:322,1,187.500007152558,2|0,1:2|0:0,0:0:0:0:
25,322,76323,1,0,0:0:0:0:
210,191,76547,6,0,P|230:148|69:49,1,281.250010728836,10|0,0:1|0:0,0:0:0:0:
55,154,77442,2,0,P|92:135|136:127,2,84.3750003218651,2|0|0,0:0|0:0|1:0,0:0:0:0:
12,223,78114,5,2,0:0:0:0:
211,19,78338,1,10,0:1:0:0:
211,19,78562,1,2,0:0:0:0:
302,113,78786,2,0,P|273:124|256:140,1,50
489,60,79233,6,0,P|483:14|470:-6,1,62.5,2|0,1:2|0:0,0:0:0:0:
369,23,79681,2,0,P|374:68|387:88,1,62.5,2|0,0:0|0:0,0:0:0:0:
490,207,80129,6,0,P|484:252|471:272,1,62.5,10|0,0:1|0:0,0:0:0:0:
370,244,80577,2,0,P|375:198|388:178,1,62.5,2|0,0:0|0:0,0:0:0:0:
402,344,81025,6,0,P|336:342|241:378,1,156.25,2|0,0:0|1:0,0:0:0:0:
251,371,81696,1,2,0:0:0:0:
172,348,81920,1,8,0:1:0:0:
142,179,82144,2,0,P|195:206|232:303,1,156.25,2|0,0:0|0:0,0:0:0:0:
62,157,82816,6,0,P|79:91|84:-1,2,156.25,2|0|8,1:2|0:0|0:1,0:0:0:0:
9,222,83935,2,0,B|36:250|32:293|32:293|44:251|92:236,1,156.25,2|2,0:0|0:0,0:0:0:0:
263,59,84607,6,0,P|221:38|216:121,1,156.25,2|2,1:2|0:0,0:0:0:0:
289,142,85278,1,2,0:0:0:0:
183,337,85502,2,0,P|140:321|91:310,1,78.125,8|0,0:1|0:0,0:0:0:0:
325,367,85950,5,2,0:0:0:0:
356,344,86062,1,2,0:0:0:0:
394,338,86174,1,2,0:0:0:0:
430,351,86286,1,2,0:0:0:0:
456,376,86398,6,0,P|495:304|452:209,1,187.500007152558,2|2,1:2|0:0,0:0:0:0:
370,257,87069,1,2,0:0:0:0:
485,121,87293,1,8,0:1:0:0:
407,69,87517,2,0,P|384:112|456:212,1,187.500007152558,2|2,0:0|0:0,0:0:0:0:
212,13,88189,6,0,P|117:17|27:38,1,187.500007152558,2|0,1:2|0:0,0:0:0:0:
27,37,88860,1,2,0:0:0:0:
143,136,89084,1,8,0:1:0:0:
319,4,89308,2,0,P|289:59|284:141,1,140.625005364418,2|0,0:0|0:0,0:0:0:0:
301,177,89756,2,0,P|282:154|260:143,1,46.8750017881394,2|0,0:0|0:0,0:0:0:0:
8,188,89980,6,0,B|23:107|164:105|155:279|57:207|90:338,1,281.250010728836,2|2,1:2|0:0,0:0:0:0:
273,285,90875,6,0,B|280:253|306:241|306:241|237:209|144:263|168:360,1,281.250010728836,10|0,0:1|0:0,0:0:0:0:
363,384,91771,2,0,P|363:340|335:297,2,84.3750003218651,2|0|0,0:0|0:0|1:0,0:0:0:0:
263,369,92442,5,2,0:0:0:0:
428,159,92666,1,10,0:1:0:0:
428,159,92890,1,2,0:0:0:0:
433,247,93114,2,0,P|410:247|385:237,1,50
264,71,93562,6,0,P|236:54|199:53,1,62.5,2|0,1:2|0:0,0:0:0:0:
142,1,94010,2,0,P|114:16|96:41,1,62.5,2|0,0:0|0:0,0:0:0:0:
79,232,94457,6,0,P|48:229|21:212,1,62.5,10|0,0:1|0:0,0:0:0:0:
32,132,94905,2,0,P|19:103|21:73,1,62.5,2|0,0:0|0:0,0:0:0:0:
213,142,95353,6,0,P|165:198|193:284,1,156.25,2|2,0:0|1:2,0:0:0:0:
181,273,96025,1,2,0:0:0:0:
256,221,96248,1,8,0:1:0:0:
247,343,96472,2,0,P|210:306|114:338,1,156.25,2|0,0:0|0:0,0:0:0:0:
27,359,97144,6,0,P|154:345|263:326,1,234.375,2|0,1:2|0:0,0:0:0:0:
365,230,98039,2,0,P|335:256|324:298,1,78.125,10|0,0:1|0:0,0:0:0:0:
451,362,98487,2,0,P|439:325|409:300,1,78.125,2|0,0:0|0:0,0:0:0:0:
357,373,98935,6,0,P|365:329|396:220,1,156.25,2|2,1:2|0:0,0:0:0:0:
391,145,99607,1,2,0:0:0:0:
472,21,99830,5,2,3:0:0:0:
472,21,99942,1,2,3:0:0:0:
472,21,100054,1,2,3:0:0:0:
495,103,100278,1,0,0:0:0:0:
264,28,100502,5,2,3:0:0:0:
264,28,100614,1,2,3:0:0:0:
264,28,100726,2,0,P|191:26|71:66,1,187.500007152558,2|0,1:2|0:0,0:0:0:0:
57,176,101398,2,0,P|65:160|63:126,1,39.0625,2|0,0:0|0:0,0:0:0:0:
15,13,101622,2,0,P|-2:47|4:85,1,78.125,10|0,0:1|0:0,0:0:0:0:
361,217,102069,6,0,B|372:181|405:170|405:170|185:211|185:211|209:210|230:224,1,328.125012516976,2|0,1:2|0:0,0:0:0:0:
222,219,102965,2,0,B|279:214|240:169|311:155,1,93.7500035762788,0|0,1:0|0:0,0:0:0:0:
436,243,103413,1,8,0:1:0:0:
331,373,103636,6,0,P|313:321|396:313,1,140.625005364418,2|0,0:0|0:0,0:0:0:0:
379,296,104084,2,2,P|395:316|412:323,1,39.0625,0|0,0:0|0:0,0:0:0:0:
230,353,104308,6,0,P|206:361|191:372,3,39.0625,2|2|2|2,1:2|0:0|0:0|0:0,0:0:0:0:
122,279,104756,6,0,P|146:287|161:298,3,39.0625,2|2|2|2,0:0|0:0|0:0|0:0,0:0:0:0:
32,346,105204,6,0,P|15:364|7:381,3,39.0625,10|2|2|2,0:1|0:0|0:0|0:0,0:0:0:0:
103,182,105651,6,0,P|95:158|84:143,3,39.0625,2|2|2|2,0:0|0:0|0:0|0:0,0:0:0:0:
192,223,106099,5,2,3:2:0:0:
237,235,106211,1,2,0:0:0:0:
282,221,106323,1,2,0:0:0:0:
313,192,106435,1,2,0:0:0:0:
325,156,106547,1,2,1:2:0:0:
316,124,106659,1,2,0:0:0:0:
295,104,106771,1,2,0:0:0:0:
272,97,106883,1,2,0:0:0:0:
250,106,106995,6,0,P|268:174|289:297,1,187.500007152558,10|0,0:1|0:0,0:0:0:0:
285,366,107666,1,0,0:0:0:0:
488,330,107890,6,0,P|491:236|371:297,1,281.250010728836,2|0,1:2|0:0,0:0:0:0:
413,365,108786,2,0,P|441:331|492:331,1,93.7500035762788,8|2,0:1|0:0,0:0:0:0:
215,323,109233,6,0,P|133:301|21:254,1,187.500007152558,2|0,1:2|0:0,0:0:0:0:
26,252,109905,1,0,0:0:0:0:
141,375,110129,2,0,P|171:339|215:323,1,93.7500035762788,0|0,1:0|0:0,0:0:0:0:
209,41,110577,6,0,P|148:112|169:201,1,187.500007152558,8|2,0:1|0:0,0:0:0:0:
251,136,111248,1,2,0:0:0:0:
467,12,111472,6,0,P|399:86|358:273,1,281.250010728836,2|2,1:2|0:0,0:0:0:0:
363,270,112256,1,2,0:0:0:0:
370,283,112368,2,0,B|405:206|348:94|211:111|165:216|210:281|210:281|263:277|286:323,1,468.750017881394,10|0,0:1|0:0,0:0:0:0:
217,364,113711,2,0,P|168:356|142:319,1,93.7500035762788,0|0,1:0|0:0,0:0:0:0:
80,54,114159,2,0,P|40:30|81:62,1,187.5,8|0,0:1|0:0,0:0:0:0:
156,36,115054,6,0,P|189:23|218:27,1,62.5,2|2,1:2|0:0,0:0:0:0:
278,62,115502,1,2,0:0:0:0:
428,18,115726,2,0,P|382:36|353:108,1,125,2|2,0:0|0:0,0:0:0:0:
396,165,116398,1,2,0:0:0:0:
278,62,116622,2,0,P|279:138|322:178,1,125,2|0,0:0|0:0,0:0:0:0:
396,165,117293,2,0,P|427:152|457:146,1,62.5
512,200,117741,5,10,0:1:0:0:
309,171,117965,1,2,0:1:0:0:
198,370,118636,6,0,P|219:345|215:309,1,62.5,2|2,1:2|0:0,0:0:0:0:
168,257,119084,1,2,0:0:0:0:
249,130,119308,2,0,P|272:180|243:246,1,125,2|2,0:0|0:0,0:0:0:0:
168,257,119980,1,2,0:0:0:0:
73,160,120204,2,0,P|147:169|211:190,1,125,2|0,0:0|0:0,0:0:0:0:
247,241,120875,5,0,1:0:0:0:
396,165,121099,1,2,0:1:0:0:
322,11,121323,1,10,0:1:0:0:
322,11,121547,1,2,0:1:0:0:
255,67,121771,2,0,P|236:36|232:9,1,62.5
396,165,122219,6,0,P|421:185|457:167,1,62.5,2|2,1:2|0:0,0:0:0:0:
494,120,122666,1,2,0:0:0:0:
334,102,122890,2,0,P|311:138|327:219,1,125,2|2,0:0|0:0,0:0:0:0:
400,247,123562,1,2,0:0:0:0:
418,83,123786,2,0,P|398:45|320:18,1,125,2|0,0:0|0:0,0:0:0:0:
260,63,124457,2,0,P|240:80|201:87,1,62.5
136,53,124905,5,2,0:1:0:0:
334,102,125129,1,2,0:1:0:0:
14,35,125801,6,0,P|47:113|75:219,1,187.5,2|0,1:2|0:0,0:0:0:0:
2,329,126696,2,0,P|6:301|21:268,1,62.5,8|2,0:0|0:0,0:0:0:0:
73,212,127144,1,2,0:0:0:0:
176,287,127368,1,2,0:0:0:0:
200,113,127592,6,0,P|170:157|177:289,1,187.5,2|0,0:0|0:0,0:0:0:0:
317,305,128487,2,0,P|346:260|339:128,1,187.5,10|0,0:1|0:0,0:0:0:0:
239,369,129383,6,0,P|265:308|319:306,1,125,2|2,1:2|0:0,0:0:0:0:
387,359,130054,1,0,0:0:0:0:
491,291,130278,2,0,P|478:254|480:197,1,93.75,10|0,0:1|0:0,0:0:0:0:
479,199,130726,1,2,0:0:0:0:
341,131,130950,6,0,P|326:98|381:25,1,125,2|0,0:0|0:0,0:0:0:0:
384,34,131622,2,0,P|366:64|331:82,1,62.5,2|2,0:0|0:0,0:0:0:0:
170,31,132069,6,0,P|85:14|6:74,1,187.5,10|2,0:0|0:0,0:0:0:0:
201,205,132965,6,0,P|226:169|215:83,1,125,2|2,1:2|0:0,0:0:0:0:
114,221,133636,2,0,P|132:260|212:294,1,125,2|2,0:0|0:0,0:0:0:0:
143,137,134308,1,2,0:0:0:0:
143,137,134532,2,0,P|99:133|30:185,1,125,2|0,0:0|0:0,0:0:0:0:
38,258,135204,1,0,1:0:0:0:
109,299,135427,1,2,0:1:0:0:
201,205,135651,5,10,0:1:0:0:
281,319,135875,2,0,P|260:345|250:379,2,62.5,2|2|2,0:1|0:0|0:0,0:0:0:0:
475,283,136547,6,0,P|417:298|348:276,1,125,2|2,1:2|0:0,0:0:0:0:
285,234,137219,2,0,B|263:172|311:168|291:101,2,125,2|2|2,0:0|0:0|0:0,0:0:0:0:
355,281,138338,2,0,P|378:312|336:376,1,125,2|0,0:0|0:0,0:0:0:0:
281,319,139010,1,0,0:0:0:0:
285,234,139233,1,8,0:0:0:0:
492,366,139681,5,2,0:0:0:0:
492,366,139905,1,2,0:0:0:0:
482,171,140129,6,0,P|413:182|353:203,1,125,2|2,1:2|0:0,0:0:0:0:
281,319,140801,2,0,P|267:287|278:254,1,62.5,2|8,0:0|0:0,0:0:0:0:
215,197,141248,2,0,P|235:168|269:161,1,62.5,2|0,0:0|0:0,0:0:0:0:
337,131,141696,1,2,0:0:0:0:
191,279,141920,6,0,P|147:252|131:184,1,125,2|0,0:0|1:0,0:0:0:0:
183,118,142592,1,2,0:1:0:0:
78,45,142816,2,0,P|57:67|49:97,1,62.5,2|2,0:1|0:1,0:0:0:0:
61,174,143263,1,2,0:0:0:0:
61,174,143487,1,2,0:0:0:0:
191,279,143711,6,0,P|125:296|65:316,1,125,2|2,1:2|0:0,0:0:0:0:
71,313,144383,1,2,0:0:0:0:
221,366,144607,1,8,0:0:0:0:
221,366,144830,2,0,P|260:346|282:271,1,125,2|0,0:0|0:0,0:0:0:0:
439,310,145502,6,0,P|391:304|354:340,1,93.75,2|0,0:0|0:0,0:0:0:0:
358,332,145950,1,2,0:0:0:0:
282,272,146174,2,0,P|276:233|316:155,1,125,2|2,0:0|0:0,0:0:0:0:
476,163,146845,2,0,P|454:139|381:135,1,93.75,2|2,0:0|0:0,0:0:0:0:
396,130,147293,6,0,P|388:179|431:241,1,125,2|2,0:0|0:0,0:0:0:0:
512,241,147965,1,2,0:0:0:0:
316,93,148189,1,8,0:0:0:0:
316,93,148413,2,0,P|338:62|363:51,1,62.5,2|0,0:0|0:0,0:0:0:0:
501,46,148860,2,0,B|465:39|443:62|443:62|448:28|422:4,2,125,2|2|2,0:0|0:0|0:0,0:0:0:0:
395,136,149980,6,0,P|330:136|287:183,1,125,10|0,0:1|0:0,0:0:0:0:
325,246,150651,1,0,0:0:0:0:
201,192,150875,6,0,P|203:132|216:-2,1,187.5,2|0,1:2|0:0,0:0:0:0:
215,5,151771,1,8,0:0:0:0:
107,247,152219,2,0,P|90:220|68:197,1,62.5,2|2,0:0|0:0,0:0:0:0:
128,139,152666,6,0,P|97:200|63:328,1,187.5,2|0,0:0|0:0,0:0:0:0:
151,375,153562,2,0,P|189:339|176:273,1,125,10|2,0:0|0:0,0:0:0:0:
65,314,154233,1,2,0:0:0:0:
212,203,154457,6,0,B|281:175|276:244|346:223,1,141.250000431061,2|0,1:2|0:0,0:0:0:0:
410,188,155129,1,0,0:0:0:0:
323,356,155353,6,0,P|299:298|346:221,1,156.25,8|0,0:1|0:0,0:0:0:0:
480,214,156025,1,0,0:0:0:0:
344,147,156248,6,0,P|333:133|331:104,3,39.0625,2|2|10|2,1:2|0:0|0:1|0:0,0:0:0:0:
348,39,156696,6,0,P|360:20|376:12,3,39.0625,2|2|2|2,0:0|0:0|1:2|1:2,0:0:0:0:
273,61,157144,6,0,B|256:59|256:59|251:56|251:56|233:55,1,39.0625,2|2,1:2|0:0,0:0:0:0:
409,98,157368,2,0,B|426:96|426:96|431:93|431:93|449:92,1,39.0625,2|2,1:2|0:0,0:0:0:0:
309,218,157592,5,10,0:1:0:0:
298,232,157704,1,2,0:0:0:0:
292,251,157816,2,0,P|289:265|292:289,1,39.0625,2|2,0:0|0:0,0:0:0:0:
243,175,158039,6,0,P|193:156|117:217,1,140.625005364418,6|0,1:2|0:0,0:0:0:0:
133,272,158487,2,0,P|137:223|110:117,1,140.625005364418,2|0,0:0|0:0,0:0:0:0:
33,93,158935,2,0,P|14:66|108:41,1,187.500007152558,10|2,0:1|0:0,0:0:0:0:
108,41,159607,1,0,0:0:0:0:
66,316,159830,6,0,B|47:326|32:353|32:353|-10:248|64:167|177:167|219:265,1,375.000014305115,2|8,1:2|0:1,0:0:0:0:
273,308,160950,2,0,P|249:359|169:361,1,140.625005364418
156,348,161398,2,0,P|148:323|153:292,1,46.8750017881394,2|0,0:0|0:0,0:0:0:0:
291,226,161622,6,0,P|326:218|481:206,1,187.500007152558,2|0,1:2|0:0,0:0:0:0:
476,205,162293,1,0,0:0:0:0:
402,362,162517,6,0,P|395:288|356:75,1,281.250010728836,10|0,0:1|0:0,0:0:0:0:
484,32,163413,2,0,P|471:79|465:118,2,84.3750003218651,2|0|0,0:0|0:0|1:0,0:0:0:0:
401,9,164084,5,2,0:0:0:0:
255,224,164308,1,10,0:1:0:0:
255,224,164532,1,2,0:0:0:0:
243,140,164756,2,0,P|267:137|290:146,1,50
445,273,165204,6,0,P|482:268|510:268,1,62.5,2|0,1:2|0:0,0:0:0:0:
501,183,165651,2,0,P|469:183|438:187,1,62.5,2|0,0:0|0:0,0:0:0:0:
317,342,166099,6,0,P|279:337|251:337,1,62.5,10|0,0:1|0:0,0:0:0:0:
261,252,166547,2,0,P|292:252|323:256,1,62.5,2|0,0:0|0:0,0:0:0:0:
498,364,166995,6,0,P|436:344|407:260,1,156.25,2|0,0:0|1:0,0:0:0:0:
406,263,167666,1,2,0:0:0:0:
438,187,167890,1,8,0:1:0:0:
323,75,168114,2,0,P|304:147|358:198,1,156.25,2|0,0:0|0:0,0:0:0:0:
219,329,168786,6,0,P|144:340|52:385,2,156.25,2|0|8,1:2|0:0|0:1,0:0:0:0:
334,325,169905,2,0,B|322:361|286:375|286:375|315:326|282:277,1,156.25,2|2,0:0|0:0,0:0:0:0:
143,160,170577,6,0,B|155:124|191:110|191:110|162:159|195:208,1,156.25,2|2,1:2|0:0,0:0:0:0:
228,251,171248,1,2,0:0:0:0:
335,164,171472,2,0,P|295:162|264:184,1,78.125,8|0,0:1|0:0,0:0:0:0:
98,374,171920,5,2,0:0:0:0:
99,334,172032,1,2,0:0:0:0:
80,299,172144,1,2,0:0:0:0:
45,281,172256,1,2,0:0:0:0:
6,284,172368,6,0,P|72:313|197:321,1,187.500007152558,2|2,1:2|0:0,0:0:0:0:
257,292,173039,1,2,0:0:0:0:
12,371,173263,1,8,0:1:0:0:
99,334,173487,2,0,P|121:294|33:204,1,187.500007152558,2|2,0:0|0:0,0:0:0:0:
246,21,174159,6,0,P|224:98|208:210,1,187.500007152558,2|0,1:2|0:0,0:0:0:0:
208,204,174830,1,2,0:0:0:0:
131,126,175054,1,8,0:1:0:0:
309,262,175278,2,0,P|351:258|362:164,1,140.625005364418,2|0,0:0|0:0,0:0:0:0:
350,153,175726,2,0,P|325:155|302:172,1,46.8750017881394,2|0,0:0|0:0,0:0:0:0:
387,341,175950,6,0,P|440:296|414:97,1,281.250010728836,2|2,1:2|0:0,0:0:0:0:
246,21,176845,6,0,B|237:51|206:66|206:66|377:35|377:35|355:46|345:69,1,281.250010728836,10|0,0:1|0:0,0:0:0:0:
291,215,177741,2,0,P|284:254|301:294,2,84.3750003218651,2|0|0,0:0|0:0|1:0,0:0:0:0:
350,153,178413,5,2,0:0:0:0:
120,211,178636,1,10,0:1:0:0:
120,211,178860,1,2,0:0:0:0:
162,136,179084,2,0,P|186:139|215:144,1,50
361,338,179532,6,0,B|344:343|334:354|334:354|335:339|328:325,1,62.5,2|0,1:2|0:0,0:0:0:0:
288,250,179980,2,0,B|277:236|264:230|264:230|278:226|290:214,1,62.5,2|0,0:0|0:0,0:0:0:0:
461,181,180427,6,0,B|477:186|491:183|491:183|482:194|480:210,1,62.5,10|0,0:1|0:0,0:0:0:0:
467,295,180875,2,0,B|467:312|474:325|474:325|460:319|444:322,1,62.5,2|0,0:0|0:0,0:0:0:0:
350,153,181323,6,0,P|354:74|436:44,1,156.25,2|2,0:0|1:2,0:0:0:0:
416,41,181995,1,2,0:0:0:0:
488,96,182219,1,8,0:1:0:0:
387,238,182442,6,0,P|354:191|256:189,1,156.25,2|0,0:0|0:0,0:0:0:0:
164,230,183114,6,0,B|216:266|204:332|204:332|237:273|304:277,1,234.375,2|0,1:2|0:0,0:0:0:0:
380,330,184010,1,10,0:1:0:0:
292,369,184233,1,0,0:0:0:0:
387,238,184457,2,0,P|426:245|456:271,1,78.125,2|0,0:0|0:0,0:0:0:0:
299,277,184905,6,0,P|230:310|146:302,1,156.25,2|2,1:2|0:0,0:0:0:0:
84,241,185577,1,2,0:0:0:0:
33,375,185801,1,2,3:0:0:0:
33,375,185913,1,2,3:0:0:0:
33,375,186025,1,2,3:0:0:0:
8,289,186248,1,0,0:0:0:0:
292,369,186472,5,2,3:0:0:0:
292,369,186584,1,2,3:0:0:0:
292,369,186696,2,0,B|250:268|326:279|296:185,1,187.500007152558,2|0,1:2|0:0,0:0:0:0:
205,152,187368,2,0,P|214:181|222:189,1,39.0625,2|0,0:0|0:0,0:0:0:0:
353,132,187592,2,0,P|344:93|299:66,1,78.125,10|0,0:1|0:0,0:0:0:0:
59,237,188039,6,0,B|35:243|21:271|21:271|-6:202|31:131|54:161|95:84|46:10,1,328.125012516976,2|0,1:2|0:0,0:0:0:0:
47,12,188935,2,0,P|30:65|48:110,1,93.7500035762788,0|0,1:0|0:0,0:0:0:0:
235,79,189383,1,8,0:1:0:0:
205,152,189607,5,2,0:0:0:0:
156,89,189830,2,0,P|163:43|199:9,1,93.7500035762788
347,215,190278,6,0,P|369:209|382:197,3,39.0625,2|2|2|2,1:2|0:0|0:0|0:0,0:0:0:0:
450,220,190726,6,0,P|455:197|451:180,3,39.0625,2|2|2|2,0:0|0:0|0:0|0:0,0:0:0:0:
512,104,191174,6,0,P|495:87|478:82,3,39.0625,10|2|2|2,0:1|0:0|0:0|0:0,0:0:0:0:
393,0,191622,6,0,P|371:5|358:17,3,39.0625,2|2|2|2,0:0|0:0|0:0|0:0,0:0:0:0:
265,36,192069,5,2,3:2:0:0:
282,79,192181,1,2,0:0:0:0:
266,123,192293,1,2,0:0:0:0:
227,140,192405,1,2,0:0:0:0:
189,134,192517,1,2,1:2:0:0:
164,111,192629,1,2,0:0:0:0:
138,98,192741,1,2,0:0:0:0:
114,101,192853,1,2,0:0:0:0:
90,115,192965,6,0,P|72:193|165:197,1,187.500007152558,10|0,0:1|0:0,0:0:0:0:
189,134,193636,1,0,0:0:0:0:
11,40,193860,6,0,P|74:28|308:6,1,281.250010728836,2|0,1:2|0:0,0:0:0:0:
337,73,194756,2,0,P|298:52|293:-3,1,93.7500035762788,8|2,0:1|0:0,0:0:0:0:
431,43,195204,6,0,B|457:90|425:144|410:118|382:168|407:218,1,187.500007152558,2|0,1:2|0:0,0:0:0:0:
406,217,195875,1,0,0:0:0:0:
479,270,196099,2,0,P|500:243|491:188,1,93.7500035762788,0|0,1:0|0:0,0:0:0:0:
324,335,196547,6,0,P|263:307|338:264,1,187.500007152558,8|2,0:1|0:0,0:0:0:0:
404,309,197219,1,2,0:0:0:0:
155,159,197442,6,0,B|114:226|217:272|258:220|262:102|185:56,1,281.250010728836,2|2,1:2|0:0,0:0:0:0:
184,58,198226,1,2,0:0:0:0:
163,60,198338,2,0,B|218:142|329:89|275:38|356:-30|431:-21|520:21|496:141|415:158|373:111,1,468.750017881394,10|0,0:1|0:0,0:0:0:0:
278,46,199681,2,0,B|258:24|274:2|274:2|292:18|283:45,1,93.7500035762788,0|0,1:0|0:0,0:0:0:0:
240,309,200129,2,0,B|296:316|310:366|310:366|312:316|357:291,1,187.5,8|0,0:1|0:0,0:0:0:0:
433,310,201025,6,0,P|481:360|428:314,1,187.5,2|0,1:2|0:0,0:0:0:0:
342,263,201920,2,0,P|293:313|346:267,1,187.5,10|0,0:0|0:0,0:0:0:0:
406,202,202816,2,0,P|473:185|407:207,1,187.5,2|0,0:0|0:0,0:0:0:0:
318,166,203711,2,0,P|267:117|313:170,1,187.5,10|2,0:0|0:0,0:0:0:0:
392,98,204607,6,0,P|355:53|234:49,1,187.5,2|2,1:2|0:0,0:0:0:0:
138,18,205502,2,0,P|117:72|174:179,1,187.5,10|2,0:0|0:0,0:0:0:0:
196,278,206398,2,0,P|253:268|317:165,1,187.5,2|0,0:0|0:0,0:0:0:0:
242,127,207293,5,10,0:1:0:0:
94,358,207741,1,10,0:0:0:0:
94,358,207965,1,2,0:0:0:0:
20,310,208189,6,0,P|26:233|46:109,1,187.5,2|0,1:2|0:0,0:0:0:0:
134,20,209084,2,0,P|148:112|156:205,1,187.5,10|0,0:0|0:0,0:0:0:0:
220,285,209980,6,0,P|287:304|331:234,1,159.375003039837,2|0,0:0|0:0,0:0:0:0:
424,203,210875,2,0,P|406:135|324:132,1,159.375003039837,10|0,0:0|0:0,0:0:0:0:
253,188,211771,6,0,B|224:150|224:150|236:59,1,131.249995994568,2|0,1:2|0:0,0:0:0:0:
309,9,212666,2,0,B|338:47|338:47|326:138,1,131.249995994568,10|2,0:0|0:0,0:0:0:0:
340,219,213562,6,0,B|371:228|378:268|378:268|389:230|422:221,1,131.249995994568,2|0,0:0|0:0,0:0:0:0:
500,200,214457,5,10,0:1:0:0:
500,200,214681,1,2,0:0:0:0:
469,120,214905,1,10,0:0:0:0:
491,349,215353,6,0,B|454:300|384:341|414:364|359:390|314:358,1,187.5,2|0,1:2|0:0,0:0:0:0:
182,307,216248,2,0,B|218:355|289:315|259:292|313:265|359:298,1,187.5,10|2,0:0|0:0,0:0:0:0:
323,363,217144,6,0,P|296:322|297:211,1,159.375003039837,2|0,0:0|0:0,0:0:0:0:
218,193,218039,2,0,P|240:149|336:94,1,159.375003039837,10|2,0:0|0:0,0:0:0:0:
480,84,218935,6,0,B|443:90|427:122|427:122|428:87|400:64,1,131.249995994568,2|2,1:2|0:0,0:0:0:0:
268,28,219830,2,0,B|304:34|320:66|320:66|319:31|347:8,1,131.249995994568,10|2,0:0|0:0,0:0:0:0:
342,158,220726,6,0,P|297:145|238:139,1,103.125003147125,2|0,0:0|0:0,0:0:0:0:
172,67,221622,2,0,P|126:78|72:102,1,103.125003147125,10|0,0:0|0:0,0:0:0:0:
19,162,222517,6,0,B|-27:218|5:360|172:344|232:225|189:133|84:144|83:208|83:208|104:192|126:192,1,468.750017881394,2|0,1:2|0:0,0:0:0:0:
302,315,225204,6,0,P|268:285|222:284,1,93.75,2|2,0:0|0:0,0:0:0:0:
172,360,226099,5,2,0:0:0:0:
495,366,238636,6,0,P|466:302|468:215,1,156.25,2|2,0:0|0:0,0:0:0:0:
512,69,239308,1,2,1:2:0:0:
512,69,239420,1,0,1:0:0:0:
512,69,239532,1,0,1:0:0:0:
447,131,239756,1,0,1:0:0:0:
219,25,239980,6,0,P|264:23|285:84,1,117.1875,8|0,0:1|0:0,0:0:0:0:
272,111,240427,6,0,P|191:105|77:81,1,187.500007152558,2|2,1:2|0:0,0:0:0:0:
18,40,241099,1,2,0:0:0:0:
140,141,241323,1,8,0:1:0:0:
14,235,241547,2,0,B|27:187|72:177|72:177|99:227|156:218,1,187.500007152558,2|2,0:0|0:0,0:0:0:0:
321,76,242219,6,0,P|271:74|226:186,1,187.500007152558,2|0,1:2|0:0,0:0:0:0:
331,177,242890,1,2,0:0:0:0:
209,65,243114,1,8,0:1:0:0:
371,13,243338,2,0,P|406:55|386:136,1,140.625005364418,2|0,0:0|0:0,0:0:0:0:
388,133,243786,2,0,P|367:115|344:107,1,46.8750017881394,2|0,0:0|0:0,0:0:0:0:
172,263,244010,6,6,B|135:304|135:361|135:361|53:222|145:112,1,375,6|0,1:0|0:0,0:1:0:0:
278,49,244905,6,2,B|236:53|222:91|222:91|207:40|162:20|113:24|81:66|81:66|80:26|44:7,1,328.125003129244,10|0,0:1|0:0,0:1:0:0:
115,160,245801,6,0,B|137:185|112:208|143:248,2,84.3750003218651,2|2|2,0:0|0:0|1:2,0:0:0:0:
22,141,246472,5,2,0:0:0:0:
213,304,246696,1,10,0:1:0:0:
213,304,246920,1,0,0:0:0:0:
269,229,247144,2,0,P|262:205|243:184,1,50
0,316,247592,6,0,P|-7:347|6:371,1,62.5,2|0,1:2|0:0,0:0:0:0:
94,359,248039,2,0,P|101:327|87:303,1,62.5,2|0,0:0|0:0,0:0:0:0:
302,290,248487,6,0,P|309:321|295:345,1,62.5,10|0,0:1|0:0,0:0:0:0:
208,333,248935,2,0,P|200:301|214:277,1,62.5,2|0,0:0|0:0,0:0:0:0:
392,314,249383,6,0,B|434:329|442:372|442:372|457:332|495:320,1,156.25,2|2,0:0|1:2,0:0:0:0:
493,320,250054,1,2,0:0:0:0:
452,236,250278,1,8,0:1:0:0:
313,360,250502,2,0,P|303:285|355:229,1,156.25,2|0,0:0|0:0,0:0:0:0:
512,162,251174,6,0,P|428:151|272:103,1,234.375,2|0,1:2|0:0,0:0:0:0:
423,2,252069,2,0,P|439:39|449:79,1,78.125,10|0,0:1|0:0,0:0:0:0:
329,166,252517,2,0,P|338:128|354:92,1,78.125,2|0,0:0|0:0,0:0:0:0:
158,18,252965,6,0,B|134:32|127:66|127:66|159:100|167:153,1,156.25,2|2,1:2|0:0,0:0:0:0:
209,220,253636,1,2,0:0:0:0:
95,327,253860,5,2,3:0:0:0:
75,320,253972,1,2,3:0:0:0:
60,307,254084,1,2,3:0:0:0:
57,219,254308,1,0,0:0:0:0:
231,368,254532,5,2,3:0:0:0:
231,368,254644,1,2,3:0:0:0:
231,368,254756,2,0,B|268:321|329:340|318:361|370:375|403:343,1,187.500007152558,2|2,1:2|0:0,0:0:0:0:
407,230,255427,2,0,P|394:249|392:270,1,39.0625,2|0,0:0|0:0,0:0:0:0:
483,365,255651,2,0,P|486:327|454:283,1,78.125,10|0,0:1|0:0,0:0:0:0:
272,179,256099,6,0,P|253:162|314:89,1,140.625005364418,2|0,0:0|0:0,0:0:0:0:
329,99,256547,6,0,P|321:182|301:335,1,218.750002086163,0|2,1:0|0:0,0:0:0:0:
391,264,257219,1,0,0:0:0:0:
272,179,257442,1,10,0:1:0:0:
405,118,257666,6,0,P|394:58|315:24,1,140.625005364418,2|0,0:0|0:0,0:0:0:0:
303,25,258114,2,0,P|279:34|264:58,1,39.0625,2|0,1:2|0:0,0:0:0:0:
129,156,258338,6,0,P|117:144|109:115,3,39.0625,2|2|2|2,1:2|0:0|0:0|0:0,0:0:0:0:
189,218,258786,6,0,P|201:230|209:259,3,39.0625,2|2|2|2,0:0|0:0|0:0|0:0,0:0:0:0:
185,102,259233,6,0,P|197:90|226:82,3,39.0625,10|2|2|2,0:1|0:0|0:0|0:0,0:0:0:0:
133,272,259681,6,0,P|121:284|92:292,3,39.0625,2|2|2|2,0:0|0:0|0:0|0:0,0:0:0:0:
306,232,260129,5,2,0:0:0:0:
350,218,260241,1,2,0:0:0:0:
396,227,260353,1,2,0:0:0:0:
429,252,260465,1,2,0:0:0:0:
445,285,260577,1,2,1:2:0:0:
412,285,260689,1,2,0:0:0:0:
389,301,260801,1,2,0:0:0:0:
374,319,260913,1,2,0:0:0:0:
368,336,261025,6,0,P|368:267|405:148,1,187.500007152558,10|0,0:1|0:0,0:0:0:0:
451,91,261696,1,0,0:0:0:0:
223,13,261920,6,0,P|189:62|332:126,1,281.250010728836,2|0,1:2|0:0,0:0:0:0:
351,50,262816,2,0,P|309:49|267:81,1,93.7500035762788,8|2,0:1|0:0,0:0:0:0:
46,163,263263,6,0,B|0:124|32:82|32:82|84:99|64:160,1,187.500007152558,2|0,0:2|0:0,0:0:0:0:
71,262,263935,1,0,0:0:0:0:
149,191,264159,2,0,B|178:183|172:156|172:156|145:153|140:182,1,93.7500035762788,0|0,1:0|0:0,0:0:0:0:
2,341,264607,6,0,P|77:289|164:314,1,187.500007152558,8|2,0:1|0:0,0:0:0:0:
217,371,265278,1,2,0:0:0:0:
303,159,265502,6,0,B|350:266|293:351|293:351|280:308|238:297,1,281.250010728836,2|2,1:2|0:0,0:0:0:0:
215,294,266286,1,2,0:0:0:0:
199,280,266398,2,0,B|307:249|413:313|413:313|404:346|425:377,1,281.250010728836,10|2,0:1|0:0,0:0:0:0:
510,375,267181,5,2,0:0:0:0:
510,375,267293,2,0,P|520:329|499:284,1,93.7500035762788,2|0,1:2|0:0,0:0:0:0:
438,220,267741,1,2,0:0:0:0:
438,220,267965,1,2,0:0:0:0:
508,115,268189,6,0,P|518:63|407:17,1,187.5,8|0,0:1|0:0,0:0:0:0:
360,63,269084,5,2,0:0:0:0:
295,240,270427,5,2,0:0:0:0:
146,181,272666,6,0,B|123:140|84:107|82:170|-27:108|9:-5|84:-9|123:34|123:34|146:-20|218:-37|288:59|205:150|180:97|154:130|149:164,1,562.500021457673,2|0,0:0|0:0,0:0:0:0:
507,138,276248,6,0,P|520:104|511:76,1,62.5,2|2,1:2|0:0,0:0:0:0:
466,20,276696,1,2,0:0:0:0:
439,199,276920,2,0,P|423:159|354:118,1,125,2|2,0:0|0:0,0:0:0:0:
279,138,277592,1,2,0:0:0:0:
404,277,277816,2,0,P|365:260|287:279,1,125,2|0,0:0|0:0,0:0:0:0:
250,356,278487,2,0,P|231:330|202:310,1,62.5
131,280,278935,5,10,0:1:0:0:
351,351,279159,1,2,0:1:0:0:
6,372,279830,6,0,P|11:336|19:295,1,62.5,2|2,1:2|0:0,0:0:0:0:
34,237,280278,1,2,0:0:0:0:
196,229,280502,2,0,P|189:176|171:98,1,125,2|2,0:0|0:0,0:0:0:0:
139,27,281174,1,2,0:0:0:0:
4,132,281398,2,0,B|65:114|52:183|117:168,1,125,2|0,0:0|0:0,0:0:0:0:
173,106,282069,5,0,1:0:0:0:
113,269,282293,1,2,0:1:0:0:
8,136,282517,1,10,0:1:0:0:
8,136,282741,1,2,0:1:0:0:
95,145,282965,2,0,P|91:175|69:201,1,62.5
173,106,283413,6,0,P|212:103|243:122,1,62.5,2|2,1:2|0:0,0:0:0:0:
287,168,283860,1,2,0:0:0:0:
410,68,284084,2,0,P|370:52|304:94,1,125,2|2,0:0|0:0,0:0:0:0:
287,168,284756,1,2,0:0:0:0:
474,125,284980,2,0,P|494:92|465:4,1,125,2|0,0:0|0:0,0:0:0:0:
410,68,285651,2,0,P|388:100|387:127,1,62.5
429,197,286099,5,2,0:1:0:0:
346,14,286323,1,2,0:1:0:0:
267,307,286995,6,0,B|279:243|354:239|354:239|372:276|416:280,1,187.5,2|0,1:2|0:0,0:0:0:0:
486,177,287890,2,0,P|448:182|425:202,1,62.5,8|2,0:0|0:0,0:0:0:0:
470,315,288338,2,0,P|485:279|479:249,1,62.5,2|2,0:0|0:0,0:0:0:0:
363,360,288786,6,0,P|267:336|171:328,1,187.5,2|0,0:0|0:0,0:0:0:0:
34,372,289751,6,0,P|65:361|89:221,1,187.5,10|0,0:1|0:0,0:0:0:0:
34,141,291214,6,0,B|30:138|33:140|13:146,2,15.625,2|2|2,0:0|0:0|0:0,0:0:0:0:
34,141,291448,6,0,B|-36:65|72:-30|184:-5|213:110|208:119|231:207|279:225|350:240|435:179|398:93|361:69|325:66,1,609.375,2|2,0:0|0:0,0:0:0:0:
265,46,294651,6,0,P|257:39|256:31,3,15.625,2|2|2|2,0:0|0:0|0:0|0:0,0:0:0:0:
256,192,294964,12,0,299339,0:0:0:0:
