osu file format v14

[General]
AudioFilename: audio.mp3
AudioLeadIn: 0
PreviewTime: 28327
Countdown: 0
SampleSet: Normal
StackLeniency: 0.7
Mode: 3
LetterboxInBreaks: 0
SpecialStyle: 0
WidescreenStoryboard: 1

[Editor]
Bookmarks: 12327,28327,60327,84327,116327,137527
DistanceSpacing: 1.5
BeatDivisor: 4
GridSize: 4
TimelineZoom: 1.4

[Metadata]
Title:a perfect triangle, rising sun human
TitleUnicode:綺麗な三角、朝日にんげん
Artist:JYOCHO
ArtistUnicode:JYOCHO
Creator:Disguise
Version:normal
Source:
Tags:daijiro nakagawa だいじろー Nekota Netako 猫田ねたこ sindee シンディ Yuuki Hayashi はやしゆうき Kojiro Yamazaki 山﨑浩二朗 NBPC-0073 2nd EP extended play math rock mathrock kirei na sankaku asahi ningen mukotsuu kot japanese
BeatmapID:4290066
BeatmapSetID:2042835

[Difficulty]
HPDrainRate:7.5
CircleSize:4
OverallDifficulty:7
ApproachRate:5
SliderMultiplier:1.4
SliderTickRate:1

[Events]
//Background and Video events
0,0,"bg.jpg",0,0
//Break Periods
//Storyboard Layer 0 (Background)
//Storyboard Layer 1 (Fail)
//Storyboard Layer 2 (Pass)
//Storyboard Layer 3 (Foreground)
//Storyboard Layer 4 (Overlay)
//Storyboard Sound Samples

[TimingPoints]
327,200,5,1,1,35,1,0
28327,-100,5,1,1,35,0,1
35627,-100,5,1,1,35,0,0
36327,-100,5,1,1,35,0,1
43627,-100,5,1,1,35,0,0
44327,-100,5,1,1,35,0,1
51827,-100,5,1,1,35,0,0
52327,-100,5,1,1,35,0,1
60327,-100,5,1,1,35,0,0
84327,-100,5,1,1,35,0,1
91627,-100,5,1,1,35,0,0
92327,-100,5,1,1,35,0,1
99627,-100,5,1,1,35,0,0
100327,-100,5,1,1,35,0,1
107627,-100,5,1,1,35,0,0
108327,-100,5,1,1,35,0,1
116327,-100,5,1,1,35,0,0
125527,200,5,1,1,35,1,0

[HitObjects]
64,192,427,5,0,0:0:0:0:
448,192,427,1,0,0:0:0:0:
320,192,727,1,0,0:0:0:0:
192,192,1127,1,0,0:0:0:0:
448,192,1527,1,0,0:0:0:0:
320,192,1527,1,0,0:0:0:0:
64,192,2827,1,0,0:0:0:0:
320,192,2827,1,0,0:0:0:0:
192,192,3027,1,0,0:0:0:0:
448,192,3327,1,0,0:0:0:0:
64,192,3527,1,0,0:0:0:0:
320,192,3927,1,0,0:0:0:0:
448,192,3927,1,0,0:0:0:0:
64,192,4327,1,0,0:0:0:0:
192,192,4327,1,0,0:0:0:0:
320,192,4527,1,0,0:0:0:0:
192,192,4627,1,0,0:0:0:0:
448,192,4727,1,0,0:0:0:0:
64,192,4827,1,0,0:0:0:0:
192,192,5027,1,0,0:0:0:0:
320,192,5127,1,0,0:0:0:0:
64,192,5227,1,0,0:0:0:0:
448,192,5327,1,0,0:0:0:0:
192,192,5827,1,0,0:0:0:0:
64,192,6027,1,0,0:0:0:0:
192,192,6127,1,0,0:0:0:0:
320,192,6227,1,0,0:0:0:0:
64,192,6327,1,0,0:0:0:0:
320,192,6527,1,0,0:0:0:0:
448,192,6627,1,0,0:0:0:0:
64,192,6727,1,0,0:0:0:0:
192,192,6827,1,0,0:0:0:0:
64,192,7327,1,0,0:0:0:0:
320,192,7827,1,0,0:0:0:0:
192,192,8327,1,0,0:0:0:0:
320,192,8527,1,0,0:0:0:0:
192,192,8627,1,0,0:0:0:0:
448,192,8727,1,0,0:0:0:0:
64,192,8827,1,0,0:0:0:0:
192,192,9027,1,0,0:0:0:0:
320,192,9127,1,0,0:0:0:0:
64,192,9227,1,0,0:0:0:0:
448,192,9327,1,0,0:0:0:0:
192,192,9827,1,0,0:0:0:0:
64,192,10027,1,0,0:0:0:0:
192,192,10127,1,0,0:0:0:0:
320,192,10227,1,0,0:0:0:0:
64,192,10327,1,0,0:0:0:0:
320,192,10527,1,0,0:0:0:0:
448,192,10627,1,0,0:0:0:0:
64,192,10727,1,0,0:0:0:0:
192,192,10827,1,0,0:0:0:0:
64,192,11327,1,0,0:0:0:0:
320,192,11527,1,0,0:0:0:0:
192,192,11627,1,0,0:0:0:0:
448,192,11727,1,0,0:0:0:0:
320,192,11827,1,0,0:0:0:0:
64,192,12027,1,0,0:0:0:0:
192,192,12127,1,0,0:0:0:0:
320,192,12227,1,0,0:0:0:0:
448,192,12327,1,0,0:0:0:0:
192,192,12427,1,0,0:0:0:0:
64,192,12427,1,0,0:0:0:0:
448,192,12627,1,0,0:0:0:0:
320,192,12727,1,0,0:0:0:0:
64,192,12727,1,0,0:0:0:0:
192,192,12927,1,0,0:0:0:0:
320,192,13027,1,0,0:0:0:0:
448,192,13027,1,0,0:0:0:0:
192,192,13227,1,0,0:0:0:0:
320,192,13427,1,0,0:0:0:0:
448,192,13427,1,0,0:0:0:0:
192,192,13627,1,0,0:0:0:0:
320,192,13827,1,0,0:0:0:0:
64,192,13927,1,0,0:0:0:0:
448,192,13927,1,0,0:0:0:0:
320,192,14127,1,0,0:0:0:0:
64,192,14227,1,0,0:0:0:0:
192,192,14227,1,0,0:0:0:0:
192,192,14627,1,0,0:0:0:0:
448,192,14727,1,0,0:0:0:0:
64,192,14727,1,0,0:0:0:0:
320,192,14927,1,0,0:0:0:0:
64,192,15027,1,0,0:0:0:0:
192,192,15027,1,0,0:0:0:0:
448,192,15227,1,0,0:0:0:0:
64,192,15427,1,0,0:0:0:0:
192,192,15427,1,0,0:0:0:0:
448,192,15627,1,0,0:0:0:0:
192,192,15827,1,0,0:0:0:0:
448,192,15927,1,0,0:0:0:0:
320,192,15927,1,0,0:0:0:0:
64,192,16127,1,0,0:0:0:0:
192,192,16327,1,0,0:0:0:0:
320,192,16427,1,0,0:0:0:0:
448,192,16427,1,0,0:0:0:0:
192,192,16627,1,0,0:0:0:0:
64,192,16727,1,0,0:0:0:0:
448,192,16727,1,0,0:0:0:0:
192,192,16927,1,0,0:0:0:0:
64,192,17027,1,0,0:0:0:0:
320,192,17027,1,0,0:0:0:0:
192,192,17227,1,0,0:0:0:0:
64,192,17427,1,0,0:0:0:0:
320,192,17427,1,0,0:0:0:0:
192,192,17627,1,0,0:0:0:0:
448,192,17827,1,0,0:0:0:0:
320,192,17927,1,0,0:0:0:0:
64,192,17927,1,0,0:0:0:0:
448,192,18127,1,0,0:0:0:0:
192,192,18227,1,0,0:0:0:0:
64,192,18227,1,0,0:0:0:0:
320,192,18627,1,0,0:0:0:0:
448,192,18727,1,0,0:0:0:0:
192,192,18727,1,0,0:0:0:0:
320,192,18927,1,0,0:0:0:0:
448,192,19027,1,0,0:0:0:0:
64,192,19027,1,0,0:0:0:0:
320,192,19227,1,0,0:0:0:0:
448,192,19427,1,0,0:0:0:0:
64,192,19427,1,0,0:0:0:0:
320,192,19627,1,0,0:0:0:0:
448,192,19827,1,0,0:0:0:0:
64,192,19927,1,0,0:0:0:0:
192,192,19927,1,0,0:0:0:0:
320,192,20127,1,0,0:0:0:0:
448,192,20327,1,0,0:0:0:0:
192,192,20427,1,0,0:0:0:0:
64,192,20427,1,0,0:0:0:0:
448,192,20627,1,0,0:0:0:0:
320,192,20727,1,0,0:0:0:0:
64,192,20727,1,0,0:0:0:0:
192,192,20927,1,0,0:0:0:0:
320,192,21027,1,0,0:0:0:0:
448,192,21027,1,0,0:0:0:0:
192,192,21227,1,0,0:0:0:0:
320,192,21427,1,0,0:0:0:0:
448,192,21427,1,0,0:0:0:0:
192,192,21627,1,0,0:0:0:0:
320,192,21827,1,0,0:0:0:0:
64,192,21927,1,0,0:0:0:0:
448,192,21927,1,0,0:0:0:0:
320,192,22127,1,0,0:0:0:0:
64,192,22227,1,0,0:0:0:0:
192,192,22227,1,0,0:0:0:0:
192,192,22627,1,0,0:0:0:0:
448,192,22727,1,0,0:0:0:0:
64,192,22727,1,0,0:0:0:0:
320,192,22927,1,0,0:0:0:0:
64,192,23027,1,0,0:0:0:0:
192,192,23027,1,0,0:0:0:0:
448,192,23227,1,0,0:0:0:0:
64,192,23427,1,0,0:0:0:0:
192,192,23427,1,0,0:0:0:0:
448,192,23627,1,0,0:0:0:0:
192,192,23827,1,0,0:0:0:0:
448,192,23927,1,0,0:0:0:0:
320,192,23927,1,0,0:0:0:0:
64,192,24127,1,0,0:0:0:0:
192,192,24327,1,0,0:0:0:0:
320,192,24427,1,0,0:0:0:0:
448,192,24427,1,0,0:0:0:0:
192,192,24627,1,0,0:0:0:0:
64,192,24727,1,0,0:0:0:0:
448,192,24727,1,0,0:0:0:0:
192,192,24927,1,0,0:0:0:0:
64,192,25027,1,0,0:0:0:0:
320,192,25027,1,0,0:0:0:0:
192,192,25227,1,0,0:0:0:0:
64,192,25427,1,0,0:0:0:0:
320,192,25427,1,0,0:0:0:0:
192,192,25627,1,0,0:0:0:0:
448,192,25827,1,0,0:0:0:0:
320,192,25927,1,0,0:0:0:0:
64,192,25927,1,0,0:0:0:0:
448,192,26127,1,0,0:0:0:0:
192,192,26227,1,0,0:0:0:0:
64,192,26227,1,0,0:0:0:0:
320,192,26627,1,0,0:0:0:0:
448,192,26727,1,0,0:0:0:0:
192,192,26727,1,0,0:0:0:0:
320,192,26927,1,0,0:0:0:0:
448,192,27027,1,0,0:0:0:0:
64,192,27027,1,0,0:0:0:0:
320,192,27227,1,0,0:0:0:0:
448,192,27427,1,0,0:0:0:0:
64,192,27427,1,0,0:0:0:0:
320,192,27627,1,0,0:0:0:0:
448,192,27827,1,0,0:0:0:0:
64,192,27927,1,0,0:0:0:0:
192,192,27927,1,0,0:0:0:0:
320,192,28127,1,0,0:0:0:0:
192,192,28327,1,0,0:0:0:0:
64,192,28327,1,0,0:0:0:0:
320,192,28527,1,0,0:0:0:0:
192,192,28627,1,0,0:0:0:0:
448,192,28827,1,0,0:0:0:0:
320,192,28827,1,0,0:0:0:0:
64,192,28927,1,0,0:0:0:0:
192,192,29127,1,0,0:0:0:0:
320,192,29127,1,0,0:0:0:0:
64,192,29327,1,0,0:0:0:0:
448,192,29527,1,0,0:0:0:0:
320,192,29527,1,0,0:0:0:0:
192,192,29827,1,0,0:0:0:0:
320,192,29927,1,0,0:0:0:0:
64,192,30027,1,0,0:0:0:0:
192,192,30127,1,0,0:0:0:0:
448,192,30327,1,0,0:0:0:0:
320,192,30427,1,0,0:0:0:0:
64,192,30427,1,0,0:0:0:0:
192,192,30627,1,0,0:0:0:0:
448,192,30727,1,0,0:0:0:0:
320,192,30927,1,0,0:0:0:0:
64,192,31127,1,0,0:0:0:0:
192,192,31127,1,0,0:0:0:0:
448,192,31227,1,0,0:0:0:0:
320,192,31327,1,0,0:0:0:0:
64,192,31427,1,0,0:0:0:0:
320,192,31627,1,0,0:0:0:0:
192,192,31727,1,0,0:0:0:0:
64,192,31827,1,0,0:0:0:0:
320,192,32027,1,0,0:0:0:0:
64,192,32127,1,0,0:0:0:0:
320,192,32327,1,0,0:0:0:0:
448,192,32327,1,0,0:0:0:0:
192,192,32527,1,0,0:0:0:0:
448,192,32627,1,0,0:0:0:0:
192,192,32827,1,0,0:0:0:0:
64,192,32827,1,0,0:0:0:0:
320,192,32927,1,0,0:0:0:0:
64,192,33127,1,0,0:0:0:0:
448,192,33127,1,0,0:0:0:0:
320,192,33327,1,0,0:0:0:0:
192,192,33527,1,0,0:0:0:0:
64,192,33527,1,0,0:0:0:0:
320,192,33827,1,0,0:0:0:0:
64,192,33927,1,0,0:0:0:0:
448,192,34027,1,0,0:0:0:0:
320,192,34127,1,0,0:0:0:0:
192,192,34327,1,0,0:0:0:0:
64,192,34427,1,0,0:0:0:0:
448,192,34427,1,0,0:0:0:0:
320,192,34627,1,0,0:0:0:0:
192,192,34727,1,0,0:0:0:0:
64,192,34927,1,0,0:0:0:0:
448,192,35127,1,0,0:0:0:0:
320,192,35127,1,0,0:0:0:0:
64,192,35227,1,0,0:0:0:0:
192,192,35327,1,0,0:0:0:0:
448,192,35427,1,0,0:0:0:0:
64,192,35627,1,0,0:0:0:0:
448,192,35827,1,0,0:0:0:0:
320,192,35927,1,0,0:0:0:0:
64,192,36027,1,0,0:0:0:0:
448,192,36127,1,0,0:0:0:0:
192,192,36327,1,0,0:0:0:0:
64,192,36327,1,0,0:0:0:0:
320,192,36527,1,0,0:0:0:0:
64,192,36627,1,0,0:0:0:0:
320,192,36827,1,0,0:0:0:0:
192,192,36827,1,0,0:0:0:0:
448,192,36927,1,0,0:0:0:0:
192,192,37127,1,0,0:0:0:0:
64,192,37127,1,0,0:0:0:0:
320,192,37327,1,0,0:0:0:0:
448,192,37527,1,0,0:0:0:0:
64,192,37527,1,0,0:0:0:0:
192,192,37827,1,0,0:0:0:0:
448,192,37927,1,0,0:0:0:0:
320,192,38027,1,0,0:0:0:0:
64,192,38127,1,0,0:0:0:0:
192,192,38327,1,0,0:0:0:0:
320,192,38427,1,0,0:0:0:0:
448,192,38427,1,0,0:0:0:0:
64,192,38627,1,0,0:0:0:0:
192,192,38727,1,0,0:0:0:0:
320,192,38927,1,0,0:0:0:0:
448,192,39127,1,0,0:0:0:0:
192,192,39127,1,0,0:0:0:0:
64,192,39227,1,0,0:0:0:0:
320,192,39327,1,0,0:0:0:0:
192,192,39427,1,0,0:0:0:0:
320,192,39627,1,0,0:0:0:0:
64,192,39727,1,0,0:0:0:0:
192,192,39827,1,0,0:0:0:0:
320,192,40027,1,0,0:0:0:0:
192,192,40127,1,0,0:0:0:0:
448,192,40327,1,0,0:0:0:0:
320,192,40327,1,0,0:0:0:0:
64,192,40527,1,0,0:0:0:0:
192,192,40627,1,0,0:0:0:0:
64,192,40827,1,0,0:0:0:0:
448,192,40827,1,0,0:0:0:0:
320,192,40927,1,0,0:0:0:0:
448,192,41127,1,0,0:0:0:0:
192,192,41127,1,0,0:0:0:0:
64,192,41327,1,0,0:0:0:0:
320,192,41527,1,0,0:0:0:0:
192,192,41527,1,0,0:0:0:0:
448,192,41827,1,0,0:0:0:0:
320,192,41927,1,0,0:0:0:0:
64,192,42027,1,0,0:0:0:0:
192,192,42127,1,0,0:0:0:0:
448,192,42327,1,0,0:0:0:0:
64,192,42427,1,0,0:0:0:0:
320,192,42527,1,0,0:0:0:0:
192,192,42627,1,0,0:0:0:0:
448,192,42727,1,0,0:0:0:0:
64,192,42927,1,0,0:0:0:0:
192,192,43027,1,0,0:0:0:0:
320,192,43127,1,0,0:0:0:0:
448,192,43227,1,0,0:0:0:0:
64,192,43327,1,0,0:0:0:0:
320,192,43427,1,0,0:0:0:0:
64,192,43627,1,0,0:0:0:0:
448,192,43727,1,0,0:0:0:0:
320,192,43827,1,0,0:0:0:0:
64,192,44027,1,0,0:0:0:0:
320,192,44127,1,0,0:0:0:0:
192,192,44327,1,0,0:0:0:0:
64,192,44327,1,0,0:0:0:0:
320,192,44527,1,0,0:0:0:0:
192,192,44627,1,0,0:0:0:0:
448,192,44827,1,0,0:0:0:0:
320,192,44827,1,0,0:0:0:0:
64,192,44927,1,0,0:0:0:0:
192,192,45127,1,0,0:0:0:0:
320,192,45127,1,0,0:0:0:0:
64,192,45327,1,0,0:0:0:0:
448,192,45527,1,0,0:0:0:0:
320,192,45527,1,0,0:0:0:0:
192,192,45827,1,0,0:0:0:0:
320,192,45927,1,0,0:0:0:0:
64,192,46027,1,0,0:0:0:0:
192,192,46127,1,0,0:0:0:0:
448,192,46327,1,0,0:0:0:0:
320,192,46427,1,0,0:0:0:0:
64,192,46427,1,0,0:0:0:0:
192,192,46627,1,0,0:0:0:0:
448,192,46727,1,0,0:0:0:0:
320,192,46927,1,0,0:0:0:0:
64,192,47127,1,0,0:0:0:0:
192,192,47127,1,0,0:0:0:0:
448,192,47227,1,0,0:0:0:0:
320,192,47327,1,0,0:0:0:0:
64,192,47427,1,0,0:0:0:0:
320,192,47627,1,0,0:0:0:0:
192,192,47727,1,0,0:0:0:0:
64,192,47827,1,0,0:0:0:0:
320,192,48027,1,0,0:0:0:0:
64,192,48127,1,0,0:0:0:0:
320,192,48327,1,0,0:0:0:0:
448,192,48327,1,0,0:0:0:0:
192,192,48527,1,0,0:0:0:0:
448,192,48627,1,0,0:0:0:0:
192,192,48827,1,0,0:0:0:0:
64,192,48827,1,0,0:0:0:0:
320,192,48927,1,0,0:0:0:0:
64,192,49127,1,0,0:0:0:0:
448,192,49127,1,0,0:0:0:0:
320,192,49327,1,0,0:0:0:0:
192,192,49527,1,0,0:0:0:0:
64,192,49527,1,0,0:0:0:0:
320,192,49827,1,0,0:0:0:0:
64,192,49927,1,0,0:0:0:0:
448,192,50027,1,0,0:0:0:0:
320,192,50127,1,0,0:0:0:0:
192,192,50327,1,0,0:0:0:0:
64,192,50427,1,0,0:0:0:0:
448,192,50427,1,0,0:0:0:0:
320,192,50627,1,0,0:0:0:0:
192,192,50727,1,0,0:0:0:0:
64,192,50927,1,0,0:0:0:0:
448,192,51127,1,0,0:0:0:0:
320,192,51127,1,0,0:0:0:0:
64,192,51227,1,0,0:0:0:0:
192,192,51327,1,0,0:0:0:0:
448,192,51427,1,0,0:0:0:0:
64,192,51627,1,0,0:0:0:0:
320,192,51727,1,0,0:0:0:0:
448,192,51827,1,0,0:0:0:0:
64,192,52027,1,0,0:0:0:0:
448,192,52127,1,0,0:0:0:0:
192,192,52327,1,0,0:0:0:0:
64,192,52327,1,0,0:0:0:0:
320,192,52527,1,0,0:0:0:0:
64,192,52627,1,0,0:0:0:0:
320,192,52827,1,0,0:0:0:0:
192,192,52827,1,0,0:0:0:0:
448,192,52927,1,0,0:0:0:0:
192,192,53127,1,0,0:0:0:0:
64,192,53127,1,0,0:0:0:0:
320,192,53327,1,0,0:0:0:0:
448,192,53527,1,0,0:0:0:0:
64,192,53527,1,0,0:0:0:0:
192,192,53827,1,0,0:0:0:0:
448,192,53927,1,0,0:0:0:0:
320,192,54027,1,0,0:0:0:0:
64,192,54127,1,0,0:0:0:0:
192,192,54327,1,0,0:0:0:0:
320,192,54427,1,0,0:0:0:0:
448,192,54427,1,0,0:0:0:0:
64,192,54627,1,0,0:0:0:0:
192,192,54727,1,0,0:0:0:0:
320,192,54927,1,0,0:0:0:0:
448,192,55127,1,0,0:0:0:0:
192,192,55127,1,0,0:0:0:0:
64,192,55227,1,0,0:0:0:0:
320,192,55327,1,0,0:0:0:0:
192,192,55427,1,0,0:0:0:0:
320,192,55627,1,0,0:0:0:0:
64,192,55727,1,0,0:0:0:0:
192,192,55827,1,0,0:0:0:0:
320,192,56027,1,0,0:0:0:0:
192,192,56127,1,0,0:0:0:0:
448,192,56327,1,0,0:0:0:0:
320,192,56327,1,0,0:0:0:0:
64,192,56527,1,0,0:0:0:0:
192,192,56627,1,0,0:0:0:0:
64,192,56827,1,0,0:0:0:0:
448,192,56827,1,0,0:0:0:0:
320,192,56927,1,0,0:0:0:0:
448,192,57127,1,0,0:0:0:0:
192,192,57127,1,0,0:0:0:0:
64,192,57327,1,0,0:0:0:0:
320,192,57527,1,0,0:0:0:0:
192,192,57527,1,0,0:0:0:0:
448,192,57827,1,0,0:0:0:0:
320,192,57927,1,0,0:0:0:0:
64,192,58027,1,0,0:0:0:0:
192,192,58127,1,0,0:0:0:0:
448,192,58327,1,0,0:0:0:0:
64,192,58427,1,0,0:0:0:0:
320,192,58527,1,0,0:0:0:0:
192,192,58627,1,0,0:0:0:0:
448,192,58727,1,0,0:0:0:0:
64,192,58927,1,0,0:0:0:0:
192,192,59027,1,0,0:0:0:0:
320,192,59127,1,0,0:0:0:0:
448,192,59227,1,0,0:0:0:0:
64,192,59327,1,0,0:0:0:0:
320,192,59427,1,0,0:0:0:0:
64,192,59627,1,0,0:0:0:0:
448,192,59727,1,0,0:0:0:0:
320,192,59827,1,0,0:0:0:0:
64,192,60027,1,0,0:0:0:0:
320,192,60127,1,0,0:0:0:0:
192,192,60327,1,0,0:0:0:0:
64,192,60327,1,0,0:0:0:0:
320,192,60527,1,0,0:0:0:0:
192,192,60727,1,0,0:0:0:0:
448,192,60727,1,0,0:0:0:0:
320,192,60827,1,0,0:0:0:0:
64,192,61027,1,0,0:0:0:0:
192,192,61227,1,0,0:0:0:0:
320,192,61327,1,0,0:0:0:0:
192,192,61627,1,0,0:0:0:0:
64,192,61827,1,0,0:0:0:0:
320,192,61927,1,0,0:0:0:0:
192,192,62127,1,0,0:0:0:0:
448,192,62327,1,0,0:0:0:0:
320,192,62327,1,0,0:0:0:0:
64,192,62527,1,0,0:0:0:0:
448,192,62727,1,0,0:0:0:0:
192,192,62727,1,0,0:0:0:0:
320,192,62827,1,0,0:0:0:0:
192,192,63027,1,0,0:0:0:0:
64,192,63227,1,0,0:0:0:0:
320,192,63327,1,0,0:0:0:0:
192,192,63627,1,0,0:0:0:0:
448,192,63827,1,0,0:0:0:0:
320,192,63927,1,0,0:0:0:0:
192,192,64127,1,0,0:0:0:0:
448,192,64327,1,0,0:0:0:0:
64,192,64527,1,0,0:0:0:0:
192,192,64627,1,0,0:0:0:0:
320,192,64727,1,0,0:0:0:0:
64,192,64927,1,0,0:0:0:0:
448,192,65027,1,0,0:0:0:0:
320,192,65127,1,0,0:0:0:0:
192,192,65227,1,0,0:0:0:0:
448,192,65327,1,0,0:0:0:0:
64,192,65927,1,0,0:0:0:0:
320,192,66087,1,0,0:0:0:0:
448,192,66167,1,0,0:0:0:0:
192,192,66327,1,0,0:0:0:0:
64,192,66427,1,0,0:0:0:0:
320,192,66527,1,0,0:0:0:0:
192,192,66627,1,0,0:0:0:0:
448,192,66727,1,0,0:0:0:0:
320,192,66827,1,0,0:0:0:0:
448,192,67327,1,0,0:0:0:0:
64,192,67827,1,0,0:0:0:0:
192,192,68327,1,0,0:0:0:0:
64,192,68327,1,0,0:0:0:0:
320,192,68527,1,0,0:0:0:0:
64,192,68627,1,0,0:0:0:0:
448,192,68627,1,0,0:0:0:0:
320,192,68827,1,0,0:0:0:0:
448,192,68927,1,0,0:0:0:0:
192,192,68927,1,0,0:0:0:0:
64,192,69027,1,0,0:0:0:0:
192,192,69227,1,0,0:0:0:0:
320,192,69327,1,0,0:0:0:0:
192,192,69627,1,0,0:0:0:0:
64,192,69827,1,0,0:0:0:0:
320,192,69927,1,0,0:0:0:0:
192,192,70127,1,0,0:0:0:0:
448,192,70327,1,0,0:0:0:0:
320,192,70327,1,0,0:0:0:0:
64,192,70527,1,0,0:0:0:0:
448,192,70727,1,0,0:0:0:0:
192,192,70727,1,0,0:0:0:0:
192,192,71027,1,0,0:0:0:0:
320,192,71027,1,0,0:0:0:0:
64,192,71227,1,0,0:0:0:0:
320,192,71327,1,0,0:0:0:0:
192,192,71627,1,0,0:0:0:0:
448,192,71827,1,0,0:0:0:0:
320,192,71927,1,0,0:0:0:0:
192,192,72127,1,0,0:0:0:0:
448,192,72327,1,0,0:0:0:0:
64,192,72327,1,0,0:0:0:0:
320,192,72527,1,0,0:0:0:0:
64,192,72627,1,0,0:0:0:0:
192,192,72627,1,0,0:0:0:0:
320,192,72827,1,0,0:0:0:0:
192,192,72927,1,0,0:0:0:0:
448,192,72927,1,0,0:0:0:0:
64,192,73027,1,0,0:0:0:0:
448,192,73227,1,0,0:0:0:0:
320,192,73327,1,0,0:0:0:0:
448,192,73627,1,0,0:0:0:0:
64,192,73827,1,0,0:0:0:0:
320,192,73927,1,0,0:0:0:0:
448,192,74127,1,0,0:0:0:0:
192,192,74327,1,0,0:0:0:0:
320,192,74327,1,0,0:0:0:0:
64,192,74527,1,0,0:0:0:0:
192,192,74727,1,0,0:0:0:0:
448,192,74727,1,0,0:0:0:0:
448,192,75027,1,0,0:0:0:0:
320,192,75027,1,0,0:0:0:0:
64,192,75227,1,0,0:0:0:0:
320,192,75327,1,0,0:0:0:0:
64,192,75527,1,0,0:0:0:0:
192,192,75527,1,0,0:0:0:0:
448,192,75727,1,0,0:0:0:0:
320,192,75927,1,0,0:0:0:0:
192,192,75927,1,0,0:0:0:0:
448,192,76127,1,0,0:0:0:0:
192,192,76327,1,0,0:0:0:0:
64,192,77127,1,0,0:0:0:0:
320,192,77327,1,0,0:0:0:0:
320,192,78327,1,0,0:0:0:0:
192,192,79127,1,0,0:0:0:0:
448,192,79327,1,0,0:0:0:0:
448,192,80327,1,0,0:0:0:0:
320,192,80327,1,0,0:0:0:0:
192,192,80727,1,0,0:0:0:0:
320,192,80927,1,0,0:0:0:0:
448,192,80927,1,0,0:0:0:0:
64,192,81327,1,0,0:0:0:0:
448,192,81527,1,0,0:0:0:0:
320,192,81527,1,0,0:0:0:0:
192,192,81727,1,0,0:0:0:0:
64,192,81727,1,0,0:0:0:0:
320,192,82327,1,0,0:0:0:0:
192,192,82327,1,0,0:0:0:0:
448,192,82527,1,0,0:0:0:0:
320,192,82727,1,0,0:0:0:0:
64,192,82827,1,0,0:0:0:0:
64,192,83027,1,0,0:0:0:0:
320,192,83127,1,0,0:0:0:0:
192,192,83327,1,0,0:0:0:0:
64,192,83327,1,0,0:0:0:0:
448,192,83627,1,0,0:0:0:0:
320,192,83627,1,0,0:0:0:0:
192,192,83927,1,0,0:0:0:0:
64,192,83927,1,0,0:0:0:0:
448,192,84127,1,0,0:0:0:0:
320,192,84127,1,0,0:0:0:0:
192,192,84327,1,0,0:0:0:0:
64,192,84327,1,0,0:0:0:0:
320,192,84527,1,0,0:0:0:0:
192,192,84627,1,0,0:0:0:0:
448,192,84827,1,0,0:0:0:0:
320,192,84827,1,0,0:0:0:0:
64,192,84927,1,0,0:0:0:0:
192,192,85127,1,0,0:0:0:0:
320,192,85127,1,0,0:0:0:0:
64,192,85327,1,0,0:0:0:0:
448,192,85527,1,0,0:0:0:0:
320,192,85527,1,0,0:0:0:0:
192,192,85827,1,0,0:0:0:0:
64,192,86027,1,0,0:0:0:0:
320,192,86027,1,0,0:0:0:0:
192,192,86127,1,0,0:0:0:0:
448,192,86327,1,0,0:0:0:0:
320,192,86427,1,0,0:0:0:0:
64,192,86427,1,0,0:0:0:0:
192,192,86627,1,0,0:0:0:0:
448,192,86727,1,0,0:0:0:0:
320,192,86927,1,0,0:0:0:0:
64,192,87127,1,0,0:0:0:0:
192,192,87127,1,0,0:0:0:0:
448,192,87227,1,0,0:0:0:0:
320,192,87327,1,0,0:0:0:0:
64,192,87427,1,0,0:0:0:0:
320,192,87627,1,0,0:0:0:0:
192,192,87727,1,0,0:0:0:0:
64,192,87827,1,0,0:0:0:0:
320,192,88027,1,0,0:0:0:0:
64,192,88127,1,0,0:0:0:0:
320,192,88327,1,0,0:0:0:0:
448,192,88327,1,0,0:0:0:0:
192,192,88527,1,0,0:0:0:0:
448,192,88627,1,0,0:0:0:0:
192,192,88827,1,0,0:0:0:0:
64,192,88827,1,0,0:0:0:0:
320,192,88927,1,0,0:0:0:0:
64,192,89127,1,0,0:0:0:0:
448,192,89127,1,0,0:0:0:0:
320,192,89327,1,0,0:0:0:0:
192,192,89527,1,0,0:0:0:0:
64,192,89527,1,0,0:0:0:0:
320,192,89827,1,0,0:0:0:0:
448,192,90027,1,0,0:0:0:0:
192,192,90027,1,0,0:0:0:0:
320,192,90127,1,0,0:0:0:0:
192,192,90327,1,0,0:0:0:0:
64,192,90427,1,0,0:0:0:0:
320,192,90427,1,0,0:0:0:0:
448,192,90627,1,0,0:0:0:0:
64,192,90827,1,0,0:0:0:0:
64,192,91027,1,0,0:0:0:0:
448,192,91127,1,0,0:0:0:0:
320,192,91127,1,0,0:0:0:0:
192,192,91227,1,0,0:0:0:0:
64,192,91327,1,0,0:0:0:0:
448,192,91427,1,0,0:0:0:0:
64,192,91627,1,0,0:0:0:0:
320,192,91727,1,0,0:0:0:0:
448,192,91827,1,0,0:0:0:0:
64,192,92027,1,0,0:0:0:0:
448,192,92127,1,0,0:0:0:0:
192,192,92327,1,0,0:0:0:0:
64,192,92327,1,0,0:0:0:0:
320,192,92527,1,0,0:0:0:0:
64,192,92627,1,0,0:0:0:0:
320,192,92827,1,0,0:0:0:0:
192,192,92827,1,0,0:0:0:0:
448,192,92927,1,0,0:0:0:0:
192,192,93127,1,0,0:0:0:0:
64,192,93127,1,0,0:0:0:0:
320,192,93327,1,0,0:0:0:0:
448,192,93527,1,0,0:0:0:0:
64,192,93527,1,0,0:0:0:0:
192,192,93827,1,0,0:0:0:0:
448,192,93927,1,0,0:0:0:0:
320,192,94027,1,0,0:0:0:0:
64,192,94127,1,0,0:0:0:0:
192,192,94327,1,0,0:0:0:0:
320,192,94427,1,0,0:0:0:0:
448,192,94427,1,0,0:0:0:0:
64,192,94527,1,0,0:0:0:0:
192,192,94727,1,0,0:0:0:0:
320,192,94927,1,0,0:0:0:0:
448,192,95127,1,0,0:0:0:0:
192,192,95127,1,0,0:0:0:0:
64,192,95227,1,0,0:0:0:0:
320,192,95327,1,0,0:0:0:0:
192,192,95427,1,0,0:0:0:0:
320,192,95627,1,0,0:0:0:0:
64,192,95727,1,0,0:0:0:0:
192,192,95827,1,0,0:0:0:0:
320,192,96027,1,0,0:0:0:0:
192,192,96127,1,0,0:0:0:0:
448,192,96327,1,0,0:0:0:0:
320,192,96327,1,0,0:0:0:0:
64,192,96527,1,0,0:0:0:0:
192,192,96627,1,0,0:0:0:0:
64,192,96827,1,0,0:0:0:0:
448,192,96827,1,0,0:0:0:0:
320,192,96927,1,0,0:0:0:0:
448,192,97127,1,0,0:0:0:0:
192,192,97127,1,0,0:0:0:0:
64,192,97327,1,0,0:0:0:0:
320,192,97527,1,0,0:0:0:0:
192,192,97527,1,0,0:0:0:0:
448,192,97827,1,0,0:0:0:0:
320,192,97927,1,0,0:0:0:0:
64,192,98027,1,0,0:0:0:0:
192,192,98127,1,0,0:0:0:0:
448,192,98327,1,0,0:0:0:0:
64,192,98427,1,0,0:0:0:0:
320,192,98427,1,0,0:0:0:0:
192,192,98527,1,0,0:0:0:0:
448,192,98727,1,0,0:0:0:0:
64,192,98927,1,0,0:0:0:0:
192,192,99027,1,0,0:0:0:0:
320,192,99127,1,0,0:0:0:0:
448,192,99227,1,0,0:0:0:0:
64,192,99327,1,0,0:0:0:0:
320,192,99527,1,0,0:0:0:0:
64,192,99627,1,0,0:0:0:0:
448,192,99727,1,0,0:0:0:0:
320,192,99827,1,0,0:0:0:0:
64,192,100027,1,0,0:0:0:0:
320,192,100127,1,0,0:0:0:0:
192,192,100327,1,0,0:0:0:0:
64,192,100327,1,0,0:0:0:0:
320,192,100527,1,0,0:0:0:0:
192,192,100627,1,0,0:0:0:0:
448,192,100827,1,0,0:0:0:0:
320,192,100827,1,0,0:0:0:0:
64,192,100927,1,0,0:0:0:0:
192,192,101127,1,0,0:0:0:0:
320,192,101127,1,0,0:0:0:0:
64,192,101327,1,0,0:0:0:0:
448,192,101527,1,0,0:0:0:0:
320,192,101527,1,0,0:0:0:0:
192,192,101827,1,0,0:0:0:0:
320,192,101927,1,0,0:0:0:0:
64,192,102027,1,0,0:0:0:0:
192,192,102127,1,0,0:0:0:0:
448,192,102327,1,0,0:0:0:0:
320,192,102427,1,0,0:0:0:0:
64,192,102427,1,0,0:0:0:0:
192,192,102527,1,0,0:0:0:0:
448,192,102727,1,0,0:0:0:0:
320,192,102927,1,0,0:0:0:0:
64,192,103127,1,0,0:0:0:0:
192,192,103127,1,0,0:0:0:0:
448,192,103227,1,0,0:0:0:0:
320,192,103327,1,0,0:0:0:0:
320,192,103627,1,0,0:0:0:0:
192,192,103727,1,0,0:0:0:0:
64,192,103827,1,0,0:0:0:0:
320,192,104027,1,0,0:0:0:0:
64,192,104127,1,0,0:0:0:0:
320,192,104327,1,0,0:0:0:0:
448,192,104327,1,0,0:0:0:0:
192,192,104527,1,0,0:0:0:0:
448,192,104627,1,0,0:0:0:0:
192,192,104827,1,0,0:0:0:0:
64,192,104827,1,0,0:0:0:0:
320,192,104927,1,0,0:0:0:0:
64,192,105127,1,0,0:0:0:0:
448,192,105127,1,0,0:0:0:0:
320,192,105327,1,0,0:0:0:0:
192,192,105527,1,0,0:0:0:0:
64,192,105527,1,0,0:0:0:0:
320,192,105827,1,0,0:0:0:0:
448,192,106027,1,0,0:0:0:0:
192,192,106027,1,0,0:0:0:0:
320,192,106127,1,0,0:0:0:0:
192,192,106327,1,0,0:0:0:0:
64,192,106427,1,0,0:0:0:0:
448,192,106427,1,0,0:0:0:0:
320,192,106627,1,0,0:0:0:0:
192,192,106727,1,0,0:0:0:0:
64,192,106927,1,0,0:0:0:0:
448,192,107127,1,0,0:0:0:0:
320,192,107127,1,0,0:0:0:0:
192,192,107227,1,0,0:0:0:0:
64,192,107327,1,0,0:0:0:0:
448,192,107427,1,0,0:0:0:0:
64,192,107627,1,0,0:0:0:0:
320,192,107727,1,0,0:0:0:0:
448,192,107827,1,0,0:0:0:0:
64,192,107927,1,0,0:0:0:0:
448,192,108127,1,0,0:0:0:0:
192,192,108327,1,0,0:0:0:0:
64,192,108327,1,0,0:0:0:0:
320,192,108527,1,0,0:0:0:0:
64,192,108627,1,0,0:0:0:0:
320,192,108827,1,0,0:0:0:0:
192,192,108827,1,0,0:0:0:0:
448,192,108927,1,0,0:0:0:0:
192,192,109127,1,0,0:0:0:0:
64,192,109127,1,0,0:0:0:0:
320,192,109327,1,0,0:0:0:0:
448,192,109527,1,0,0:0:0:0:
64,192,109527,1,0,0:0:0:0:
192,192,109827,1,0,0:0:0:0:
320,192,110027,1,0,0:0:0:0:
448,192,110027,1,0,0:0:0:0:
64,192,110127,1,0,0:0:0:0:
192,192,110327,1,0,0:0:0:0:
320,192,110427,1,0,0:0:0:0:
448,192,110427,1,0,0:0:0:0:
64,192,110527,1,0,0:0:0:0:
192,192,110827,1,0,0:0:0:0:
448,192,110827,1,0,0:0:0:0:
320,192,110927,1,0,0:0:0:0:
64,192,111127,1,0,0:0:0:0:
448,192,111127,1,0,0:0:0:0:
320,192,111327,1,0,0:0:0:0:
192,192,111427,1,0,0:0:0:0:
320,192,111627,1,0,0:0:0:0:
64,192,111727,1,0,0:0:0:0:
192,192,111827,1,0,0:0:0:0:
320,192,112027,1,0,0:0:0:0:
192,192,112127,1,0,0:0:0:0:
448,192,112327,1,0,0:0:0:0:
320,192,112327,1,0,0:0:0:0:
64,192,112527,1,0,0:0:0:0:
192,192,112527,1,0,0:0:0:0:
64,192,112827,1,0,0:0:0:0:
448,192,112827,1,0,0:0:0:0:
320,192,112927,1,0,0:0:0:0:
448,192,113127,1,0,0:0:0:0:
192,192,113127,1,0,0:0:0:0:
64,192,113327,1,0,0:0:0:0:
320,192,113527,1,0,0:0:0:0:
192,192,113527,1,0,0:0:0:0:
448,192,113827,1,0,0:0:0:0:
320,192,114027,1,0,0:0:0:0:
64,192,114027,1,0,0:0:0:0:
192,192,114127,1,0,0:0:0:0:
448,192,114327,1,0,0:0:0:0:
64,192,114427,1,0,0:0:0:0:
192,192,114427,1,0,0:0:0:0:
320,192,114527,1,0,0:0:0:0:
64,192,114727,1,0,0:0:0:0:
448,192,114827,1,0,0:0:0:0:
320,192,114827,1,0,0:0:0:0:
192,192,114927,1,0,0:0:0:0:
448,192,115127,1,0,0:0:0:0:
192,192,115227,1,0,0:0:0:0:
64,192,115327,1,0,0:0:0:0:
320,192,115327,1,0,0:0:0:0:
64,192,115627,1,0,0:0:0:0:
192,192,115727,1,0,0:0:0:0:
320,192,115827,1,0,0:0:0:0:
64,192,116027,1,0,0:0:0:0:
448,192,116127,1,0,0:0:0:0:
320,192,116227,1,0,0:0:0:0:
64,192,116327,1,0,0:0:0:0:
192,192,116327,1,0,0:0:0:0:
64,192,116627,1,0,0:0:0:0:
192,192,116927,1,0,0:0:0:0:
448,192,117227,1,0,0:0:0:0:
448,192,117527,1,0,0:0:0:0:
192,192,117827,1,0,0:0:0:0:
64,192,118027,1,0,0:0:0:0:
192,192,118127,1,0,0:0:0:0:
320,192,118227,1,0,0:0:0:0:
64,192,118327,1,0,0:0:0:0:
320,192,118527,1,0,0:0:0:0:
448,192,118627,1,0,0:0:0:0:
64,192,118727,1,0,0:0:0:0:
192,192,118827,1,0,0:0:0:0:
64,192,119327,1,0,0:0:0:0:
320,192,119827,1,0,0:0:0:0:
64,192,120327,1,0,0:0:0:0:
64,192,120627,1,0,0:0:0:0:
192,192,120927,1,0,0:0:0:0:
448,192,121227,1,0,0:0:0:0:
448,192,121527,1,0,0:0:0:0:
192,192,121827,1,0,0:0:0:0:
64,192,122027,1,0,0:0:0:0:
192,192,122127,1,0,0:0:0:0:
320,192,122227,1,0,0:0:0:0:
64,192,122327,1,0,0:0:0:0:
320,192,122527,1,0,0:0:0:0:
448,192,122627,1,0,0:0:0:0:
64,192,122727,1,0,0:0:0:0:
192,192,122827,1,0,0:0:0:0:
64,192,123327,1,0,0:0:0:0:
320,192,123827,1,0,0:0:0:0:
64,192,124327,1,0,0:0:0:0:
192,192,124627,1,0,0:0:0:0:
320,192,124927,1,0,0:0:0:0:
192,192,125027,1,0,0:0:0:0:
448,192,125327,1,0,0:0:0:0:
64,192,125327,1,0,0:0:0:0:
192,192,125527,1,0,0:0:0:0:
320,192,125727,1,0,0:0:0:0:
192,192,125827,1,0,0:0:0:0:
448,192,125927,1,0,0:0:0:0:
64,192,126027,1,0,0:0:0:0:
192,192,126227,1,0,0:0:0:0:
320,192,126327,1,0,0:0:0:0:
64,192,126427,1,0,0:0:0:0:
448,192,126527,1,0,0:0:0:0:
192,192,127027,1,0,0:0:0:0:
64,192,127227,1,0,0:0:0:0:
192,192,127327,1,0,0:0:0:0:
320,192,127427,1,0,0:0:0:0:
64,192,127527,1,0,0:0:0:0:
320,192,127727,1,0,0:0:0:0:
448,192,127827,1,0,0:0:0:0:
64,192,127927,1,0,0:0:0:0:
320,192,128027,1,0,0:0:0:0:
192,192,128027,1,0,0:0:0:0:
448,192,128227,1,0,0:0:0:0:
320,192,128327,1,0,0:0:0:0:
64,192,128527,1,0,0:0:0:0:
192,192,128627,1,0,0:0:0:0:
448,192,128727,1,0,0:0:0:0:
320,192,128827,1,0,0:0:0:0:
64,192,128927,1,0,0:0:0:0:
192,192,129027,1,0,0:0:0:0:
448,192,129127,1,0,0:0:0:0:
448,192,129327,1,0,0:0:0:0:
192,192,129627,1,0,0:0:0:0:
64,192,129627,1,0,0:0:0:0:
320,192,129927,1,0,0:0:0:0:
64,192,129927,1,0,0:0:0:0:
448,192,130227,1,0,0:0:0:0:
192,192,130227,1,0,0:0:0:0:
64,192,130427,1,0,0:0:0:0:
192,192,130627,1,0,0:0:0:0:
64,192,130827,1,0,0:0:0:0:
192,192,131027,1,0,0:0:0:0:
320,192,131127,1,0,0:0:0:0:
448,192,131127,1,0,0:0:0:0:
192,192,131427,1,0,0:0:0:0:
64,192,131427,1,0,0:0:0:0:
320,192,131527,1,0,0:0:0:0:
64,192,131827,1,0,0:0:0:0:
192,192,131927,1,0,0:0:0:0:
448,192,131927,1,0,0:0:0:0:
320,192,132227,1,0,0:0:0:0:
64,192,132227,1,0,0:0:0:0:
448,192,132427,1,0,0:0:0:0:
320,192,132627,1,0,0:0:0:0:
448,192,132827,1,0,0:0:0:0:
320,192,133027,1,0,0:0:0:0:
64,192,133127,1,0,0:0:0:0:
192,192,133127,1,0,0:0:0:0:
448,192,133327,1,0,0:0:0:0:
192,192,133527,1,0,0:0:0:0:
320,192,133727,1,0,0:0:0:0:
192,192,133827,1,0,0:0:0:0:
64,192,133927,1,0,0:0:0:0:
448,192,134027,1,0,0:0:0:0:
320,192,134227,1,0,0:0:0:0:
448,192,134327,1,0,0:0:0:0:
64,192,134427,1,0,0:0:0:0:
192,192,134527,1,0,0:0:0:0:
448,192,135027,1,0,0:0:0:0:
64,192,135227,1,0,0:0:0:0:
192,192,135327,1,0,0:0:0:0:
320,192,135427,1,0,0:0:0:0:
448,192,135527,1,0,0:0:0:0:
320,192,135727,1,0,0:0:0:0:
192,192,135827,1,0,0:0:0:0:
64,192,135927,1,0,0:0:0:0:
448,192,136027,1,0,0:0:0:0:
64,192,136527,1,0,0:0:0:0:
448,192,136727,1,0,0:0:0:0:
192,192,136827,1,0,0:0:0:0:
64,192,136927,1,0,0:0:0:0:
320,192,137027,1,0,0:0:0:0:
64,192,137227,1,0,0:0:0:0:
192,192,137327,1,0,0:0:0:0:
320,192,137427,1,0,0:0:0:0:
448,192,137527,1,0,0:0:0:0:
192,192,137627,1,0,0:0:0:0:
64,192,137627,1,0,0:0:0:0:
448,192,137827,1,0,0:0:0:0:
320,192,137927,1,0,0:0:0:0:
64,192,137927,1,0,0:0:0:0:
192,192,138127,1,0,0:0:0:0:
320,192,138227,1,0,0:0:0:0:
448,192,138227,1,0,0:0:0:0:
192,192,138427,1,0,0:0:0:0:
320,192,138627,1,0,0:0:0:0:
448,192,138627,1,0,0:0:0:0:
192,192,138827,1,0,0:0:0:0:
320,192,139027,1,0,0:0:0:0:
64,192,139127,1,0,0:0:0:0:
448,192,139127,1,0,0:0:0:0:
320,192,139327,1,0,0:0:0:0:
64,192,139427,1,0,0:0:0:0:
192,192,139427,1,0,0:0:0:0:
192,192,139827,1,0,0:0:0:0:
448,192,139927,1,0,0:0:0:0:
64,192,139927,1,0,0:0:0:0:
320,192,140127,1,0,0:0:0:0:
64,192,140227,1,0,0:0:0:0:
192,192,140227,1,0,0:0:0:0:
448,192,140427,1,0,0:0:0:0:
64,192,140627,1,0,0:0:0:0:
192,192,140627,1,0,0:0:0:0:
448,192,140827,1,0,0:0:0:0:
192,192,141027,1,0,0:0:0:0:
448,192,141127,1,0,0:0:0:0:
320,192,141127,1,0,0:0:0:0:
64,192,141327,1,0,0:0:0:0:
192,192,141527,1,0,0:0:0:0:
320,192,141627,1,0,0:0:0:0:
448,192,141627,1,0,0:0:0:0:
192,192,141827,1,0,0:0:0:0:
64,192,141927,1,0,0:0:0:0:
448,192,141927,1,0,0:0:0:0:
192,192,142127,1,0,0:0:0:0:
64,192,142227,1,0,0:0:0:0:
320,192,142227,1,0,0:0:0:0:
192,192,142427,1,0,0:0:0:0:
64,192,142627,1,0,0:0:0:0:
320,192,142627,1,0,0:0:0:0:
192,192,142827,1,0,0:0:0:0:
448,192,143027,1,0,0:0:0:0:
320,192,143127,1,0,0:0:0:0:
64,192,143127,1,0,0:0:0:0:
448,192,143327,1,0,0:0:0:0:
192,192,143427,1,0,0:0:0:0:
64,192,143427,1,0,0:0:0:0:
320,192,143827,1,0,0:0:0:0:
448,192,143927,1,0,0:0:0:0:
192,192,143927,1,0,0:0:0:0:
320,192,144127,1,0,0:0:0:0:
448,192,144227,1,0,0:0:0:0:
64,192,144227,1,0,0:0:0:0:
320,192,144427,1,0,0:0:0:0:
448,192,144627,1,0,0:0:0:0:
64,192,144627,1,0,0:0:0:0:
320,192,144827,1,0,0:0:0:0:
448,192,145027,1,0,0:0:0:0:
64,192,145127,1,0,0:0:0:0:
192,192,145127,1,0,0:0:0:0:
320,192,145327,1,0,0:0:0:0:
448,192,145527,1,0,0:0:0:0:
192,192,145627,1,0,0:0:0:0:
64,192,145627,1,0,0:0:0:0:
448,192,145827,1,0,0:0:0:0:
320,192,145927,1,0,0:0:0:0:
64,192,145927,1,0,0:0:0:0:
192,192,146127,1,0,0:0:0:0:
320,192,146227,1,0,0:0:0:0:
448,192,146227,1,0,0:0:0:0:
192,192,146427,1,0,0:0:0:0:
320,192,146627,1,0,0:0:0:0:
448,192,146627,1,0,0:0:0:0:
192,192,146827,1,0,0:0:0:0:
320,192,147027,1,0,0:0:0:0:
64,192,147127,1,0,0:0:0:0:
448,192,147127,1,0,0:0:0:0:
320,192,147327,1,0,0:0:0:0:
64,192,147427,1,0,0:0:0:0:
192,192,147427,1,0,0:0:0:0:
192,192,147827,1,0,0:0:0:0:
448,192,147927,1,0,0:0:0:0:
64,192,147927,1,0,0:0:0:0:
320,192,148127,1,0,0:0:0:0:
64,192,148227,1,0,0:0:0:0:
192,192,148227,1,0,0:0:0:0:
448,192,148427,1,0,0:0:0:0:
64,192,148627,1,0,0:0:0:0:
192,192,148627,1,0,0:0:0:0:
448,192,148827,1,0,0:0:0:0:
192,192,149027,1,0,0:0:0:0:
448,192,149127,1,0,0:0:0:0:
320,192,149127,1,0,0:0:0:0:
64,192,149327,1,0,0:0:0:0:
192,192,149527,1,0,0:0:0:0:
320,192,149627,1,0,0:0:0:0:
448,192,149627,1,0,0:0:0:0:
192,192,149827,1,0,0:0:0:0:
64,192,149927,1,0,0:0:0:0:
448,192,149927,1,0,0:0:0:0:
192,192,150127,1,0,0:0:0:0:
64,192,150227,1,0,0:0:0:0:
320,192,150227,1,0,0:0:0:0:
192,192,150427,1,0,0:0:0:0:
64,192,150627,1,0,0:0:0:0:
320,192,150627,1,0,0:0:0:0:
192,192,150827,1,0,0:0:0:0:
448,192,151027,1,0,0:0:0:0:
320,192,151127,1,0,0:0:0:0:
64,192,151127,1,0,0:0:0:0:
448,192,151327,1,0,0:0:0:0:
192,192,151427,1,0,0:0:0:0:
64,192,151427,1,0,0:0:0:0:
320,192,151827,1,0,0:0:0:0:
448,192,151927,1,0,0:0:0:0:
192,192,151927,1,0,0:0:0:0:
320,192,152127,1,0,0:0:0:0:
448,192,152227,1,0,0:0:0:0:
64,192,152227,1,0,0:0:0:0:
320,192,152427,1,0,0:0:0:0:
448,192,152627,1,0,0:0:0:0:
64,192,152627,1,0,0:0:0:0:
320,192,152827,1,0,0:0:0:0:
448,192,153027,1,0,0:0:0:0:
64,192,153127,1,0,0:0:0:0:
192,192,153127,1,0,0:0:0:0:
320,192,153327,1,0,0:0:0:0:
64,192,153427,1,0,0:0:0:0:
