osu file format v14

[General]
AudioFilename: audio.mp3
AudioLeadIn: 0
PreviewTime: 76132
Countdown: 0
SampleSet: Soft
StackLeniency: 0.3
Mode: 0
LetterboxInBreaks: 0
WidescreenStoryboard: 1

[Editor]
Bookmarks: 361,5847,16818,33275,44247,73047,77504,93961,110246,114703,128074,130816,135958,140072,144186,148300,152415,168872,173329,191157,207441,212926,218412,221155,229383
DistanceSpacing: 1.6
BeatDivisor: 4
GridSize: 8
TimelineZoom: 1.1

[Metadata]
Title:Taiyou to Kurashite Kita
TitleUnicode:太陽と暮らしてきた
Artist:JYOCHO
ArtistUnicode:JYOCHO
Creator:dsco
Version:Hard
Source:
Tags:math rock flute indie midwest emo uchu conbini だいじろー 祈りでは届かない距離 宇宙コンビニ a life with the sun
BeatmapID:1294555
BeatmapSetID:600881

[Difficulty]
HPDrainRate:4.4
CircleSize:3.6
OverallDifficulty:6.6
ApproachRate:7.8
SliderMultiplier:1.5
SliderTickRate:1

[Events]
//Background and Video events
0,0,"mc-pictures-aerialist-philippe-petit-20151008-014.jpg",0,0
//Break Periods
2,33474,43468
2,111960,113924
2,207641,212147
2,218612,220376
//Storyboard Layer 0 (Background)
//Storyboard Layer 1 (Fail)
//Storyboard Layer 2 (Pass)
//Storyboard Layer 3 (Foreground)
//Storyboard Sound Samples

[TimingPoints]
361,342.857142857143,4,2,1,45,1,0
16818,342.857142857143,3,2,1,45,1,0
33275,342.857142857143,4,2,1,45,1,0
44247,342.857142857143,3,2,1,45,1,0
76132,342.857142857143,4,2,1,45,1,0
77504,342.857142857143,3,2,1,45,1,0
97904,342.857142857143,3,2,1,45,1,0
110246,342.857142857143,13,2,1,45,1,0
128074,342.857142857143,4,2,1,45,1,0
134930,342.857142857143,3,2,1,45,1,0
171957,342.857142857143,4,2,1,45,1,0
173329,342.857142857143,3,2,1,45,1,0
175386,342.857142857143,4,2,1,45,1,0
176757,342.857142857143,3,2,1,45,1,0
195099,342.857142857143,3,2,1,45,1,0
207441,342.857142857143,4,2,1,45,1,0

[Colours]
Combo1 : 204,170,187
Combo2 : 170,187,204

[HitObjects]
80,254,5846,5,4,0:0:0:0:
165,284,6018,1,2,0:0:0:0:
245,244,6189,2,0,L|250:155,1,75,0|2,0:0|0:0,0:0:0:0:
223,51,6532,1,2,3:0:0:0:
301,95,6703,2,0,B|339:100|339:100|399:85,1,75,2|0,0:0|0:0,0:0:0:0:
460,64,7046,1,8,0:0:0:0:
460,64,7132,1,0,0:0:0:0:
460,64,7218,2,0,L|465:18,2,37.5,2|0|2,0:0|0:0|3:0,0:0:0:0:
446,183,7561,6,0,L|457:274,1,75,2|2,0:0|0:0,0:0:0:0:
462,346,7903,2,0,P|411:334|373:289,1,112.5,2|0,3:0|0:0,0:0:0:0:
367,268,8246,1,2,0:0:0:0:
280,294,8418,2,0,P|271:333|274:368,2,75,2|2|0,3:0|0:0|0:0,0:0:0:0:
309,208,8932,2,0,P|318:169|314:133,1,75,2|8,3:0|0:0,0:0:0:0:
277,52,9275,6,0,L|155:47,1,100,2|8,3:0|3:0,0:0:0:0:
116,46,9618,1,2,3:0:0:0:
202,202,9961,2,0,P|216:236|217:273,2,75,2|8|2,3:0|0:0|0:0,0:0:0:0:
277,52,10646,2,0,P|260:101|267:142,1,75,2|2,3:0|0:0,0:0:0:0:
307,201,10989,1,8,0:0:0:0:
151,110,11332,5,4,0:0:0:0:
96,181,11503,1,2,0:0:0:0:
107,270,11675,2,0,L|118:362,1,75,0|2,0:0|0:0,0:0:0:0:
234,365,12018,1,2,3:0:0:0:
186,289,12189,2,0,L|177:214,1,75,2|0,0:0|0:0,0:0:0:0:
206,130,12532,1,8,0:0:0:0:
206,130,12618,1,0,0:0:0:0:
206,130,12703,2,0,L|199:78,2,37.5,2|0|2,0:0|0:0|3:0,0:0:0:0:
304,198,13046,6,0,P|357:205|394:195,1,75,2|2,0:0|0:0,0:0:0:0:
451,252,13389,2,0,B|468:213|468:213|455:116,1,112.5,2|0,3:0|0:0,0:0:0:0:
455,122,13732,1,2,0:0:0:0:
370,91,13903,2,0,P|363:46|369:11,2,75,2|2|0,3:0|0:0|0:0,0:0:0:0:
292,137,14418,2,0,P|244:146|209:139,1,75,2|8,3:0|0:0,0:0:0:0:
157,75,14761,6,0,P|104:53|41:62,1,100,2|8,3:0|3:0,0:0:0:0:
6,77,15103,1,2,3:0:0:0:
132,204,15446,2,0,L|50:208,2,75,2|8|2,3:0|0:0|0:0,0:0:0:0:
281,304,16132,2,0,P|243:300|207:309,1,75,2|2,3:0|0:0,0:0:0:0:
143,373,16475,1,8,0:0:0:0:
289,182,16818,6,0,L|293:144,3,37.5,12|2|0|2,0:0|0:0|0:0|0:0,0:0:0:0:
222,119,17160,2,0,L|216:81,3,37.5,8|2|2|2,0:0|0:0|3:0|0:0,0:0:0:0:
141,70,17503,2,0,P|105:65|68:70,1,75,8|0,0:0|0:0,0:0:0:0:
9,139,17846,2,0,B|1:180|1:180|12:226,1,75,2|8,3:0|0:0,0:0:0:0:
57,287,18189,2,0,P|94:291|131:286,1,75,0|0,0:0|0:0,0:0:0:0:
215,252,18532,2,0,L|219:289,2,37.5,8|0|2,0:0|0:0|3:0,0:0:0:0:
285,195,18875,5,0,0:0:0:0:
285,195,18960,1,2,0:0:0:0:
285,195,19046,2,0,L|304:71,2,112.5,8|8|8,0:0|0:0|0:0,0:0:0:0:
332,272,19732,2,0,L|373:279,2,37.5,0|2|0,0:0|0:0|0:0,0:0:0:0:
255,365,20075,1,2,0:0:0:0:
215,252,20246,2,0,B|158:241|158:241|92:255,1,112.5,8|0,0:0|0:0,0:0:0:0:
83,259,20589,1,2,3:0:0:0:
37,148,20760,1,8,0:0:0:0:
37,148,20846,1,2,0:0:0:0:
37,148,20932,6,0,L|29:78,3,37.5,12|2|0|2,0:0|0:0|0:0|0:0,0:0:0:0:
102,84,21274,2,0,L|113:14,3,37.5,8|0|2|0,0:0|0:0|3:0|0:0,0:0:0:0:
183,46,21617,2,0,P|240:42|286:57,1,75,8|0,0:0|0:0,0:0:0:0:
340,81,21960,1,2,3:0:0:0:
276,183,22132,2,0,B|218:188|218:188|164:176,2,112.5,8|8|8,0:0|0:0|0:0,0:0:0:0:
365,174,22818,2,0,L|425:169,2,37.5,2|2|0,3:0|0:0|0:0,0:0:0:0:
333,258,23160,6,0,B|319:300|319:300|329:379,2,112.5,8|8|8,0:0|0:0|0:0,0:0:0:0:
276,183,23846,2,0,L|271:145,2,37.5,0|2|2,0:0|0:0|3:0,0:0:0:0:
151,248,24189,2,0,P|94:250|42:211,2,112.5,2|2|2,0:0|3:0|3:0,0:0:0:0:
119,163,24875,1,8,0:0:0:0:
119,163,24960,1,0,0:0:0:0:
119,163,25046,6,0,L|111:93,3,37.5,12|2|0|2,0:0|0:0|0:0|0:0,0:0:0:0:
179,89,25388,2,0,L|190:19,3,37.5,8|2|0|2,0:0|0:0|0:0|0:0,0:0:0:0:
260,50,25731,2,0,B|303:43|303:43|363:61,1,75,8|0,0:0|0:0,0:0:0:0:
412,111,26075,2,0,P|421:150|409:196,1,75,2|8,3:0|0:0,0:0:0:0:
353,251,26418,2,0,B|324:261|324:261|281:257,1,75,0|0,0:0|0:0,0:0:0:0:
191,246,26760,2,0,P|196:286|205:304,2,37.5,8|0|2,0:0|0:0|3:0,0:0:0:0:
140,171,27103,5,0,0:0:0:0:
140,171,27189,1,2,0:0:0:0:
140,171,27275,2,0,P|78:164|16:187,2,112.5,8|8|8,0:0|0:0|0:0,0:0:0:0:
191,96,27960,2,0,P|196:56|205:38,2,37.5,0|2|2,0:0|0:0|3:0,0:0:0:0:
253,198,28303,1,0,0:0:0:0:
352,129,28475,2,0,B|385:113|385:113|476:122,1,112.5,8|0,0:0|0:0,0:0:0:0:
482,122,28818,1,2,3:0:0:0:
400,33,28989,1,8,0:0:0:0:
400,33,29075,1,0,0:0:0:0:
400,33,29160,6,0,L|362:29,3,37.5,12|2|0|2,0:0|0:0|0:0|0:0,0:0:0:0:
295,62,29503,2,0,L|257:58,3,37.5,8|0|2|0,0:0|0:0|3:0|0:0,0:0:0:0:
188,88,29846,2,0,L|93:80,1,75,8|0,0:0|0:0,0:0:0:0:
31,45,30189,1,2,3:0:0:0:
52,164,30360,2,0,L|42:281,2,112.5,8|8|8,0:0|0:0|0:0,0:0:0:0:
134,200,31046,2,0,L|129:256,2,37.5,2|2|0,3:0|0:0|0:0,0:0:0:0:
242,146,31389,6,0,L|229:29,2,112.5,8|8|0,0:0|0:0|0:0,0:0:0:0:
324,110,32075,2,0,L|319:53,2,37.5,8|2|0,0:0|0:0|3:0,0:0:0:0:
372,220,32418,2,0,L|362:337,2,112.5,8|8|8,0:0|0:0|0:0,0:0:0:0:
454,184,33103,1,0,0:0:0:0:
455,165,33188,1,2,0:0:0:0:
456,146,33274,1,4,0:0:0:0:
58,276,44247,6,0,P|39:204|65:135,1,150,4|2,0:0|3:0,0:0:0:0:
135,79,44761,2,0,P|96:50|48:47,2,75,2|0|0,0:0|0:0|3:0,0:0:0:0:
154,167,45275,1,8,0:0:0:0:
331,141,45618,1,0,0:0:0:0:
230,65,45961,1,2,0:0:0:0:
256,243,46304,6,0,B|316:258|316:258|381:249,1,112.5,2|0,3:0|0:0,0:0:0:0:
388,246,46647,1,0,0:0:0:0:
449,181,46818,2,0,P|461:143|448:94,1,75,2|8,0:0|0:0,0:0:0:0:
410,31,47161,2,0,L|249:32,1,150,2|0,3:0|0:0,0:0:0:0:
172,10,47675,2,0,L|91:10,2,75,2|2|8,0:0|0:0|0:0,0:0:0:0:
179,101,48189,5,4,0:0:0:0:
95,259,48532,1,0,0:0:0:0:
274,254,48875,2,0,L|348:253,2,75,8|2|0,0:0|3:0|0:0,0:0:0:0:
185,257,49389,6,0,L|179:79,1,150,2|0,3:0|0:0,0:0:0:0:
346,176,50075,1,2,0:0:0:0:
185,257,50418,1,8,0:0:0:0:
179,107,50761,1,8,0:0:0:0:
346,176,51104,2,0,L|345:139,2,37.5,2|2|2,0:0|0:0|0:0,0:0:0:0:
390,254,51447,6,0,P|397:299|346:370,1,112.5,4|0,0:0|0:0,0:0:0:0:
349,370,51789,1,2,3:0:0:0:
263,342,51961,2,0,L|261:234,1,75,2|0,0:0|0:0,0:0:0:0:
262,176,52304,1,8,0:0:0:0:
183,219,52475,5,2,3:0:0:0:
3,208,52818,1,0,0:0:0:0:
103,58,53161,1,2,0:0:0:0:
183,219,53504,5,2,0:0:0:0:
262,176,53675,2,0,L|346:184,1,75,2|2,3:0|0:0,0:0:0:0:
391,111,54018,2,0,L|391:66,2,37.5,2|2|2,0:0|0:0|0:0,0:0:0:0:
474,146,54361,2,0,P|497:201|470:286,1,150,2|0,3:0|0:0,0:0:0:0:
402,342,54875,2,0,L|322:335,1,75,2|8,0:0|0:0,0:0:0:0:
147,319,55389,5,4,0:0:0:0:
164,139,55732,2,0,L|84:132,2,75,8|2|8,0:0|3:0|0:0,0:0:0:0:
254,148,56247,1,2,3:0:0:0:
344,156,56418,2,0,L|347:116,2,37.5,0|2|2,0:0|0:0|0:0,0:0:0:0:
326,335,56932,6,0,L|364:338,2,37.5,8|2|0,0:0|0:0|0:0,0:0:0:0:
237,326,57275,2,0,L|157:319,1,75,8|2,0:0|3:0,0:0:0:0:
155,229,57618,2,0,L|-14:214,2,150,2|8|8,3:0|0:0|0:0,0:0:0:0:
208,141,58475,1,2,3:0:0:0:
208,141,58561,1,2,0:0:0:0:
208,141,58647,6,0,L|371:155,1,150,4|2,0:0|3:0,0:0:0:0:
436,198,59161,2,0,P|447:163|437:113,2,75,2|0|2,0:0|0:0|3:0,0:0:0:0:
358,243,59675,1,8,0:0:0:0:
178,227,60018,1,0,0:0:0:0:
193,47,60361,1,2,0:0:0:0:
372,62,60704,6,0,L|362:189,1,112.5,2|0,3:0|0:0,0:0:0:0:
361,196,61047,1,2,0:0:0:0:
281,236,61218,2,0,L|206:230,1,75,2|8,0:0|0:0,0:0:0:0:
143,295,61561,2,0,P|116:237|157:155,1,150,2|0,3:0|0:0,0:0:0:0:
230,125,62075,2,0,L|235:50,2,75,2|2|8,3:0|0:0|0:0,0:0:0:0:
311,162,62589,5,4,0:0:0:0:
297,342,62932,1,0,0:0:0:0:
393,260,63275,2,0,L|318:254,2,75,8|2|2,0:0|0:0|0:0,0:0:0:0:
482,269,63789,6,0,L|494:107,1,150,2|0,3:0|0:0,0:0:0:0:
344,17,64475,1,2,0:0:0:0:
179,94,64818,1,8,0:0:0:0:
163,275,65161,1,8,0:0:0:0:
311,379,65504,2,0,L|252:387,2,37.5,2|2|2,0:0|0:0|0:0,0:0:0:0:
361,304,65847,6,0,P|363:227|331:187,1,112.5,4|0,0:0|0:0,0:0:0:0:
328,185,66189,1,2,3:0:0:0:
251,137,66361,2,0,L|259:29,1,75,2|0,0:0|0:0,0:0:0:0:
341,31,66704,1,8,0:0:0:0:
410,88,66875,5,2,3:0:0:0:
251,137,67218,1,0,0:0:0:0:
403,208,67561,1,2,0:0:0:0:
244,257,67904,5,2,0:0:0:0:
181,192,68075,2,0,L|73:183,1,75,2|2,3:0|0:0,0:0:0:0:
41,122,68418,2,0,L|-8:119,2,37.5,2|2|2,0:0|0:0|0:0,0:0:0:0:
78,40,68761,2,0,L|261:55,1,150,2|0,3:0|0:0,0:0:0:0:
256,138,69275,2,0,L|330:144,1,75,2|8,0:0|0:0,0:0:0:0:
510,159,69789,5,4,0:0:0:0:
406,306,70132,2,0,L|399:380,2,75,8|2|8,0:0|3:0|0:0,0:0:0:0:
414,217,70647,1,0,0:0:0:0:
422,128,70818,2,0,L|425:85,2,37.5,0|0|0,0:0|0:0|0:0,0:0:0:0:
281,240,71332,6,0,L|277:278,2,37.5,8|2|0,0:0|0:0|0:0,0:0:0:0:
200,199,71675,2,0,L|125:192,1,75,8|2,0:0|3:0,0:0:0:0:
59,255,72018,2,0,P|37:218|67:120,2,150,4|8|8,0:0|0:0|0:0,0:0:0:0:
125,192,72875,1,2,2:0:0:0:
125,192,72961,1,2,0:0:0:0:
125,192,73047,6,0,L|271:204,1,112.5,4|0,0:0|0:0,0:0:0:0:
259,204,73389,2,0,L|357:212,1,75,2|2,3:0|3:0,0:0:0:0:
402,151,73732,2,0,B|429:81|429:81|412:0,1,150,8|0,0:0|0:0,0:0:0:0:
333,50,74247,6,0,L|207:39,1,112.5,2|8,3:0|0:0,0:0:0:0:
142,150,74761,2,0,L|254:159,1,112.5,2|8,3:0|0:0,0:0:0:0:
308,281,75275,2,0,L|196:271,1,112.5,2|8,3:0|0:0,0:0:0:0:
254,159,75789,1,2,3:0:0:0:
74,144,76132,6,0,P|61:93|102:2,2,150,2|2|2,0:0|0:0|3:0,0:0:0:0:
151,307,77161,1,8,0:0:0:0:
254,159,77504,6,0,L|250:109,3,37.5,12|2|0|2,0:0|0:0|0:0|0:0,0:0:0:0:
327,93,77846,2,0,L|329:130,3,37.5,8|2|0|2,0:0|0:0|0:0|0:0,0:0:0:0:
404,101,78189,2,0,L|398:25,1,75,8|0,0:0|0:0,0:0:0:0:
478,66,78532,2,0,L|484:141,1,75,2|8,3:0|0:0,0:0:0:0:
408,191,78875,2,0,L|414:266,1,75,0|0,0:0|0:0,0:0:0:0:
342,320,79218,2,0,L|345:362,2,37.5,8|0|2,0:0|0:0|3:0,0:0:0:0:
234,263,79561,5,0,0:0:0:0:
234,263,79646,1,2,0:0:0:0:
234,263,79732,2,0,P|168:255|111:268,2,112.5,8|8|8,0:0|0:0|0:0,0:0:0:0:
293,195,80418,2,0,P|262:174|246:169,2,37.5,0|2|2,0:0|0:0|3:0,0:0:0:0:
244,84,80761,1,2,0:0:0:0:
161,170,80932,2,0,P|105:178|50:170,1,112.5,8|0,0:0|0:0,0:0:0:0:
30,160,81275,1,2,3:0:0:0:
70,272,81446,1,8,0:0:0:0:
70,272,81532,1,2,0:0:0:0:
70,272,81618,6,0,L|65:323,3,37.5,12|2|0|2,0:0|0:0|0:0|0:0,0:0:0:0:
142,341,81961,2,0,L|145:303,3,37.5,8|0|2|0,0:0|0:0|3:0|0:0,0:0:0:0:
226,287,82304,2,0,P|271:278|326:285,1,75,8|0,0:0|0:0,0:0:0:0:
383,311,82646,1,2,3:0:0:0:
473,231,82818,2,0,L|461:353,2,112.5,8|8|8,0:0|0:0|0:0,0:0:0:0:
434,149,83504,2,0,L|428:93,2,37.5,2|2|0,3:0|0:0|0:0,0:0:0:0:
319,184,83846,2,0,P|252:188|197:172,2,112.5,8|8|8,0:0|0:0|0:0,0:0:0:0:
374,254,84532,2,0,P|342:273|327:276,2,37.5,0|2|2,0:0|0:0|3:0,0:0:0:0:
434,149,84875,2,0,L|445:30,2,112.5,2|2|2,0:0|3:0|3:0,0:0:0:0:
352,109,85561,1,8,0:0:0:0:
352,109,85646,1,2,0:0:0:0:
352,109,85732,6,0,L|298:105,3,37.5,12|2|0|2,0:0|0:0|0:0|0:0,0:0:0:0:
239,141,86075,2,0,L|185:145,3,37.5,8|2|0|2,0:0|0:0|0:0|0:0,0:0:0:0:
129,102,86418,2,0,L|44:95,1,75,8|0,0:0|0:0,0:0:0:0:
10,175,86761,2,0,P|4:221|19:261,1,75,2|8,3:0|0:0,0:0:0:0:
59,323,87104,2,0,L|134:314,1,75,0|0,0:0|0:0,0:0:0:0:
223,303,87446,2,0,L|260:298,2,37.5,8|0|2,0:0|0:0|3:0,0:0:0:0:
168,195,87789,5,0,0:0:0:0:
168,195,87875,1,2,0:0:0:0:
168,195,87961,2,0,P|147:146|163:83,2,112.5,8|8|8,0:0|0:0|0:0,0:0:0:0:
236,137,88646,2,0,L|286:130,2,37.5,0|2|2,0:0|0:0|3:0,0:0:0:0:
234,257,88989,1,2,0:0:0:0:
338,197,89161,2,0,P|379:182|453:187,1,112.5,8|0,0:0|0:0,0:0:0:0:
469,191,89504,1,2,3:0:0:0:
410,86,89675,1,8,0:0:0:0:
410,86,89761,1,2,0:0:0:0:
410,86,89846,6,0,L|403:34,3,37.5,12|2|0|2,0:0|0:0|0:0|0:0,0:0:0:0:
323,65,90189,2,0,L|302:16,3,37.5,8|0|2|0,0:0|0:0|3:0|0:0,0:0:0:0:
233,67,90532,2,0,P|199:44|136:29,1,75,8|0,0:0|0:0,0:0:0:0:
77,41,90875,1,2,3:0:0:0:
139,143,91046,2,0,B|149:199|149:199|137:256,2,112.5,8|8|8,0:0|0:0|0:0,0:0:0:0:
50,127,91732,2,0,L|55:168,2,37.5,2|2|0,3:0|0:0|0:0,0:0:0:0:
147,56,92075,6,0,L|266:42,2,112.5,8|8|8,0:0|0:0|0:0,0:0:0:0:
196,131,92761,2,0,L|255:124,2,37.5,8|2|0,0:0|0:0|0:0,0:0:0:0:
122,226,93104,2,0,L|3:212,2,112.5,8|8|8,0:0|0:0|0:0,0:0:0:0:
171,301,93789,1,0,0:0:0:0:
189,303,93874,1,2,0:0:0:0:
208,305,93961,6,0,L|385:284,1,150,4|0,0:0|3:0,0:0:0:0:
446,275,94475,2,0,P|443:318|426:348,2,75,0|0|0,3:0|3:0|3:0,0:0:0:0:
363,187,94989,2,0,L|185:207,1,150,8|0,0:0|3:0,0:0:0:0:
125,217,95503,2,0,P|128:174|145:144,2,75,8|2|0,3:0|3:0|3:0,0:0:0:0:
228,113,96018,6,0,P|207:81|87:76,1,150,4|0,0:0|3:0,0:0:0:0:
31,7,96532,2,0,P|15:40|14:78,1,75,0|0,3:0|3:0,0:0:0:0:
68,149,96875,1,0,3:0:0:0:
228,113,97046,2,0,P|225:75|208:42,2,75,8|0|0,0:0|3:0|3:0,0:0:0:0:
297,170,97561,2,0,P|313:137|314:100,1,75,2|0,3:0|0:0,0:0:0:0:
327,254,97904,5,4,0:0:0:0:
204,276,98075,2,0,L|214:202,1,75,2|2,0:0|0:0,0:0:0:0:
113,136,98418,2,0,P|81:134|23:145,2,75,0|0|0,3:0|0:0|3:0,0:0:0:0:
214,202,98932,2,0,L|194:357,1,150,8|0,0:0|3:0,0:0:0:0:
283,331,99446,1,8,3:0:0:0:
294,242,99617,5,2,3:0:0:0:
214,202,99789,2,0,L|226:105,1,75,0|4,3:0|0:0,0:0:0:0:
135,146,100132,2,0,L|125:220,1,75,2|0,3:0|0:0,0:0:0:0:
45,182,100475,2,0,L|56:84,2,75,2|0|2,3:0|0:0|3:0,0:0:0:0:
115,314,100989,2,0,P|174:333|264:301,2,150,8|2|2,0:0|3:0|3:0,0:0:0:0:
45,182,102018,6,0,L|56:84,1,75,4|0,0:0|0:0,0:0:0:0:
125,51,102361,2,0,L|222:62,1,75,0|0,3:0|3:0,0:0:0:0:
256,131,102704,2,0,L|244:228,1,75,0|0,3:0|3:0,0:0:0:0:
302,275,103046,2,0,L|377:285,1,75,8|0,0:0|0:0,0:0:0:0:
447,228,103389,2,0,L|457:154,1,75,0|8,3:0|3:0,0:0:0:0:
400,83,103732,1,2,3:0:0:0:
256,131,103904,1,0,3:0:0:0:
199,60,104075,6,0,L|125:51,2,75,4|2|0,0:0|3:0|0:0,0:0:0:0:
256,131,104589,2,0,L|330:121,2,75,2|0|2,3:0|0:0|3:0,0:0:0:0:
199,202,105104,6,0,L|38:182,1,150,8|0,0:0|3:0,0:0:0:0:
3,261,105618,2,0,L|77:270,1,75,8|2,3:0|3:0,0:0:0:0:
166,283,105961,1,0,3:0:0:0:
281,252,106132,6,0,P|294:203|287:165,1,75,4|0,0:0|0:0,0:0:0:0:
252,97,106475,1,0,3:0:0:0:
366,131,106646,2,0,L|516:112,1,150,2|0,3:0|3:0,0:0:0:0:
485,198,107161,6,0,L|475:278,1,75,8|0,0:0|3:0,0:0:0:0:
403,326,107504,1,0,0:0:0:0:
337,265,107675,2,0,P|288:252|250:259,1,75,8|0,0:0|0:0,0:0:0:0:
198,193,108018,1,2,3:0:0:0:
327,117,108189,5,4,0:0:0:0:
378,191,108361,2,0,B|481:203|481:203|456:157,2,150,4|8|0,0:0|0:0|3:0,0:0:0:0:
337,265,109218,2,0,P|288:252|250:259,1,75,12|0,0:0|0:0,0:0:0:0:
245,166,109561,2,0,P|201:191|179:223,1,75,4|0,0:0|0:0,0:0:0:0:
109,161,109904,2,0,P|96:209|102:247,1,75,8|2,3:0|3:0,0:0:0:0:
164,295,110246,1,4,0:0:0:0:
57,146,114703,6,0,L|52:44,2,75,4|0|8,0:0|3:0|0:1,0:0:0:0:
146,161,115217,2,0,L|139:26,2,112.5,2|0|2,0:0|3:0|3:0,0:0:0:0:
232,137,115903,2,0,L|226:35,2,75,8|0|8,0:1|0:0|0:1,0:0:0:0:
236,227,116417,6,0,L|337:221,2,75,2|0|2,3:0|3:0|0:0,0:0:0:0:
56,235,117103,2,0,L|61:336,1,75,8|2,0:1|0:0,0:0:0:0:
146,232,117446,2,0,L|136:62,1,150,2|2,3:0|0:0,0:0:0:0:
227,78,117960,6,0,L|328:72,1,75,2|0,3:0|0:0,0:0:0:0:
391,69,118303,2,0,L|396:170,1,75,8|0,3:1|0:0,0:0:0:0:
400,233,118646,2,0,L|298:238,1,75,2|0,3:0|0:0,0:0:0:0:
236,242,118988,1,8,3:1:0:0:
145,247,119160,6,0,L|70:251,2,75,4|0|8,0:0|0:0|0:1,0:0:0:0:
158,159,119674,2,0,L|45:164,2,112.5,2|0|2,0:0|3:0|3:0,0:0:0:0:
136,72,120360,2,0,L|61:75,2,75,8|0|8,0:1|0:0|0:1,0:0:0:0:
226,67,120874,6,0,L|229:141,2,75,2|0|2,3:0|3:0|0:0,0:0:0:0:
406,59,121560,2,0,L|507:53,1,75,8|0,0:1|3:0,0:0:0:0:
485,145,121903,2,0,L|494:309,1,150,2|2,3:0|0:0,0:0:0:0:
402,298,122417,6,0,L|397:208,1,75,2|0,3:0|0:0,0:0:0:0:
309,228,122760,2,0,L|313:327,1,75,8|0,3:1|0:0,0:0:0:0:
224,308,123103,2,0,L|220:233,1,75,2|0,3:0|0:0,0:0:0:0:
131,238,123446,1,8,3:1:0:0:
125,148,123617,6,0,L|120:46,2,75,4|0|8,0:0|3:0|0:1,0:0:0:0:
214,163,124131,2,0,L|207:28,2,112.5,2|0|2,0:0|3:0|3:0,0:0:0:0:
300,139,124817,2,0,L|294:37,2,75,8|0|8,0:1|0:0|0:1,0:0:0:0:
303,228,125331,6,0,L|307:303,2,75,2|0|2,3:0|3:0|0:0,0:0:0:0:
125,238,126017,2,0,L|121:163,1,75,8|0,0:1|3:0,0:0:0:0:
118,72,126360,2,0,L|267:64,1,150,2|8,3:0|0:1,0:0:0:0:
358,61,126874,6,0,L|363:159,1,75,2|0,3:0|0:0,0:0:0:0:
367,226,127217,2,0,L|372:324,1,75,8|0,3:1|0:0,0:0:0:0:
280,305,127560,2,0,L|274:206,1,75,2|0,3:0|0:0,0:0:0:0:
271,140,127903,1,8,3:1:0:0:
165,195,128074,6,0,P|112:211|24:179,1,150,4|2,0:0|0:0,0:0:0:0:
33,90,128588,2,0,P|86:74|174:106,1,150,4|0,0:0|0:0,0:0:0:0:
244,158,129102,2,0,P|311:188|383:172,1,150,4|0,0:0|0:0,0:0:0:0:
391,82,129616,2,0,P|323:51|251:67,1,150,4|0,0:0|0:0,0:0:0:0:
172,104,130131,6,0,L|95:100,1,75,4|2,0:0|3:0,0:0:0:0:
30,200,130474,2,0,L|107:196,1,75,2|2,3:0|3:0,0:0:0:0:
172,294,130816,6,0,L|95:290,2,75,2|8|0,3:0|0:1|0:0,0:0:0:0:
262,299,131330,1,8,0:1:0:0:
354,144,131673,2,0,L|188:152,1,150,2|8,3:0|0:1,0:0:0:0:
135,210,132188,2,0,B|108:171|108:171|121:57,1,150,2|0,3:0|0:0,0:0:0:0:
198,25,132701,1,2,0:0:0:0:
272,20,132874,1,8,0:1:0:0:
349,68,133045,6,0,P|375:139|336:233,1,150,2|8,3:0|0:1,0:0:0:0:
293,273,133559,2,0,L|304:355,2,75,2|8|0,3:0|0:1|0:0,0:0:0:0:
210,234,134073,2,0,P|165:222|130:227,1,75,8|0,0:1|0:1,0:0:0:0:
57,267,134416,5,2,3:0:0:0:
19,185,134587,2,0,L|25:97,1,75,8|8,0:1|0:1,0:0:0:0:
129,52,134930,2,0,P|189:34|293:41,2,150,2|2|2,3:0|0:0|0:0,0:0:0:0:
203,215,135958,5,4,0:0:0:0:
275,268,136130,2,0,L|269:359,2,75,0|0|0,0:0|0:0|0:0,0:0:0:0:
352,221,136644,2,0,P|394:207|436:213,1,75,2|0,0:0|0:0,0:0:0:0:
472,133,136987,2,0,P|437:119|399:121,1,75,2|0,0:0|0:0,0:0:0:0:
328,65,137330,2,0,L|315:157,1,75,2|0,0:0|0:0,0:0:0:0:
239,184,137672,2,0,L|228:109,1,75,2|0,0:0|0:0,0:0:0:0:
144,76,138015,5,2,3:0:0:0:
59,108,138187,2,0,P|40:62|41:23,2,75,2|2|0,0:0|0:0|0:0,0:0:0:0:
126,167,138701,2,0,B|138:198|138:198|122:288,1,112.5,2|0,0:0|0:0,0:0:0:0:
118,297,139044,2,0,P|180:277|265:284,1,150,2|2,0:0|0:0,0:0:0:0:
394,159,139730,1,0,0:0:0:0:
222,109,140072,6,0,P|163:100|96:119,1,112.5,2|2,3:0|3:0,0:0:0:0:
91,119,140415,1,0,0:0:0:0:
24,180,140587,2,0,P|3:142|5:85,2,75,2|0|0,3:0|0:0|0:0,0:0:0:0:
108,210,141101,6,0,B|127:244|127:244|118:322,1,112.5,2|2,3:0|3:0,0:0:0:0:
115,339,141444,1,0,0:0:0:0:
201,313,141615,2,0,L|210:238,2,75,2|0|0,3:0|0:0|0:0,0:0:0:0:
276,362,142130,6,0,P|323:371|393:347,1,112.5,2|2,3:0|3:0,0:0:0:0:
399,336,142472,1,0,0:0:0:0:
437,254,142644,2,0,L|513:261,2,75,2|8|10,3:0|3:1|3:0,0:0:0:0:
386,178,143158,2,0,L|210:194,2,150,2|2|2,0:0|0:0|0:0,0:0:0:0:
228,90,144187,5,2,3:0:0:0:
158,146,144358,2,0,B|122:158|122:158|80:152,2,75,0|2|2,0:0|0:0|0:0,0:0:0:0:
236,191,144872,2,0,L|228:270,1,75,2|2,0:0|3:0,0:0:0:0:
316,244,145215,2,0,L|323:169,1,75,2|2,0:0|0:0,0:0:0:0:
382,100,145558,2,0,P|404:127|414:179,1,75,2|0,0:0|0:0,0:0:0:0:
502,183,145901,2,0,P|489:215|449:250,1,75,2|0,0:0|0:0,0:0:0:0:
490,328,146244,5,2,3:0:0:0:
402,307,146415,2,0,B|381:275|381:275|377:231,2,75,2|2|0,0:0|0:0|0:0,0:0:0:0:
324,353,146930,2,0,L|202:343,1,112.5,2|0,0:0|0:0,0:0:0:0:
189,342,147272,2,0,P|166:295|181:190,1,150,2|2,0:0|0:0,0:0:0:0:
349,153,147958,1,2,0:0:0:0:
222,26,148301,5,4,0:0:0:0:
289,85,148472,2,0,B|327:78|327:78|361:57,2,75,0|0|0,0:0|0:0|0:0,0:0:0:0:
204,113,148987,2,0,B|191:149|191:149|192:189,1,75,0|0,0:0|0:0,0:0:0:0:
204,275,149330,5,8,1:0:0:0:
275,220,149501,2,0,P|316:219|356:235,2,75,0|0|0,0:0|0:0|0:0,0:0:0:0:
191,185,150015,2,0,P|170:149|163:106,1,75,0|0,0:0|0:0,0:0:0:0:
102,51,150358,5,4,0:0:0:0:
76,138,150530,2,0,P|52:127|18:83,2,75,0|0|0,0:0|0:0|0:0,0:0:0:0:
164,116,151044,2,0,P|166:142|145:194,1,75,0|0,0:0|0:0,0:0:0:0:
208,256,151387,6,0,P|205:282|226:334,2,75,8|0|8,0:1|0:0|0:1,0:0:0:0:
296,273,151901,2,0,P|322:275|374:254,2,75,0|0|0,0:0|0:0|0:0,0:0:0:0:
313,185,152415,6,0,B|324:136|324:136|301:31,1,150,4|4,0:0|0:0,0:0:0:0:
227,90,152930,2,0,L|211:16,2,75,0|0|4,0:0|0:0|0:0,0:0:0:0:
167,157,153444,2,0,P|121:164|21:133,2,150,0|8|8,0:0|3:1|3:1,0:0:0:0:
302,38,154472,5,4,0:0:0:0:
355,110,154644,2,0,L|441:101,2,75,2|2|0,0:0|0:0|0:0,0:0:0:0:
302,182,155158,2,0,L|216:173,1,75,2|0,0:0|0:0,0:0:0:0:
159,233,155501,2,0,P|137:181|182:93,1,150,2|2,0:0|0:0,0:0:0:0:
240,267,156187,1,8,3:1:0:0:
406,198,156530,5,4,0:0:0:0:
323,234,156701,2,0,L|315:321,2,75,0|0|0,0:0|0:0|0:0,0:0:0:0:
333,144,157215,1,0,0:0:0:0:
250,180,157387,1,2,0:0:0:0:
174,87,157558,6,0,P|124:73|25:93,1,150,8|0,0:1|0:0,0:0:0:0:
73,169,158072,1,0,0:0:0:0:
32,249,158244,2,0,L|24:333,1,75,0|2,3:0|3:0,0:0:0:0:
103,368,158587,6,0,B|158:379|158:379|261:353,1,150,4|0,0:0|0:0,0:0:0:0:
315,295,159101,2,0,P|337:248|332:199,1,75,0|2,3:0|3:0,0:0:0:0:
304,141,159444,1,2,0:0:0:0:
189,176,159615,6,0,L|94:169,2,75,8|0|0,0:1|0:0|0:0,0:0:0:0:
147,257,160130,2,0,L|52:250,2,75,8|0|0,0:1|0:0|0:0,0:0:0:0:
246,324,160644,6,0,L|406:312,1,150,4|4,0:0|0:0,0:0:0:0:
435,232,161158,2,0,P|466:257|485:298,2,75,0|2|4,0:0|0:0|0:0,0:0:0:0:
345,224,161672,2,0,P|321:182|331:70,1,150,0|8,0:0|3:1,0:0:0:0:
205,219,162358,1,8,3:1:0:0:
46,133,162701,5,4,0:0:0:0:
116,77,162872,2,0,P|119:40|106:3,2,75,2|2|0,0:0|0:0|0:0,0:0:0:0:
129,165,163387,2,0,P|159:186|198:193,1,75,2|0,0:0|0:0,0:0:0:0:
275,149,163730,2,0,L|441:140,1,150,2|2,0:0|0:0,0:0:0:0:
272,237,164415,1,8,3:1:0:0:
202,70,164758,5,4,0:0:0:0:
140,135,164930,2,0,P|114:94|112:48,2,75,0|0|0,0:0|0:0|0:0,0:0:0:0:
228,157,165444,1,0,0:0:0:0:
165,223,165615,1,0,0:0:0:0:
214,332,165787,6,0,B|260:345|260:345|385:323,1,150,8|0,0:1|3:0,0:0:0:0:
448,306,166301,1,0,0:0:0:0:
387,239,166472,2,0,P|378:197|390:154,1,75,0|2,3:0|3:0,0:0:0:0:
414,80,166815,6,0,L|261:92,1,150,4|0,0:0|0:0,0:0:0:0:
187,139,167330,2,0,L|181:62,1,75,0|0,3:0|0:0,0:0:0:0:
98,30,167672,1,2,0:0:0:0:
27,127,167844,6,0,L|21:201,2,75,8|0|0,0:1|0:0|0:0,0:0:0:0:
103,174,168358,2,0,L|97:248,2,75,8|0|0,0:1|0:0|0:0,0:0:0:0:
187,139,168872,6,0,P|249:125|324:147,1,112.5,4|0,0:0|0:0,0:0:0:0:
316,144,169215,2,0,L|321:218,1,75,2|2,3:0|3:0,0:0:0:0:
268,291,169558,2,0,B|221:306|221:306|108:290,1,150,8|0,0:0|0:0,0:0:0:0:
54,228,170072,6,0,P|34:174|46:111,1,112.5,4|8,0:0|0:0,0:0:0:0:
142,46,170586,2,0,P|198:55|247:97,1,112.5,4|8,0:0|0:0,0:0:0:0:
255,213,171100,2,0,P|218:257|157:278,1,112.5,4|8,0:0|0:0,0:0:0:0:
54,228,171614,1,4,0:0:0:0:
179,357,171957,6,0,B|102:368|102:368|15:335,2,150,2|2|2,0:0|0:0|3:0,0:0:0:0:
357,326,172986,1,8,0:0:0:0:
242,188,173329,5,4,0:0:0:0:
300,257,173671,1,2,0:0:0:0:
388,241,174014,1,2,0:0:0:0:
418,156,174357,1,2,0:0:0:0:
360,88,174700,1,2,0:0:0:0:
272,104,175043,1,2,0:0:0:0:
242,188,175386,6,0,P|217:190|188:184,3,37.5,12|2|0|2,0:0|0:0|0:0|0:0,0:0:0:0:
165,251,175728,2,0,P|145:234|129:209,3,37.5,12|2|0|2,0:0|0:0|0:0|0:0,0:0:0:0:
67,249,176071,2,0,B|54:212|54:212|70:102,1,150,8|10,0:0|3:0,0:0:0:0:
139,43,176586,1,0,0:0:0:0:
139,43,176671,1,2,0:0:0:0:
139,43,176757,6,0,P|195:31|258:43,1,112.5,12|0,0:0|0:0,0:0:0:0:
270,46,177099,1,2,3:0:0:0:
325,118,177271,2,0,L|371:112,2,37.5,8|2|2,0:0|0:0|3:0,0:0:0:0:
288,199,177614,1,0,0:0:0:0:
269,196,177699,1,2,0:0:0:0:
250,193,177785,5,8,0:0:0:0:
355,340,178128,1,2,3:0:0:0:
420,278,178299,2,0,L|507:265,2,75,8|2|0,0:0|3:0|3:0,0:0:0:0:
375,199,178814,6,0,P|365:154|396:46,1,150,4|2,0:0|3:0,0:0:0:0:
313,7,179328,2,0,L|139:24,1,150,8|2,0:0|3:0,0:0:0:0:
98,83,179842,2,0,P|135:147|140:222,1,150,12|2,0:0|3:0,0:0:0:0:
99,303,180357,1,8,0:0:0:0:
211,261,180528,2,0,B|251:252|251:252|300:261,1,75,2|8,3:0|2:0,0:0:0:0:
399,292,180871,5,4,0:0:0:0:
360,147,181042,2,0,L|352:221,1,75,4|0,0:0|0:0,0:0:0:0:
255,292,181385,2,0,L|263:394,2,75,8|2|8,0:0|2:0|3:0,0:0:0:0:
136,268,181899,6,0,B|83:221|83:221|75:126,1,150,12|2,0:0|3:0,0:0:0:0:
137,74,182414,1,8,0:0:0:0:
218,111,182585,2,0,L|233:16,1,75,2|8,3:0|3:0,0:0:0:0:
310,126,182928,6,0,P|330:160|336:202,1,75,4|0,0:0|0:0,0:0:0:0:
362,312,183271,2,0,P|321:312|282:296,1,75,0|8,0:0|0:0,0:0:0:0:
174,264,183614,2,0,P|193:228|227:202,1,75,0|0,0:0|0:0,0:0:0:0:
212,346,183957,6,0,P|159:352|85:279,1,150,8|2,0:0|3:0,0:0:0:0:
25,229,184471,1,8,0:0:0:0:
83,160,184642,2,0,L|95:69,1,75,2|8,3:0|3:0,0:0:0:0:
201,33,184985,5,4,0:0:0:0:
242,177,185157,2,0,L|254:86,1,75,0|0,0:0|0:0,0:0:0:0:
370,86,185499,2,0,L|360:160,2,75,8|2|8,0:0|3:0|0:0,0:0:0:0:
473,150,186014,6,0,B|487:187|487:187|478:241,1,75,12|0,0:0|0:0,0:0:0:0:
417,294,186357,2,0,B|377:287|377:287|335:252,1,75,2|8,3:0|0:0,0:0:0:0:
321,173,186699,1,2,3:0:0:0:
207,214,186871,1,8,3:0:0:0:
207,214,186957,1,0,0:0:0:0:
207,214,187042,6,0,P|127:230|47:198,1,150,4|2,0:0|3:0,0:0:0:0:
33,123,187557,1,8,0:0:0:0:
103,67,187728,2,0,L|212:73,1,75,2|8,2:0|3:0,0:0:0:0:
259,109,188071,6,0,P|268:70|252:24,2,75,8|0|2,0:0|0:0|3:0,0:0:0:0:
317,178,188585,1,8,0:0:0:0:
430,137,188757,1,0,0:0:0:0:
406,254,188928,2,0,P|406:298|422:328,1,75,2|4,0:0|0:0,0:0:0:0:
303,357,189271,2,0,L|151:341,1,150,2|8,0:0|0:0,0:0:0:0:
72,380,189785,2,0,P|60:341|68:299,1,75,2|8,3:0|3:0,0:0:0:0:
161,192,190128,6,0,P|179:134|148:63,1,112.5,12|0,0:0|0:0,0:0:0:0:
155,65,190471,2,0,L|87:57,2,37.5,2|2|8,3:0|3:0|0:0,0:0:0:0:
268,102,190814,2,0,L|369:90,1,75,8|8,0:0|3:0,0:0:0:0:
309,209,191157,6,0,L|154:190,1,150,4|2,0:0|3:0,0:0:0:0:
75,223,191671,2,0,B|66:185|66:185|81:142,2,75,8|2|0,3:1|3:0|3:0,0:0:0:0:
179,282,192185,2,0,L|333:300,1,150,8|2,0:0|3:0,0:0:0:0:
413,268,192699,2,0,B|422:306|422:306|407:349,2,75,8|2|0,3:1|3:0|3:0,0:0:0:0:
309,209,193214,6,0,P|291:148|317:56,1,150,4|0,0:0|0:0,0:0:0:0:
238,11,193728,2,0,P|202:6|160:11,1,75,10|10,3:0|3:0,0:0:0:0:
85,55,194071,1,0,3:0:0:0:
135,163,194242,6,0,B|127:261,2,75,8|0|2,0:0|3:0|3:0,0:0:0:0:
221,190,194757,2,0,B|214:115,1,75,8|0,0:0|0:0,0:0:0:0:
307,217,195099,5,4,0:0:0:0:
235,312,195270,2,0,L|145:301,1,75,2|2,3:0|0:0,0:0:0:0:
317,299,195613,2,0,P|316:333|286:379,2,75,0|0|2,3:0|0:0|3:0,0:0:0:0:
221,190,196127,2,0,B|206:9,1,150,8|2,0:0|3:0,0:0:0:0:
289,0,196641,1,8,3:1:0:0:
298,89,196813,5,2,3:0:0:0:
365,187,196984,2,0,L|460:179,1,75,8|4,3:2|0:0,0:0:0:0:
298,285,197327,2,0,L|203:277,1,75,2|0,3:0|0:0,0:0:0:0:
365,383,197670,2,0,L|460:375,2,75,10|0|2,3:2|3:0|3:0,0:0:0:0:
298,285,198184,2,0,P|288:224|322:139,2,150,8|2|2,0:0|3:0|3:0,0:0:0:0:
119,260,199213,6,0,L|34:251,1,75,4|0,0:0|0:0,0:0:0:0:
128,165,199556,2,0,L|137:80,1,75,2|8,3:0|3:1,0:0:0:0:
223,174,199899,2,0,L|308:183,1,75,2|0,3:0|3:0,0:0:0:0:
306,86,200241,2,0,L|315:1,1,75,8|0,0:0|0:0,0:0:0:0:
401,95,200584,2,0,L|486:104,1,75,2|8,3:0|3:1,0:0:0:0:
392,190,200927,1,2,3:0:0:0:
223,174,201099,1,8,3:2:0:0:
288,276,201270,6,0,P|297:316|291:358,2,75,4|4|0,0:0|0:0|0:0,0:0:0:0:
175,317,201784,2,0,P|135:325|93:319,2,75,8|2|0,3:1|3:0|3:0,0:0:0:0:
134,203,202299,2,0,P|125:163|173:60,1,150,8|2,0:0|3:0,0:0:0:0:
252,92,202813,2,0,L|328:83,1,75,8|2,3:0|3:0,0:0:0:0:
415,69,203156,1,10,3:0:0:0:
389,185,203327,6,0,B|381:223|381:223|385:274,1,75,4|0,0:0|0:0,0:0:0:0:
392,348,203670,1,2,3:0:0:0:
309,311,203841,2,0,P|266:301|156:327,1,150,2|2,3:0|3:0,0:0:0:0:
87,272,204356,6,0,L|97:192,1,75,8|0,0:0|0:0,0:0:0:0:
54,117,204699,1,2,3:0:0:0:
121,57,204870,2,0,L|201:67,1,75,8|0,3:1|3:0,0:0:0:0:
276,24,205213,1,8,3:1:0:0:
336,91,205384,5,4,0:0:0:0:
445,41,205556,1,0,0:0:0:0:
445,41,205641,1,2,0:0:0:0:
445,41,205727,2,0,L|439:95,3,37.5,0|2|0|2,0:0|0:0|0:0|0:0,0:0:0:0:
439,100,206070,2,0,L|427:208,1,75,8|0,0:0|2:0,0:0:0:0:
411,323,206413,5,12,0:0:0:0:
254,234,206756,2,0,L|260:180,3,37.5,2|2|0|2,3:0|0:0|0:0|0:0,0:0:0:0:
185,174,207099,2,0,L|176:120,3,37.5,8|2|2|2,0:0|0:0|0:0|0:0,0:0:0:0:
104,132,207441,1,12,0:0:0:0:
106,170,212926,5,4,0:0:0:0:
193,148,213098,1,2,0:0:0:0:
280,126,213269,2,0,L|269:213,1,75,0|2,0:0|0:0,0:0:0:0:
251,319,213612,1,2,3:0:0:0:
338,341,213783,2,0,L|327:254,1,75,2|0,0:0|0:0,0:0:0:0:
378,191,214126,1,8,0:0:0:0:
378,191,214212,1,0,0:0:0:0:
378,191,214298,2,0,L|369:126,2,37.5,2|0|2,0:0|0:0|3:0,0:0:0:0:
443,98,214641,6,0,P|404:70|346:68,1,75,2|2,0:0|0:0,0:0:0:0:
293,93,214983,2,0,B|256:113|256:113|161:102,1,112.5,2|0,0:3|0:0,0:0:0:0:
164,101,215326,1,2,0:0:0:0:
78,130,215498,2,0,P|72:90|89:43,2,75,2|2|0,3:0|0:0|0:0,0:0:0:0:
146,188,216012,2,0,P|152:228|135:275,1,75,2|8,3:0|0:0,0:0:0:0:
192,336,216355,6,0,L|377:329,1,150,2|2,3:0|3:0,0:0:0:0:
436,176,217041,2,0,L|286:181,1,150,2|2,3:0|0:0,0:0:0:0:
182,34,217726,2,0,L|277:30,1,75,2|2,3:0|0:0,0:0:0:0:
347,26,218069,1,8,0:0:0:0:
420,77,218241,2,0,L|477:76,2,37.5,8|8|4,0:0|0:0|0:0,0:0:0:0:
119,220,221155,6,0,P|101:173|115:105,2,112.5,2|2|2,3:0|3:0|3:0,0:0:0:0:
192,272,221841,1,8,0:0:0:0:
270,229,222012,1,0,0:0:0:0:
270,229,222098,1,0,0:0:0:0:
270,229,222183,2,0,L|412:237,2,112.5,2|2|2,3:0|3:0|3:0,0:0:0:0:
219,154,222869,6,0,P|210:114|217:69,1,75,2|2,3:0|0:0,0:0:0:0:
299,106,223212,2,0,P|329:78|371:61,1,75,8|2,0:0|0:0,0:0:0:0:
380,151,223555,2,0,P|419:163|454:191,1,75,0|2,0:0|3:0,0:0:0:0:
381,243,223898,6,0,P|390:283|367:355,2,112.5,2|2|2,3:0|3:0|3:0,0:0:0:0:
295,270,224583,1,8,0:0:0:0:
235,201,224755,1,0,0:0:0:0:
235,201,224841,1,0,0:0:0:0:
235,201,224926,2,0,L|97:209,2,112.5,2|2|2,3:0|3:0|3:0,0:0:0:0:
274,120,225612,6,0,P|283:62|265:25,1,75,2|2,3:0|0:0,0:0:0:0:
194,79,225955,2,0,P|159:31|120:18,1,75,8|0,0:0|0:0,0:0:0:0:
108,106,226298,2,0,P|50:97|13:115,1,75,0|8,0:0|0:0,0:0:0:0:
66,185,226641,6,0,B|73:224|73:224|55:323,2,112.5,2|2|2,2:0|3:0|3:0,0:0:0:0:
153,206,227326,1,8,0:0:0:0:
227,155,227498,1,0,0:0:0:0:
227,155,227583,1,0,0:0:0:0:
227,155,227669,2,0,P|241:97|215:30,2,112.5,2|2|2,3:0|3:0|3:0,0:0:0:0:
271,233,228355,6,0,P|329:246|392:237,1,112.5,2|0,3:0|0:0,0:0:0:0:
402,231,228698,1,8,0:0:0:0:
464,295,228869,1,0,0:0:0:0:
468,174,229041,1,2,0:0:0:0:
468,174,229126,1,8,3:0:0:0:
468,174,229212,2,0,L|470:114,1,37.5,10|10,3:0|3:0,0:0:0:0:
