osu file format v14

[General]
AudioFilename: 02 moon and back.mp3
AudioLeadIn: 0
PreviewTime: 27208
Countdown: 0
SampleSet: Soft
StackLeniency: 0.7
Mode: 0
LetterboxInBreaks: 0
WidescreenStoryboard: 0

[Editor]
DistanceSpacing: 1
BeatDivisor: 1
GridSize: 32
TimelineZoom: 1

[Metadata]
Title:moon and back
TitleUnicode:moon and back
Artist:JVKE
ArtistUnicode:JVKE
Creator:Kyouren
Version:normal <3
Source:
Tags:jake jacob dodge lawson zac zachary zvc alternative indie pop english hiphop hip hop hip-hop rap this is what ____ feels like (vol. 1-4) 1 one 4 four volume vol blank first debut album falling in love 554hz 554 hz ep extended play feeling section sections chapters chapter male vocal vocals vocalist bloom demo gokugohan12468 kittyadventure mildly accurate
BeatmapID:4520529
BeatmapSetID:2146136

[Difficulty]
HPDrainRate:4
CircleSize:3
OverallDifficulty:4
ApproachRate:5
SliderMultiplier:2
SliderTickRate:1

[Events]
//Background and Video events
0,0,"98099129_p0.jpg",0,0
//Break Periods
2,5408,6842
//Storyboard Layer 0 (Background)
//Storyboard Layer 1 (Fail)
//Storyboard Layer 2 (Pass)
//Storyboard Layer 3 (Foreground)
//Storyboard Layer 4 (Overlay)
//Storyboard Sound Samples

[TimingPoints]
42,666.666666666667,4,2,1,35,1,0
708,-111.111111111111,4,2,1,35,0,0
2708,-100,4,2,1,70,0,1
5208,-111.111111111111,4,2,1,40,0,0
8042,-111.111111111111,4,2,1,50,0,0
12708,-111.111111111111,4,2,1,35,0,0
13042,-111.111111111111,4,2,1,25,0,0
13375,-111.111111111111,4,2,1,50,0,0
18708,-100,4,2,2,60,0,0
26708,-111.111111111111,4,2,1,35,0,0
29375,-100,4,2,1,70,0,1
31875,-111.111111111111,4,2,1,60,0,0
34708,-100,4,2,1,70,0,1
37208,-111.111111111111,4,2,1,60,0,0
40042,-100,4,2,1,70,0,1
41042,-100,4,2,1,70,0,1
42042,-100,4,2,1,70,0,1
44375,-100,4,2,1,70,0,1
45042,-100,4,2,1,70,0,0
45375,-100,4,2,1,70,0,1
47875,-111.111111111111,4,2,1,60,0,0
48708,-111.111111111111,4,2,1,60,0,0
49375,-111.111111111111,4,2,1,50,0,0
49708,-111.111111111111,4,2,1,40,0,0
50042,-111.111111111111,4,2,1,30,0,0
50375,-111.111111111111,4,2,1,20,0,0
50708,-100,4,2,1,70,0,0
53042,-100,4,2,1,70,0,0
53375,-111.111111111111,4,2,1,60,0,0
56042,-100,4,2,1,60,0,0
56708,-100,4,2,1,70,0,0
57042,-100,4,2,1,70,0,0
58708,-111.111111111111,4,2,1,70,0,0
61375,-100,4,2,1,70,0,0
66708,-111.111111111111,4,2,1,60,0,0
70708,-111.111111111111,4,2,1,35,0,0
71375,-100,4,2,1,50,0,0
72042,-90.9090909090909,4,2,1,70,0,1
74542,-100,4,2,1,60,0,0
77375,-90.9090909090909,4,2,1,70,0,1
79875,-100,4,2,1,60,0,0
82708,-90.9090909090909,4,2,1,70,0,1
87708,-90.9090909090909,4,2,1,70,0,0
88042,-90.9090909090909,4,2,1,70,0,1
90542,-100,4,2,1,50,0,0
93375,-111.111111111111,4,2,5,60,0,0
104042,-100,4,2,1,60,0,0
112042,-111.111111111111,4,2,1,50,0,0
112708,-111.111111111111,4,2,1,35,0,0
114042,-100,4,2,1,70,0,1
114542,-100,4,2,1,70,0,0
114708,-90.9090909090909,4,2,1,80,0,1
117375,-90.9090909090909,4,2,3,80,0,1
117542,-90.9090909090909,4,2,1,80,0,1
122708,-90.9090909090909,4,2,3,80,0,1
122875,-90.9090909090909,4,2,1,80,0,1
125042,-90.9090909090909,4,2,1,80,0,0
125375,-90.9090909090909,4,2,1,80,0,1
126375,-90.9090909090909,4,2,1,80,0,1
126708,-90.9090909090909,4,2,1,80,0,1
130375,-90.9090909090909,4,2,1,80,0,0
130708,-90.9090909090909,4,2,1,80,0,1
133375,-100,4,2,1,70,0,1
134708,-100,4,2,1,70,0,1
135708,-100,4,2,1,55,0,1
136042,-100,4,2,1,30,0,0
136208,-100,4,2,1,15,0,0
146375,-100,4,2,1,15,0,0

[Colours]
Combo1 : 210,210,210
Combo2 : 159,159,159

[HitObjects]
440,190,708,6,0,L|482:204,2,44.999998626709,2|2|2,0:0|0:0|0:0,0:0:0:0:
370,131,1375,1,2,0:0:0:0:
285,161,1708,1,2,0:0:0:0:
285,251,2042,1,2,0:0:0:0:
355,306,2375,1,0,0:0:0:0:
452,282,2708,6,2,L|480:84,1,200,4|0,0:3|0:0,1:0:0:0:
393,33,3708,2,2,P|248:19|148:124,1,300,4|0,0:3|0:0,1:0:0:0:
69,185,5042,2,0,L|19:175,1,50,4|2,0:3|0:0,0:0:0:0:
20,175,8042,6,0,L|108:158,1,89.999997253418,2|0,0:0|0:0,0:0:0:0:
155,81,8708,2,0,L|243:98,1,89.999997253418,2|2,0:0|0:0,0:0:0:0:
275,130,9208,1,2,0:0:0:0:
275,130,9375,2,0,L|363:113,1,89.999997253418,2|2,0:0|0:0,0:0:0:0:
444,152,10042,2,0,L|427:240,1,89.999997253418,2|2,0:0|0:0,0:0:0:0:
451,326,10708,5,2,0:0:0:0:
361,334,11042,2,0,L|273:351,1,89.999997253418,2|2,0:0|0:0,0:0:0:0:
184,367,11708,1,2,0:0:0:0:
191,277,12042,2,0,L|208:189,1,89.999997253418,2|2,0:0|0:0,0:0:0:0:
294,165,12708,2,0,L|277:77,1,89.999997253418
197,35,13375,6,0,L|109:18,1,89.999997253418,2|0,0:0|0:0,0:0:0:0:
30,62,14042,2,0,P|36:106|28:150,1,89.9999972534181,2|2,0:0|0:0,0:0:0:0:
59,183,14542,1,2,0:0:0:0:
59,183,14708,2,0,L|42:271,1,89.999997253418,2|2,0:0|0:0,0:0:0:0:
88,348,15375,2,0,P|132:348|173:331,1,89.9999972534181,2|2,0:0|0:0,0:0:0:0:
240,269,16042,6,0,L|328:286,1,89.999997253418,2|2,0:0|0:0,0:0:0:0:
378,360,16708,2,0,L|466:343,1,89.999997253418,2|2,0:0|0:0,0:0:0:0:
510,264,17375,1,2,0:0:0:0:
439,207,17708,1,2,0:0:0:0:
503,143,18042,2,0,L|486:55,1,89.999997253418,0|2,0:0|0:0,0:0:0:0:
455,21,18542,1,2,0:0:0:0:
455,21,18708,6,0,P|405:24|369:56,1,100,2|2,0:0|0:0,0:0:0:0:
270,71,19375,2,0,L|288:169,1,100,10|2,0:0|0:0,0:0:0:0:
258,209,19875,1,2,0:0:0:0:
258,209,20042,1,2,0:0:0:0:
278,306,20375,1,2,0:0:0:0:
181,332,20708,2,0,L|82:350,1,100,10|0,0:0|0:0,0:0:0:0:
23,269,21375,6,0,L|4:170,1,100,2|0,0:0|0:0,0:0:0:0:
67,93,22042,1,10,0:0:0:0:
149,36,22375,2,0,L|198:26,1,50,2|2,0:0|0:0,0:0:0:0:
235,59,22708,2,0,L|334:40,1,100,2|2,0:0|0:0,0:0:0:0:
418,92,23375,1,10,0:0:0:0:
490,223,23875,1,0,0:0:0:0:
490,223,24042,6,0,L|471:322,1,100,2|2,0:0|0:0,0:0:0:0:
378,359,24708,2,0,L|368:309,1,50,10|2,0:0|0:0,0:0:0:0:
323,288,25042,1,2,0:0:0:0:
234,240,25375,2,0,L|253:141,1,100,2|2,0:0|0:0,0:0:0:0:
337,88,26042,1,10,0:0:0:0:
268,15,26375,1,2,0:0:0:0:
268,15,27375,6,0,L|312:6,2,44.999998626709,2|2|2,0:0|0:0|0:0,0:0:0:0:
193,65,28042,2,0,L|104:47,1,89.9999972534181,2|2,0:0|0:0,0:0:0:0:
26,92,28708,2,0,L|8:180,1,89.9999972534181,2|0,0:0|0:0,0:0:0:0:
49,271,29375,6,2,P|142:252|167:161,1,200,4|0,0:3|0:0,1:0:0:0:
265,160,30375,2,2,P|238:26|104:47,1,300,4|0,0:3|0:0,1:0:0:0:
20,103,31708,1,4,0:3:0:0:
20,103,31875,2,0,L|31:146,1,44.999998626709,2|0,0:0|0:0,0:0:0:0:
133,295,32708,6,0,L|121:338,2,44.999998626709,2|2|2,0:0|0:0|0:0,0:0:0:0:
217,259,33375,2,0,P|261:262|304:249,1,89.9999972534181,2|2,0:0|0:0,0:0:0:0:
379,300,34042,2,0,P|412:270|434:231,1,89.9999972534181,2|0,0:0|0:0,0:0:0:0:
504,160,34708,6,2,P|487:66|395:43,1,200,4|0,0:3|0:0,1:0:0:0:
298,21,35708,2,2,P|164:52|178:189,1,300,4|0,0:3|0:0,1:0:0:0:
244,264,37042,1,4,0:3:0:0:
244,264,37208,2,0,L|237:308,1,44.999998626709,2|0,0:0|0:0,0:0:0:0:
62,262,38042,6,0,L|17:255,2,44.999998626709,2|2|2,0:0|0:0|0:0,0:0:0:0:
131,204,38708,1,2,0:0:0:0:
55,155,39042,2,0,L|68:66,1,89.9999972534181,2|0,0:0|0:0,0:0:0:0:
149,27,39708,2,0,L|193:33,1,44.999998626709,2|2,0:0|0:0,0:0:0:0:
231,67,40042,6,0,B|351:54|303:114|423:99,1,200,4|2,0:3|0:0,0:0:0:0:
467,75,40875,1,2,0:0:0:0:
467,75,41042,2,0,B|495:175|495:175|465:266,1,200,4|0,0:3|0:0,0:0:0:0:
395,338,42042,1,0,0:0:0:0:
297,314,42375,2,0,L|247:321,1,50,2|2,0:0|0:0,0:0:0:0:
205,347,42708,6,0,P|109:341|59:259,1,200,4|2,0:3|0:0,0:0:0:0:
92,220,43542,1,2,0:0:0:0:
92,220,43708,2,0,L|113:21,1,200,4|2,0:3|0:0,0:0:0:0:
199,72,44708,1,2,0:0:0:0:
289,28,45042,1,0,0:0:0:0:
377,74,45375,6,2,P|460:113|435:201,1,200,4|0,0:3|0:0,1:0:0:0:
460,298,46375,2,2,P|333:352|262:234,1,300,4|0,0:3|0:0,1:0:0:0:
236,138,47708,1,4,0:3:0:0:
236,138,47875,2,0,L|191:145,1,44.999998626709,2|0,0:0|0:0,0:0:0:0:
116,95,48375,1,0,0:0:0:0:
57,163,48708,6,0,L|12:170,2,44.999998626709,2|2|2,0:0|0:0|0:0,0:0:0:0:
119,228,49375,2,0,P|129:271|126:316,1,89.9999972534181,2|0,0:0|0:0,0:0:0:0:
205,359,50042,2,0,P|230:321|246:280,1,89.9999972534181
343,304,50708,6,0,P|346:254|341:204,1,100,4|4,1:0|0:3,0:0:0:0:
385,180,51208,1,4,0:3:0:0:
385,180,51375,2,0,L|433:191,2,50,10|2|4,0:0|0:0|0:3,0:0:0:0:
327,97,52042,1,2,0:0:0:0:
327,97,52208,2,0,L|315:48,1,50,8|4,0:0|0:3,0:0:0:0:
220,15,52708,2,0,L|208:63,1,50,10|2,0:0|0:0,0:0:0:0:
159,76,53042,2,0,L|170:124,1,50,4|2,0:3|0:0,0:0:0:0:
206,151,53375,5,2,0:0:0:0:
147,218,53708,2,0,L|103:207,2,44.999998626709,2|2|10,0:0|0:0|0:0,0:0:0:0:
183,300,54375,2,0,L|226:289,1,44.999998626709,2|2,0:0|0:0,0:0:0:0:
263,315,54708,1,2,0:0:0:0:
263,315,54875,2,0,L|306:304,1,44.999998626709,8|2,0:0|0:0,0:0:0:0:
387,345,55375,2,0,P|420:315|436:273,1,89.9999972534181,8|0,0:0|0:0,0:0:0:0:
504,199,56042,6,0,L|489:100,1,100,4|4,1:0|0:3,0:0:0:0:
440,90,56542,1,4,0:3:0:0:
440,90,56708,2,0,L|447:40,2,50,10|2|4,0:0|0:0|0:3,0:0:0:0:
348,130,57375,1,2,0:0:0:0:
348,130,57542,2,0,L|298:137,1,50,8|4,0:0|0:3,0:0:0:0:
218,197,58042,2,0,L|210:246,1,50,10|2,0:0|0:0,0:0:0:0:
164,268,58375,2,0,L|171:317,1,50,4|2,0:3|0:0,0:0:0:0:
142,352,58708,5,2,0:0:0:0:
56,322,59042,2,0,L|7:315,2,44.999998626709,2|2|10,0:0|0:0|0:0,0:0:0:0:
74,234,59708,2,0,L|67:185,1,44.999998626709,2|2,0:0|0:0,0:0:0:0:
95,154,60042,1,2,0:0:0:0:
95,154,60208,2,0,L|88:105,1,44.999998626709,8|2,0:0|0:0,0:0:0:0:
136,33,60708,2,0,L|225:45,1,89.9999972534181,8|2,0:0|0:0,0:0:0:0:
254,80,61208,1,2,0:0:0:0:
254,80,61375,6,0,L|352:65,1,100,4|4,1:0|0:3,0:0:0:0:
395,92,61875,1,4,0:3:0:0:
395,92,62042,1,10,0:0:0:0:
469,158,62375,2,0,L|461:207,1,50,4|2,0:3|0:0,0:0:0:0:
417,230,62708,1,2,0:0:0:0:
417,230,62875,2,0,L|424:279,1,50,8|4,0:0|0:3,0:0:0:0:
355,352,63375,2,0,L|256:337,1,100,10|0,0:0|0:0,0:0:0:0:
159,311,64042,6,0,P|113:329|63:327,1,100,4|4,0:3|0:3,0:0:0:0:
25,294,64542,1,4,0:3:0:0:
25,294,64708,1,8,0:0:0:0:
64,202,65042,2,0,L|71:152,1,50,4|2,0:3|0:0,0:0:0:0:
35,116,65375,1,2,0:0:0:0:
35,116,65542,2,0,L|42:66,1,50,8|4,0:0|0:3,0:0:0:0:
131,21,66042,2,0,P|176:39|226:37,1,100,8|0,0:0|0:0,0:0:0:0:
263,72,66542,1,0,0:0:0:0:
263,72,66708,6,0,L|352:61,1,89.9999972534181,4|2,1:0|0:0,0:0:0:0:
428,109,67375,2,0,L|422:153,1,44.999998626709,10|2,0:0|0:0,0:0:0:0:
451,188,67708,1,2,0:0:0:0:
374,236,68042,2,0,L|384:325,1,89.9999972534181,2|2,0:0|0:0,0:0:0:0:
305,368,68708,1,10,0:0:0:0:
224,327,69042,1,0,0:0:0:0:
273,251,69375,6,0,L|283:161,1,89.9999972534181,2|0,0:0|0:0,0:0:0:0:
213,104,70042,2,0,L|207:59,2,44.999998626709,2|2|2,0:0|0:0|0:0,0:0:0:0:
149,168,70708,1,2,0:0:0:0:
66,131,71042,1,2,0:0:0:0:
7,199,71375,1,2,0:0:0:0:
85,243,71708,1,0,0:0:0:0:
33,340,72042,6,0,P|87:340|141:353,1,110.000003356934,4|4,1:0|0:3,0:0:0:0:
185,320,72542,1,4,0:3:0:0:
185,320,72708,1,8,0:0:0:0:
287,360,73042,2,0,L|341:352,1,55.0000016784668,4|0,0:3|3:0,0:0:0:0:
373,306,73375,1,0,3:0:0:0:
373,306,73542,2,0,L|427:313,1,55.0000016784668,8|4,0:0|0:3,0:0:0:0:
500,230,74042,2,0,L|489:120,1,110.000003356934,8|4,0:0|0:3,0:0:0:0:
457,82,74542,1,2,0:0:0:0:
457,82,74708,5,0,0:0:0:0:
259,113,75375,2,0,L|265:162,2,50,10|2|2,0:0|0:0|0:0,0:0:0:0:
200,29,76042,2,0,L|150:35,1,50,2|8,0:0|0:0,0:0:0:0:
129,80,76375,1,2,0:0:0:0:
37,39,76708,1,10,0:0:0:0:
0,132,77042,1,0,0:0:0:0:
73,214,77375,6,0,P|80:268|77:323,1,110.000003356934,4|4,1:0|0:3,0:0:0:0:
120,357,77875,1,4,0:3:0:0:
120,357,78042,1,8,0:0:0:0:
216,305,78375,2,0,L|213:250,1,55.0000016784668,4|0,0:3|3:0,0:0:0:0:
249,208,78708,1,0,3:0:0:0:
249,208,78875,2,0,L|246:153,1,55.0000016784668,8|4,0:0|0:3,0:0:0:0:
322,73,79375,2,0,P|374:59|428:70,1,110.000003356934,8|4,0:0|0:3,0:0:0:0:
460,107,79875,1,2,0:0:0:0:
460,107,80042,5,0,0:0:0:0:
463,306,80708,2,0,L|512:297,2,50,10|2|2,0:0|0:0|0:0,0:0:0:0:
386,371,81375,2,0,L|336:362,1,50,2|8,0:0|0:0,0:0:0:0:
317,316,81708,1,4,0:3:0:0:
219,294,82042,1,10,0:0:0:0:
219,294,82208,2,0,L|227:244,2,50,4|2|2,0:3|0:0|0:0,0:0:0:0:
170,319,82708,6,0,P|116:318|74:283,1,110.000003356934,4|4,1:0|0:3,0:0:0:0:
40,240,83208,1,4,0:3:0:0:
40,240,83375,2,0,L|49:185,1,55.0000016784668,10|2,0:0|0:0,0:0:0:0:
18,139,83708,1,4,0:3:0:0:
135,23,84208,1,8,0:0:0:0:
135,23,84375,1,4,0:3:0:0:
227,81,84708,2,0,L|208:189,1,110.000003356934,8|4,0:0|0:3,0:0:0:0:
234,237,85208,1,2,0:0:0:0:
234,237,85375,6,0,P|286:251|340:243,1,110.000003356934,4|4,1:0|0:3,0:0:0:0:
378,203,85875,1,4,0:3:0:0:
378,203,86042,2,0,L|432:210,1,55.0000016784668,10|2,0:0|0:0,0:0:0:0:
481,183,86375,1,4,0:3:0:0:
429,30,86875,1,8,0:0:0:0:
429,30,87042,1,4,0:3:0:0:
329,76,87375,1,8,0:0:0:0:
329,76,87542,2,0,L|274:68,1,55.0000016784668,4|0,0:3|0:0,0:0:0:0:
169,34,88042,6,0,P|114:27|64:49,1,110.000003356934,4|4,1:0|0:3,0:0:0:0:
34,95,88542,1,4,0:3:0:0:
34,95,88708,1,8,0:0:0:0:
100,182,89042,2,0,L|92:237,1,55.0000016784668,4|0,0:3|3:0,0:0:0:0:
47,268,89375,1,0,3:0:0:0:
47,268,89542,2,0,L|55:323,1,55.0000016784668,8|4,0:0|0:3,0:0:0:0:
158,359,90042,2,0,P|207:337|261:342,1,110.000003356934,8|4,0:0|0:3,0:0:0:0:
303,314,90542,1,2,0:0:0:0:
303,314,90708,5,0,0:0:0:0:
396,350,91042,1,0,0:0:0:0:
460,273,91375,2,0,L|509:265,2,50,10|2|2,0:0|0:0|0:0,0:0:0:0:
391,200,92042,2,0,L|395:150,1,50,2|8,0:0|0:0,0:0:0:0:
433,117,92375,1,0,0:0:0:0:
362,46,92708,2,0,P|314:33|265:42,1,100,8|2,0:0|0:0,0:0:0:0:
205,109,93375,6,0,L|161:99,2,44.999998626709,2|2|2,0:0|0:0|0:0,0:0:0:0:
265,175,94042,2,0,L|308:165,2,44.999998626709,10|2|2,0:0|0:0|0:0,0:0:0:0:
205,242,94708,2,0,L|195:285,1,44.999998626709,2|2,0:0|0:0,0:0:0:0:
159,314,95042,2,0,L|115:304,1,44.999998626709,2|2,0:0|0:0,0:0:0:0:
75,282,95375,2,0,L|93:194,1,89.9999972534181,10|2,0:0|0:0,0:0:0:0:
50,115,96042,6,0,L|5:121,2,44.999998626709,2|2|2,0:0|0:0|0:0,0:0:0:0:
118,57,96708,2,0,L|108:13,2,44.999998626709,10|2|2,0:0|0:0|0:0,0:0:0:0:
193,106,97375,2,0,L|228:77,1,44.999998626709,2|2,0:0|0:0,0:0:0:0:
270,93,97708,1,2,0:0:0:0:
342,38,98042,2,0,P|386:33|428:49,1,89.9999972534181,10|2,0:0|0:0,0:0:0:0:
460,132,98708,6,0,L|504:124,2,44.999998626709,2|2|2,0:0|0:0|0:0,0:0:0:0:
399,198,99375,2,0,L|391:242,1,44.999998626709,10|2,0:0|0:0,0:0:0:0:
348,256,99708,2,0,L|355:300,1,44.999998626709,2|2,0:0|0:0,0:0:0:0:
333,339,100042,2,0,P|289:345|248:327,1,89.9999972534181,2|2,0:0|0:0,0:0:0:0:
209,305,100542,1,2,0:0:0:0:
209,305,100708,2,0,L|224:216,1,89.9999972534181,10|2,0:0|0:0,0:0:0:0:
277,143,101375,6,0,L|321:135,2,44.999998626709,2|2|2,0:0|0:0|0:0,0:0:0:0:
217,75,102042,2,0,L|229:31,2,44.999998626709,10|2|2,0:0|0:0|0:0,0:0:0:0:
180,101,102542,1,2,0:0:0:0:
180,101,102708,2,0,L|91:116,1,89.9999972534181,2|2,0:0|0:0,0:0:0:0:
21,173,103375,2,0,L|5:261,1,89.9999972534181,10|2,0:0|0:0,0:0:0:0:
63,342,104042,6,0,B|172:323|123:264|232:249,1,200,4|10,0:3|0:0,0:0:0:0:
276,280,104875,1,2,0:0:0:0:
276,280,105042,1,2,0:0:0:0:
370,290,105375,2,0,L|397:248,1,50,2|2,0:0|0:0,0:0:0:0:
444,231,105708,2,0,L|433:182,1,50,2|2,0:0|0:0,0:0:0:0:
454,136,106042,2,0,L|412:108,2,50,10|0|2,0:0|0:0|0:0,0:0:0:0:
496,45,106708,5,2,0:0:0:0:
402,9,107042,1,0,3:0:0:0:
307,40,107375,2,0,L|297:89,1,50,10|2,0:0|0:0,0:0:0:0:
249,104,107708,2,0,L|258:153,1,50,2|2,0:0|0:0,0:0:0:0:
297,185,108042,2,0,L|277:283,1,100,2|2,0:0|0:0,0:0:0:0:
177,283,108708,2,0,L|186:332,1,50,10|2,0:0|0:0,0:0:0:0:
150,367,109042,1,2,0:0:0:0:
51,350,109375,6,0,L|70:251,1,100,2|0,0:0|3:0,0:0:0:0:
9,172,110042,2,0,L|0:122,1,50,10|2,0:0|0:0,0:0:0:0:
48,112,110375,2,0,L|57:62,1,50,2|2,0:0|0:0,0:0:0:0:
102,39,110708,2,0,L|200:58,1,100,2|2,0:0|0:0,0:0:0:0:
244,148,111375,2,0,L|293:138,1,50,10|2,0:0|0:0,0:0:0:0:
321,97,111708,2,2,L|419:116,1,100,2|2,0:0|0:0,1:0:0:0:
485,284,112708,6,0,L|492:328,2,44.999998626709,2|2|2,0:0|0:0|0:0,0:0:0:0:
406,239,113375,1,2,0:0:0:0:
333,291,113708,1,2,0:0:0:0:
244,244,114042,6,2,B|258:210|258:210|243:174|243:174|252:160|252:160|262:103,1,150,10|0,0:0|0:0,1:0:0:0:
227,61,114708,6,0,P|177:39|123:47,1,110.000003356934,4|4,1:0|0:3,0:0:0:0:
81,83,115208,1,4,0:3:0:0:
81,83,115375,1,8,0:0:0:0:
21,175,115708,2,0,L|29:229,1,55.0000016784668,4|0,0:3|3:0,0:0:0:0:
78,254,116042,1,0,3:0:0:0:
78,254,116208,2,0,L|69:308,1,55.0000016784668,8|4,0:0|0:3,0:0:0:0:
167,359,116708,2,0,L|276:344,1,110.000003356934,8|4,0:0|0:3,0:0:0:0:
325,369,117208,1,2,0:0:0:0:
325,369,117375,5,2,0:0:0:0:
433,350,117708,1,0,0:0:0:0:
429,239,118042,2,0,L|438:185,1,55.0000016784668,10|2,0:0|0:0,0:0:0:0:
484,154,118375,1,2,0:0:0:0:
422,63,118708,1,2,0:0:0:0:
422,63,118875,2,0,L|368:72,1,55.0000016784668,8|2,0:0|0:0,0:0:0:0:
267,25,119375,2,0,P|255:78|266:131,1,110.000003356934,10|2,0:0|0:0,0:0:0:0:
211,227,120042,6,0,P|222:280|211:333,1,110.000003356934,4|4,1:0|0:3,0:0:0:0:
157,345,120542,1,4,0:3:0:0:
157,345,120708,2,0,L|102:336,1,55.0000016784668,10|2,0:0|0:0,0:0:0:0:
68,292,121042,2,0,L|76:237,1,55.0000016784668,4|0,0:3|3:0,0:0:0:0:
44,193,121375,1,0,3:0:0:0:
44,193,121542,2,0,L|52:138,1,55.0000016784668,8|4,0:0|0:3,0:0:0:0:
127,57,122042,2,0,L|235:74,1,110.000003356934,8|4,0:0|0:3,0:0:0:0:
270,117,122542,1,2,0:0:0:0:
270,117,122708,5,2,0:0:0:0:
365,62,123042,1,0,0:0:0:0:
450,131,123375,2,0,L|442:186,1,55.0000016784668,10|2,0:0|0:0,0:0:0:0:
478,227,123708,1,2,0:0:0:0:
420,320,124042,1,2,0:0:0:0:
420,320,124208,2,0,L|365:312,1,55.0000016784668,8|4,0:0|0:3,0:0:0:0:
264,355,124708,1,10,0:0:0:0:
264,355,124875,2,0,L|209:347,1,55.0000016784668,4|2,0:3|0:0,0:0:0:0:
170,307,125208,1,2,0:0:0:0:
170,307,125375,6,0,L|185:198,1,110.000003356934,4|4,1:0|0:3,0:0:0:0:
229,164,125875,1,4,0:3:0:0:
229,164,126042,2,0,L|221:109,1,55.0000016784668,10|2,0:0|0:0,0:0:0:0:
249,62,126375,1,4,0:3:0:0:
87,28,126875,1,8,0:0:0:0:
87,28,127042,2,0,L|79:83,1,55.0000016784668,4|0,0:3|0:0,0:0:0:0:
30,107,127375,1,8,0:0:0:0:
76,206,127708,2,0,L|68:261,1,55.0000016784668,4|2,0:3|0:0,0:0:0:0:
38,307,128042,6,0,P|91:295|141:315,1,110.000003356934,4|4,1:0|0:3,0:0:0:0:
183,351,128542,1,4,0:3:0:0:
183,351,128708,1,10,0:0:0:0:
280,299,129042,2,0,P|333:310|383:290,1,110.000003356934,4|0,0:3|3:0,0:0:0:0:
407,240,129542,1,8,0:0:0:0:
407,240,129708,1,4,0:3:0:0:
492,169,130042,1,10,0:0:0:0:
492,169,130208,2,0,L|489:114,1,55.0000016784668,4|2,0:3|0:0,0:0:0:0:
393,59,130708,6,0,P|344:34|290:40,1,110.000003356934,4|4,1:0|0:3,0:0:0:0:
252,80,131208,1,4,0:3:0:0:
252,80,131375,1,8,0:0:0:0:
192,172,131708,2,0,L|194:226,1,55.0000016784668,4|0,0:3|3:0,0:0:0:0:
158,268,132042,1,0,3:0:0:0:
158,268,132208,2,0,L|103:270,1,55.0000016784668,8|4,0:0|0:3,0:0:0:0:
46,176,132708,2,0,B|39:118|15:138|7:74,1,110.000003356934,8|4,0:0|0:3,0:0:0:0:
48,36,133208,1,2,0:0:0:0:
48,36,133375,6,0,B|103:42|86:63|141:68,1,100,2|2,0:0|0:0,0:0:0:0:
212,138,134042,2,0,B|267:132|250:111|305:105,1,100,10|2,0:0|0:0,0:0:0:0:
370,180,134708,1,2,0:0:0:0:
370,180,134875,2,0,L|362:229,1,50,8|2,0:0|0:0,0:0:0:0:
420,311,135375,1,8,0:0:0:0:
498,249,135708,2,0,L|505:199,1,50,2|2,0:0|0:0,0:0:0:0:
484,153,136042,5,2,0:0:0:0:
256,192,136208,12,0,140708,0:0:0:0:
256,192,141375,12,0,146375,0:0:0:0:
