osu file format v14

[General]
AudioFilename: 03 golden hour.mp3
AudioLeadIn: 0
PreviewTime: 91138
Countdown: 0
SampleSet: Soft
StackLeniency: 0.2
Mode: 0
LetterboxInBreaks: 0
WidescreenStoryboard: 0

[Editor]
DistanceSpacing: 1.2
BeatDivisor: 2
GridSize: 32
TimelineZoom: 3.5

[Metadata]
Title:golden hour
TitleUnicode:golden hour
Artist:JVKE
ArtistUnicode:JVKE
Creator:Kyouren
Version:for the love of my life.
Source:
Tags:jake alternative indie pop english this is what ____ feels like (vol. 1-4) 1 one 4 four volume falling in love 554hz 554 hz blank Zac Lawson Zachary ZVC gokugohan12468 kittyadventure wanpachi cycopton gorou nachmark midorijeon tiktok tik tok with male vocal vocals vocalist shine light sparkling heart <3 collab collaboration gold time
BeatmapID:3876751
BeatmapSetID:1882952

[Difficulty]
HPDrainRate:4
CircleSize:4.2
OverallDifficulty:8
ApproachRate:8.8
SliderMultiplier:1.4
SliderTickRate:1

[Events]
//Background and Video events
Video,-2340,"vidforkyouren.mp4"
0,0,"a.jpg",0,0
//Break Periods
//Storyboard Layer 0 (Background)
//Storyboard Layer 1 (Fail)
//Storyboard Layer 2 (Pass)
//Storyboard Layer 3 (Foreground)
//Storyboard Layer 4 (Overlay)
//Storyboard Sound Samples

[TimingPoints]
211,317.460317460317,3,2,1,40,1,0
211,-239.936021539728,3,2,1,40,0,0
528,-239.936021539728,3,2,2,40,0,0
1163,-239.936021539728,3,2,3,40,0,0
1480,-239.936021539728,3,2,2,40,0,0
2115,-239.936021539728,3,2,1,40,0,0
2433,-239.936021539728,3,2,2,40,0,0
3068,-239.936021539728,3,2,3,40,0,0
3385,-239.936021539728,3,2,2,40,0,0
4020,-239.936021539728,3,2,1,40,0,0
4337,-239.936021539728,3,2,2,40,0,0
4972,-239.936021539728,3,2,3,40,0,0
5290,-239.936021539728,3,2,2,40,0,0
5925,-239.936021539728,3,2,1,40,0,0
6242,-239.936021539728,3,2,2,40,0,0
6877,-239.936021539728,3,2,3,40,0,0
7195,-239.936021539728,3,2,2,40,0,0
7830,-239.936021539728,3,2,1,40,0,0
8147,-239.936021539728,3,2,2,40,0,0
8782,-239.936021539728,3,2,3,40,0,0
9099,-239.936021539728,3,2,2,40,0,0
9734,-239.936021539728,3,2,1,40,0,0
10052,-239.936021539728,3,2,2,40,0,0
10687,-239.936021539728,3,2,3,40,0,0
11004,-239.936021539728,3,2,2,40,0,0
11639,-239.936021539728,3,2,1,40,0,0
11957,-239.936021539728,3,2,2,40,0,0
11976,-239.936021539728,3,2,2,40,0,0
12591,-239.936021539728,3,2,3,40,0,0
12909,-239.936021539728,3,2,2,40,0,0
13544,-239.936021539728,3,2,1,40,0,0
13861,-239.936021539728,3,2,2,40,0,0
14496,-239.936021539728,3,2,3,40,0,0
14814,-239.936021539728,3,2,2,40,0,0
15449,-149.925037481259,3,2,4,50,0,0
15607,-149.925037481259,3,2,2,50,0,0
16401,-149.925037481259,3,2,3,50,0,0
16718,-149.925037481259,3,2,2,50,0,0
17353,-149.925037481259,3,2,1,50,0,0
17512,-149.925037481259,3,2,2,50,0,0
18306,-149.925037481259,3,2,3,50,0,0
18464,-149.925037481259,3,2,2,50,0,0
19258,-149.925037481259,3,2,1,50,0,0
19417,-149.925037481259,3,2,2,50,0,0
20210,-133.333333333333,3,2,3,50,0,0
20528,-149.925037481259,3,2,2,50,0,0
21163,-149.925037481259,3,2,1,50,0,0
21322,-149.925037481259,3,2,2,50,0,0
22115,-149.925037481259,3,2,3,50,0,0
22274,-149.925037481259,3,2,2,50,0,0
23068,-149.925037481259,3,2,1,50,0,0
23226,-149.925037481259,3,2,2,50,0,0
24020,-111.111111111111,3,2,3,50,0,0
24337,-149.925037481259,3,2,2,50,0,0
24972,-149.925037481259,3,2,1,50,0,0
25131,-149.925037481259,3,2,2,50,0,0
25925,-107.52688172043,3,2,3,50,0,0
26242,-149.925037481259,3,2,2,50,0,0
26877,-149.925037481259,3,2,1,50,0,0
27036,-149.925037481259,3,2,2,50,0,0
27830,-149.925037481259,3,2,3,50,0,0
27988,-149.925037481259,3,2,2,50,0,0
28782,-149.925037481259,3,2,1,50,0,0
28941,-149.925037481259,3,2,2,50,0,0
29734,-114.942528735632,3,2,3,50,0,0
30052,-149.99925000375,3,2,2,50,0,0
30687,-127.659575011317,3,2,1,50,0,1
31004,-127.659575011317,3,2,2,50,0,0
31639,-127.659575011317,3,2,3,50,0,0
31957,-127.659575011317,3,2,2,50,0,0
32591,-127.659575011317,3,2,1,50,0,0
32909,-127.659575011317,3,2,2,50,0,0
33544,-127.659575011317,3,2,3,50,0,0
33703,-127.659575011317,3,2,3,50,0,0
33861,-127.659575011317,3,2,2,50,0,0
34496,-127.659575011317,3,2,1,50,0,0
34814,-127.659575011317,3,2,2,50,0,0
35449,-127.659575011317,3,2,3,50,0,0
35766,-127.659575011317,3,2,2,50,0,0
36401,-127.659575011317,3,2,1,50,0,0
36718,-127.659575011317,3,2,2,50,0,0
37353,-127.659575011317,3,2,3,50,0,0
37671,-127.659575011317,3,2,2,50,0,0
38306,-127.659575011317,3,2,1,50,0,0
38623,-127.659575011317,3,2,2,50,0,0
39258,-127.659575011317,3,2,3,50,0,0
39576,-127.659575011317,3,2,2,50,0,0
40210,-127.659575011317,3,2,1,50,0,0
40528,-127.659575011317,3,2,2,50,0,0
41163,-127.659575011317,3,2,3,50,0,0
41480,-127.659575011317,3,2,2,50,0,0
42124,312.5,3,2,1,50,1,0
42124,-133.333333333333,3,2,1,50,0,0
42436,-133.333333333333,3,2,2,55,0,0
43061,322.58064516129,3,2,3,55,1,0
43061,-100,3,2,3,55,0,0
43383,-100,3,2,2,55,0,0
44028,344.827586206897,3,2,1,55,1,0
44028,-80,3,2,1,55,0,0
44372,-80,3,2,2,55,0,0
45062,357.142857142857,3,2,3,55,1,0
45062,-100,3,2,3,55,0,0
46130,317.460317460317,3,2,1,65,1,1
46130,-149.999925000037,4,2,1,65,0,1
46447,-149.999925000037,4,2,2,65,0,1
47082,-149.999925000037,4,2,3,65,0,1
47399,-149.999925000037,4,2,2,65,0,1
48034,-149.999925000037,4,2,1,65,0,1
48114,-149.999925000037,4,2,7,65,0,1
48352,-149.999925000037,4,2,2,65,0,1
48987,-149.999925000037,4,2,3,65,0,1
49304,-149.999925000037,4,2,2,65,0,1
49939,-149.999925000037,4,2,5,65,0,1
50256,-149.999925000037,4,2,2,65,0,1
50891,-149.999925000037,4,2,6,65,0,1
51209,-149.999925000037,4,2,2,65,0,1
51844,-149.999925000037,4,2,5,65,0,1
52161,-149.999925000037,4,2,2,65,0,1
52796,-149.999925000037,4,2,6,65,0,1
53114,-149.999925000037,4,2,2,65,0,1
53749,-188.679245283019,4,2,5,65,0,1
54066,-188.679245283019,4,2,2,65,0,1
54701,-149.999925000037,4,2,3,65,0,1
55018,-149.999925000037,4,2,2,65,0,1
55653,-149.999925000037,4,2,1,65,0,1
55733,-168.776371308017,4,2,7,65,0,1
55971,-168.776371308017,4,2,2,65,0,1
56447,-168.776371308017,4,2,7,65,0,1
56606,-149.999925000037,4,2,3,65,0,1
56923,-149.999925000037,4,2,2,65,0,1
57558,-149.999925000037,4,2,1,65,0,1
57876,-149.999925000037,4,2,2,65,0,1
58510,-149.999925000037,4,2,6,65,0,1
58828,-149.999925000037,4,2,2,65,0,1
59463,-149.999925000037,4,2,5,65,0,1
59780,-149.999925000037,4,2,2,65,0,1
60098,-149.999925000037,4,2,2,65,0,1
60177,-149.999925000037,4,2,7,65,0,1
60415,320.855614973262,3,2,6,65,1,0
60415,-132.013201320132,4,2,6,65,0,0
60735,-132.013201320132,4,2,2,65,0,0
61377,317.460317460317,3,2,2,65,1,1
61377,-100,4,2,2,65,0,1
62329,-100,4,2,3,65,0,1
62646,-100,4,2,2,65,0,1
63281,-100,4,2,1,65,0,1
63361,-100,4,2,7,65,0,1
63599,-100,4,2,2,65,0,1
64234,-100,4,2,3,65,0,1
64551,-100,4,2,2,65,0,1
65186,-100,4,2,5,65,0,1
65503,-100,4,2,2,65,0,1
66138,-100,4,2,6,65,0,1
66456,-100,4,2,2,65,0,1
67091,-100,4,2,5,65,0,1
67408,-100,4,2,2,65,0,1
68043,-100,4,2,6,65,0,1
68361,-100,4,2,2,65,0,1
68996,-100,4,2,5,65,0,1
69313,-100,4,2,2,65,0,1
69948,-100,4,2,3,65,0,1
70265,-100,4,2,2,65,0,1
70900,-100,4,2,1,65,0,1
71218,-100,4,2,2,65,0,1
71853,-100,4,2,3,65,0,1
72170,-100,4,2,2,65,0,1
72805,-100,4,2,1,65,0,1
73123,-100,4,2,2,65,0,1
73757,-100,4,2,3,65,0,1
74075,-100,4,2,2,65,0,1
74710,-100,4,2,1,65,0,1
75027,-100,4,2,2,65,0,1
75662,-100,4,2,3,65,0,1
75980,-100,4,2,2,65,0,1
76615,-149.99925000375,4,2,1,45,0,0
76773,-149.99925000375,4,2,2,45,0,0
77567,-149.99925000375,4,2,3,45,0,0
77593,-149.99925000375,4,2,3,45,0,0
77607,-149.99925000375,4,2,7,45,0,0
77884,-149.99925000375,4,2,2,45,0,0
78519,-149.99925000375,4,2,1,45,0,0
78678,-149.99925000375,4,2,2,45,0,0
79472,-149.99925000375,4,2,3,45,0,0
79630,-149.99925000375,4,2,2,45,0,0
80424,-149.99925000375,4,2,1,45,0,0
80583,-149.99925000375,4,2,2,45,0,0
81376,-149.99925000375,4,2,3,45,0,0
81403,-149.99925000375,4,2,3,45,0,0
81416,-149.99925000375,4,2,7,45,0,0
81694,-149.99925000375,4,2,2,45,0,0
82329,-149.99925000375,4,2,1,45,0,0
82488,-149.99925000375,4,2,2,45,0,0
83281,-149.99925000375,4,2,3,45,0,0
83440,-149.99925000375,4,2,2,45,0,0
84234,-149.99925000375,4,2,1,45,0,0
84392,-149.99925000375,4,2,2,45,0,0
85186,-149.99925000375,4,2,3,45,0,0
85212,-149.99925000375,4,2,3,45,0,0
85226,-149.99925000375,4,2,7,45,0,0
85503,-149.99925000375,4,2,2,45,0,0
86138,-149.99925000375,4,2,1,45,0,0
86297,-149.99925000375,4,2,2,45,0,0
87091,-149.99925000375,4,2,3,45,0,0
87117,-149.99925000375,4,2,3,45,0,0
87130,-149.99925000375,4,2,7,45,0,0
87408,-149.99925000375,4,2,2,45,0,0
88043,-149.99925000375,4,2,1,45,0,0
88202,-149.99925000375,4,2,2,45,0,0
88996,-149.99925000375,4,2,3,45,0,0
89154,-149.99925000375,4,2,2,45,0,0
89948,-149.99925000375,4,2,1,45,0,0
90107,-149.99925000375,4,2,2,45,0,0
90900,-76.9230769230769,4,2,3,45,0,0
90940,-76.9230769230769,4,2,7,45,0,0
91218,314.13612565445,3,2,2,45,1,0
91218,-303.030303030303,4,2,2,45,0,0
91846,317.460317460317,3,2,3,45,1,1
91846,-120.481927710843,4,2,3,45,0,1
92163,-120.481927710843,4,2,2,45,0,0
92639,-120.481927710843,4,2,3,45,0,0
92798,-239.980801535877,4,2,3,45,0,0
93115,-120.00000000048,4,2,2,45,0,0
93750,-120.00000000048,4,2,1,45,0,0
94068,-120.00000000048,4,2,2,45,0,0
94703,-120.00000000048,4,2,3,45,0,0
95020,-120.00000000048,4,2,2,45,0,0
95655,-120.00000000048,4,2,3,45,0,0
95972,-120.00000000048,4,2,2,45,0,0
96449,-120.00000000048,4,2,3,45,0,0
96925,-120.00000000048,4,2,2,45,0,0
97242,-200,4,2,2,45,0,0
97560,-120.00000000048,4,2,3,45,0,0
97877,-120.00000000048,4,2,2,45,0,0
98036,-120.00000000048,4,2,3,45,0,0
98195,-120.00000000048,4,2,2,45,0,0
98353,-120.00000000048,4,2,3,45,0,0
98830,-120.00000000048,4,2,2,45,0,0
99465,-120.00000000048,4,2,3,45,0,0
99782,-120.00000000048,4,2,2,45,0,0
100258,-120.00000000048,4,2,3,45,0,0
100734,-120.00000000048,4,2,2,45,0,0
101369,-200,4,2,1,45,0,0
101687,-200,4,2,2,45,0,0
102004,-120.00000000048,4,2,2,45,0,0
102322,-120.00000000048,4,2,3,45,0,0
102639,-120.00000000048,4,2,2,45,0,0
103274,-120.00000000048,4,2,3,45,0,0
103592,-120.00000000048,4,2,2,45,0,0
104068,-120.00000000048,4,2,3,45,0,0
104544,-120.00000000048,4,2,2,45,0,0
105179,-120.00000000048,4,2,3,45,0,0
105496,-120.00000000048,4,2,2,45,0,0
105655,-120.00000000048,4,2,3,45,0,0
105814,-120.00000000048,4,2,2,45,0,0
105972,-120.00000000048,4,2,3,45,0,0
106131,-120.00000000048,4,2,3,45,0,0
106449,-109.086942293008,4,2,2,45,0,0
106766,-100,4,2,2,45,0,0
107084,-300.0000000003,4,2,4,50,0,1
108036,-300.0000000003,4,2,1,50,0,0
108353,-300.0000000003,4,2,2,50,0,0
109941,-300.0000000003,4,2,1,50,0,0
110258,-300.0000000003,4,2,2,50,0,0
110893,-300.0000000003,4,2,1,50,0,0
111211,-300.0000000003,4,2,2,50,0,0
111845,-300.0000000003,4,2,3,50,0,0
112480,-300.0000000003,4,2,2,50,0,0
112798,-300.0000000003,4,2,1,50,0,0
113115,-300.0000000003,4,2,2,50,0,0
113750,-300.0000000003,4,2,3,50,0,0
114068,-300.0000000003,4,2,2,50,0,0
114703,-300.0000000003,4,2,1,50,0,0
115020,-300.0000000003,4,2,1,50,0,0
115338,-300.0000000003,4,2,2,50,0,0
115655,-300.0000000003,4,2,3,50,0,0
115972,-300.0000000003,4,2,2,50,0,0
116290,-300.0000000003,4,2,2,50,0,0
116607,-300.0000000003,4,2,1,50,0,0
116925,-300.0000000003,4,2,2,50,0,0
117242,-300.0000000003,4,2,2,50,0,0
117560,-300.0000000003,4,2,3,50,0,0
117877,-300.0000000003,4,2,2,50,0,0
118512,-300.0000000003,4,2,1,50,0,0
118830,-300.0000000003,4,2,2,50,0,0
119465,-100,4,2,3,50,0,0
119782,-100,4,2,2,50,0,0
120417,-66.6666666666667,4,2,1,50,0,0
120734,-66.6666666666667,4,2,2,50,0,0
121369,-66.6666666666667,4,2,3,50,0,0
122322,-100,4,2,1,65,0,1
122639,-100,4,2,2,65,0,1
123274,-100,4,2,3,65,0,1
123592,-100,4,2,2,65,0,1
124226,-100,4,2,1,65,0,1
124544,-100,4,2,2,65,0,1
125179,-100,4,2,3,65,0,1
125258,-100,4,2,7,65,0,1
125496,-100,4,2,2,65,0,1
126131,-100,4,2,4,65,0,1
126449,-100,4,2,2,65,0,1
127084,-100,4,2,6,65,0,1
127401,-100,4,2,2,65,0,1
128036,-250,4,2,5,65,0,1
128353,-250,4,2,2,65,0,1
128988,-100,4,2,6,65,0,1
129306,-149.925037481259,4,2,2,65,0,1
129941,-100,4,2,4,65,0,1
130258,-100,4,2,2,65,0,1
130893,-100,4,2,3,65,0,1
131211,-100,4,2,2,65,0,1
131845,-117.647058823529,4,2,1,65,0,1
132163,-117.647058823529,4,2,2,65,0,1
132798,-100,4,2,3,65,0,1
133115,-100,4,2,2,65,0,1
133750,-100,4,2,3,65,0,1
134068,-149.925037481259,4,2,2,65,0,1
134703,-100,4,2,6,65,0,1
135020,-100,4,2,2,65,0,1
135655,-100,4,2,5,65,0,1
135972,-100,4,2,2,65,0,1
136131,-100,4,2,5,65,0,1
136290,-100,4,2,2,65,0,1
136607,-100,4,2,6,65,0,1
136925,-100,4,2,2,65,0,1
137084,-100,4,2,5,65,0,1
137242,-100,4,2,2,65,0,0
137560,-100,4,2,2,65,0,1
138512,-100,4,2,3,65,0,1
138830,-100,4,2,2,65,0,1
139465,-100,4,2,1,65,0,1
139782,-100,4,2,2,65,0,1
140417,-100,4,2,3,65,0,1
140734,-100,4,2,2,65,0,1
141211,-100,4,2,5,65,0,1
141369,-100,4,2,4,65,0,1
141687,-100,4,2,2,65,0,1
142322,-100,4,2,6,65,0,1
142639,-100,4,2,5,65,0,1
142798,-100,4,2,2,65,0,1
142957,-100,4,2,5,65,0,1
143115,-100,4,2,2,65,0,1
143274,-100,4,2,5,65,0,1
143592,-100,4,2,2,65,0,1
144226,-100,4,2,6,65,0,1
144544,-100,4,2,2,65,0,1
145179,-100,4,2,4,65,0,1
145496,-100,4,2,2,65,0,1
146131,-100,4,2,3,65,0,1
146449,-100,4,2,5,65,0,1
146607,-100,4,2,2,65,0,1
146766,-100,4,2,5,65,0,1
146925,-100,4,2,2,65,0,1
147084,-100,4,2,3,65,0,1
147401,-100,4,2,2,65,0,1
148036,-100,4,2,3,65,0,1
148353,-100,4,2,5,65,0,1
148512,-100,4,2,2,65,0,1
148671,-100,4,2,5,65,0,1
148830,-100,4,2,2,65,0,1
148988,-100,4,2,3,65,0,1
149306,-100,4,2,2,65,0,1
149941,-100,4,2,7,65,0,1
150258,-100,4,2,2,65,0,1
150893,-100,4,2,3,65,0,1
151211,-100,4,2,2,65,0,1
151845,-100,4,2,7,65,0,1
152163,-100,4,2,2,65,0,1
152719,-100,4,2,2,65,0,0
152796,319.148936170213,3,2,7,50,1,1
152796,-1000,4,2,7,50,0,1
152875,-1000,4,2,7,50,0,0
156625,-599.960030662757,4,2,7,50,0,0
160457,315.789473684211,3,2,7,50,1,0
160457,-1000,4,2,7,50,0,0
165193,319.148936170213,3,2,7,50,1,0
165193,-100,3,2,7,50,0,0
168054,317.460317460317,3,2,8,60,1,1
168054,-100,4,2,8,60,0,1
168371,-100,4,2,2,60,0,1
169006,-100,4,2,3,60,0,1
169323,-100,4,2,2,60,0,1
169958,-100,4,2,1,60,0,1
170276,-100,4,2,2,60,0,1
170911,-100,4,2,3,60,0,1
171228,-100,4,2,2,60,0,1
171863,-133.333333333333,4,2,5,60,0,1
172180,-133.333333333333,4,2,2,60,0,1
172815,-133.333333333333,4,2,6,60,0,1
173133,-133.333333333333,4,2,2,60,0,1
173768,-133.333333333333,4,2,5,60,0,1
174085,-133.333333333333,4,2,2,60,0,1
174720,-133.333333333333,4,2,6,60,0,1
175038,-133.333333333333,4,2,2,60,0,1
175673,-100,4,2,5,60,0,1
175990,-100,4,2,2,60,0,1
176625,-100,4,2,3,60,0,1
176942,-100,4,2,2,60,0,1
177577,-100,4,2,1,60,0,1
177895,-100,4,2,2,60,0,1
178530,-100,4,2,3,60,0,1
178847,-100,4,2,2,60,0,1
179482,-100,4,2,1,60,0,1
179800,-100,4,2,2,60,0,1
180434,-100,4,2,3,60,0,1
180752,-100,4,2,2,60,0,1
181387,-100,4,2,1,60,0,1
181704,-100,4,2,2,60,0,1
182339,-100,4,2,3,60,0,1
182657,-100,4,2,2,60,0,1
183133,-100,4,2,2,60,0,0
183287,952.380952380952,4,2,9,35,1,1
183287,-100,4,2,9,35,0,1
183445,-100,4,2,9,35,0,0

[Colours]
Combo1 : 255,175,115
Combo2 : 215,215,215
Combo3 : 125,255,125

[HitObjects]
250,150,211,6,0,L|244:121,1,29.1744439000001,2|0,2:2|0:0,0:0:0:0:
230,45,528,1,2,2:2:0:0:
228,32,687,1,0,0:0:0:0:
244,121,845,2,0,L|250:150,1,29.1744439000001,2|0,2:2|0:0,0:0:0:0:
305,210,1163,6,0,L|334:216,1,29.1744439000001,2|0,2:2|0:0,0:0:0:0:
410,230,1480,1,2,2:2:0:0:
423,232,1639,1,0,0:0:0:0:
334,216,1798,2,0,L|305:210,1,29.1744439000001,2|0,2:2|0:0,0:0:0:0:
225,230,2115,6,0,L|201:247,1,29.1744439000001,2|0,2:2|0:0,0:0:0:0:
138,292,2433,1,2,2:2:0:0:
127,299,2591,1,0,0:0:0:0:
201,247,2750,2,0,L|225:230,1,29.1744439000001,2|0,2:2|0:0,0:0:0:0:
250,150,3068,6,0,L|244:121,1,29.1744439000001,2|0,2:2|0:0,0:0:0:0:
305,210,3385,2,0,L|334:216,1,29.1744439000001,2|0,2:2|0:0,0:0:0:0:
225,230,3703,2,0,L|201:247,1,29.1744439000001,2|0,2:2|0:0,0:0:0:0:
325,130,4020,6,0,L|341:105,1,29.1744439000001,2|0,2:2|0:0,0:0:0:0:
280,285,4337,2,0,L|296:309,1,29.1744439000001,2|0,2:2|0:0,0:0:0:0:
170,165,4655,2,0,L|141:160,1,29.1744439000001,2|0,2:2|0:0,0:0:0:0:
141,160,4972,6,0,L|170:165,1,29.1744439000001,2|0,2:2|0:0,0:0:0:0:
296,309,5290,2,0,L|280:285,1,29.1744439000001,2|0,2:2|0:0,0:0:0:0:
341,105,5607,2,0,L|325:130,1,29.1744439000001,2|0,2:2|0:0,0:0:0:0:
201,247,5925,6,0,L|225:230,1,29.1744439000001,2|0,2:2|0:0,0:0:0:0:
334,216,6242,2,0,L|305:210,1,29.1744439000001,2|0,2:2|0:0,0:0:0:0:
244,121,6560,2,0,L|250:150,1,29.1744439000001,2|0,2:2|0:0,0:0:0:0:
225,230,6877,5,2,2:2:0:0:
201,247,7036,1,0,0:0:0:0:
305,210,7195,1,2,2:2:0:0:
334,216,7353,1,0,0:0:0:0:
250,150,7512,1,2,2:2:0:0:
244,121,7671,1,0,0:0:0:0:
175,80,7830,6,0,L|146:73,2,29.1744439000001,2|0|2,2:2|0:0|2:2,0:0:0:0:
244,121,8306,1,0,0:0:0:0:
315,80,8464,2,0,L|343:73,1,29.1744439000001,2|0,2:2|0:0,0:0:0:0:
410,30,8782,6,0,L|416:1,2,29.1744439000001,2|0|2,2:2|0:0|2:2,0:0:0:0:
455,100,9258,1,0,0:0:0:0:
385,140,9417,2,0,L|378:168,1,29.1744439000001,2|0,2:2|0:0,0:0:0:0:
420,265,9734,6,0,L|399:244,1,29.1744439000001,2|0,2:2|0:0,0:0:0:0:
295,235,10052,2,0,L|322:227,1,29.1744439000001,2|0,2:2|0:0,0:0:0:0:
345,305,10369,2,0,L|338:333,1,29.1744439000001,2|0,2:2|0:0,0:0:0:0:
265,365,10687,5,2,2:2:0:0:
265,365,10845,1,0,0:0:0:0:
210,305,11004,2,0,L|217:277,1,29.1744439000001,2|0,2:2|0:0,0:0:0:0:
145,235,11322,1,2,2:2:0:0:
155,155,11480,1,0,0:0:0:0:
235,130,11639,6,0,L|242:102,1,29.1744439000001,2|0,2:2|0:0,0:0:0:0:
190,40,11957,2,0,L|162:47,1,29.1744439000001,2|0,2:2|0:0,0:0:0:0:
315,65,12274,2,0,L|343:58,1,29.1744439000001,2|0,2:2|0:0,0:0:0:0:
410,105,12591,6,0,L|403:133,1,29.1744439000001,2|0,2:2|0:0,0:0:0:0:
435,205,12909,2,0,L|428:233,1,29.1744439000001,2|0,2:2|0:0,0:0:0:0:
370,290,13226,2,0,L|363:318,1,29.1744439000001,2|0,2:2|0:0,0:0:0:0:
300,370,13544,5,2,2:2:0:0:
225,360,13703,1,0,0:0:0:0:
175,295,13861,1,2,2:2:0:0:
195,215,14020,1,0,0:0:0:0:
135,160,14179,2,0,L|106:163,1,29.1744439000001,2|0,2:2|0:0,0:0:0:0:
45,115,14496,6,0,L|48:86,1,29.1744439000001,2|0,2:2|0:0,0:0:0:0:
90,20,14814,1,2,2:2:0:0:
155,60,14972,1,0,0:0:0:0:
215,10,15131,1,2,2:2:0:0:
215,10,15290,1,0,0:0:0:0:
285,40,15449,6,0,P|305:29|328:23,1,46.6900000000001,2|2,2:2|2:2,0:0:0:0:
340,132,15766,2,0,P|318:124|296:120,1,46.6900000000001,2|2,2:2|2:2,0:0:0:0:
230,170,16084,2,0,P|240:190|247:212,1,46.6900000000001,2|2,2:2|2:2,0:0:0:0:
285,285,16401,6,0,P|239:293|194:308,1,93.3800000000002,2|2,2:2|2:2,0:0:0:0:
115,355,16877,1,0,0:0:0:0:
45,295,17036,2,0,L|38:249,1,46.6900000000001,2|0,2:2|0:0,0:0:0:0:
10,165,17353,6,0,L|56:172,1,46.6900000000001,2|2,2:2|2:2,0:0:0:0:
110,115,17671,2,0,L|102:68,1,46.6900000000001,2|2,2:2|2:2,0:0:0:0:
115,225,17988,2,0,L|122:271,1,46.6900000000001,2|0,2:2|0:0,0:0:0:0:
175,165,18306,6,0,L|221:157,1,46.6900000000001,2|2,2:2|2:2,0:0:0:0:
275,95,18623,2,0,L|282:48,1,46.6900000000001,2|2,2:2|2:2,0:0:0:0:
285,205,18941,2,0,L|277:251,1,46.6900000000001,2|0,2:2|0:0,0:0:0:0:
340,145,19258,6,0,L|386:153,1,46.6900000000001,2|2,2:2|2:2,0:0:0:0:
445,100,19576,1,2,2:2:0:0:
455,95,19734,1,2,2:2:0:0:
440,210,19893,2,0,L|448:256,1,46.6900000000001,2|2,2:2|2:2,0:0:0:0:
400,320,20210,6,0,B|348:324|351:345|299:349,1,105,2|2,2:2|2:2,0:0:0:0:
235,300,20687,1,0,0:0:0:0:
155,315,20845,2,0,L|108:322,1,46.6900000000001,2|0,2:2|0:0,0:0:0:0:
20,190,21163,5,2,2:2:0:0:
90,150,21322,1,2,2:2:0:0:
145,210,21480,1,2,2:2:0:0:
75,250,21639,1,2,2:2:0:0:
90,150,21798,2,0,L|97:103,1,46.6900000000001,2|0,2:2|0:0,0:0:0:0:
175,75,22115,5,2,2:2:0:0:
245,115,22274,1,2,2:2:0:0:
300,55,22433,1,2,2:2:0:0:
230,15,22591,1,2,2:2:0:0:
245,115,22750,2,0,L|252:162,1,46.6900000000001,2|0,2:2|0:0,0:0:0:0:
320,205,23068,5,2,2:2:0:0:
400,220,23226,1,2,2:2:0:0:
315,215,23385,1,2,2:2:0:0:
405,210,23544,1,2,2:2:0:0:
460,280,23703,1,2,2:2:0:0:
320,337,23861,1,2,2:2:0:0:
440,365,24020,6,0,B|398:362|398:362|366:341|366:341|320:337,1,126,2|2,2:2|2:2,0:0:0:0:
250,375,24496,1,0,0:0:0:0:
180,335,24655,2,0,P|172:313|173:289,1,46.6900000000001,2|0,2:2|0:0,0:0:0:0:
10,190,24972,5,2,2:2:0:0:
85,175,25131,1,2,2:2:0:0:
115,100,25290,1,2,2:2:0:0:
125,105,25449,1,2,2:2:0:0:
95,25,25607,1,2,2:2:0:0:
311,16,25766,1,2,2:2:0:0:
185,45,25925,6,0,B|251:40|240:21|311:16,1,130.2,2|2,2:2|2:2,0:0:0:0:
370,70,26401,1,0,0:0:0:0:
445,50,26560,2,0,L|454:4,1,46.6900000000001,2|2,2:2|2:2,0:0:0:0:
310,120,26877,5,2,2:2:0:0:
445,190,27036,1,2,2:2:0:0:
447,183,27195,1,2,2:2:0:0:
449,176,27353,1,2,2:2:0:0:
360,195,27512,2,0,L|369:241,1,46.6900000000001,2|0,2:2|0:0,0:0:0:0:
370,355,27830,6,0,L|415:346,1,46.6900000000001,2|2,2:2|2:2,0:0:0:0:
312,298,28147,2,0,L|267:289,1,46.6900000000001,2|2,2:2|2:2,0:0:0:0:
195,325,28464,2,0,L|186:370,1,46.6900000000001,2|0,2:2|0:0,0:0:0:0:
125,285,28782,5,2,2:2:0:0:
125,205,28941,1,2,2:2:0:0:
200,170,29099,2,0,B|249:172|244:185|291:186,1,93.3800000000002,2|2,2:2|2:2,0:0:0:0:
355,140,29576,1,2,2:2:0:0:
255,15,29734,6,0,B|226:21|226:21|189:69|189:69|157:75,1,121.8,2|2,2:2|2:2,0:0:0:0:
90,40,30210,1,0,0:0:0:0:
25,90,30369,1,2,2:2:0:0:
95,120,30528,1,0,0:0:0:0:
125,285,30687,6,0,B|206:265|205:311|282:316,1,164.4999993,6|0,2:2|0:0,0:0:0:0:
345,260,31322,2,0,P|350:233|354:206,1,54.8333331000001,2|0,2:2|0:0,0:0:0:0:
410,370,31639,1,2,2:2:0:0:
455,255,31957,6,0,L|415:293,1,54.8333331000001,2|0,2:2|0:0,0:0:0:0:
282,316,32274,1,2,2:2:0:0:
250,245,32433,1,2,2:2:0:0:
325,80,32591,6,0,L|319:134,1,54.8333331000001,2|0,2:2|0:0,0:0:0:0:
250,245,32909,2,0,L|244:190,1,54.8333331000001,2|0,2:2|0:0,0:0:0:0:
175,145,33226,1,2,2:2:0:0:
168,152,33385,1,2,0:0:0:0:
3,47,33544,5,2,2:2:0:0:
75,75,33703,1,0,0:0:0:0:
120,10,33861,2,0,B|177:16|165:46|219:51,1,109.6666662,2|2,2:2|2:2,0:0:0:0:
500,190,34496,6,0,P|447:181|403:212,1,109.6666662,2|2,2:2|2:2,0:0:0:0:
260,360,35131,2,0,P|266:333|264:306,1,54.8333331000001,2|0,2:2|0:0,0:0:0:0:
315,245,35449,2,0,P|276:207|223:206,1,109.6666662,2|2,2:2|2:2,0:0:0:0:
35,125,36084,2,0,P|58:111|77:91,1,54.8333331000001,2|0,2:2|0:0,0:0:0:0:
130,20,36401,6,0,P|143:43|163:62,1,54.8333331000001,2|0,2:2|0:0,0:0:0:0:
220,115,36718,2,0,P|247:110|274:107,1,54.8333331000001,2|0,2:2|0:0,0:0:0:0:
330,50,37036,2,0,P|357:53|384:57,1,54.8333331000001,2|0,2:2|0:0,0:0:0:0:
440,120,37353,6,0,P|436:147|432:174,1,54.8333331000001,2|0,2:2|0:0,0:0:0:0:
370,220,37671,2,0,B|313:226|325:256|270:261,1,109.6666662,2|2,2:2|2:2,0:0:0:0:
365,355,38306,6,0,P|369:327|376:301,1,54.8333331000001,2|0,2:2|0:0,0:0:0:0:
255,125,38623,2,0,P|262:151|266:178,1,54.8333331000001,2|0,2:2|0:0,0:0:0:0:
200,225,38941,2,0,P|174:232|147:236,1,54.8333331000001,2|0,2:2|0:0,0:0:0:0:
371,220,39258,6,0,P|397:213|424:209,1,54.8333331000001,2|0,2:2|0:0,0:0:0:0:
475,145,39576,1,2,2:2:0:0:
478,132,39734,1,2,0:0:0:0:
420,75,39893,2,0,P|394:82|367:86,1,54.8333331000001,2|0,2:2|0:0,0:0:0:0:
285,0,40210,6,0,P|292:26|296:53,1,54.8333331000001,2|0,2:2|0:0,0:0:0:0:
255,125,40528,2,0,P|229:132|202:136,1,54.8333331000001,2|0,2:2|0:0,0:0:0:0:
330,160,40845,2,0,P|337:186|341:213,1,54.8333331000001,2|0,2:2|0:0,0:0:0:0:
140,190,41163,6,0,P|103:152|112:100,2,109.6666662,2|2|2,2:2|2:2|2:2,0:0:0:0:
255,275,41957,1,0,0:0:0:0:
220,345,42124,6,0,P|194:337|169:332,1,52.5000000000001,2|0,0:0|0:0,0:0:0:0:
255,275,42436,2,0,P|229:267|204:262,1,52.5000000000001,2|0,2:2|0:0,0:0:0:0:
290,205,42749,2,0,P|264:197|239:192,1,52.5000000000001,2|0,2:2|0:0,0:0:0:0:
420,10,43061,6,0,P|428:43|438:77,1,70,2|0,2:2|0:0,0:0:0:0:
290,120,43383,2,0,P|280:86|271:52,1,70,2|0,2:2|0:0,0:0:0:0:
345,30,43706,2,0,P|353:63|363:97,1,70,2|0,2:2|0:0,0:0:0:0:
60,185,44028,6,0,P|48:227|36:269,1,87.5,2|0,2:2|0:0,0:0:0:0:
180,310,44372,2,0,P|191:267|203:225,1,87.5,2|0,2:2|0:0,0:0:0:0:
130,205,44717,2,0,P|118:247|107:289,1,87.5,2|0,2:2|0:0,0:0:0:0:
355,355,45062,5,2,2:2:0:0:
55,190,46130,6,0,P|88:131|155:128,1,140.000070000001,14|2,2:1|2:2,0:0:0:0:
235,95,46764,1,2,2:2:0:0:
170,45,46923,1,2,2:2:0:0:
334,202,47082,6,0,B|264:185|265:225|200:229,1,140.00007,2|2,2:2|2:2,0:0:0:0:
135,285,47717,1,2,2:2:0:0:
215,310,47876,1,2,2:2:0:0:
334,202,48034,6,0,L|327:224,2,23.3333450000001,2|2|2,2:2|0:0|0:0,0:0:0:0:
445,75,48352,5,2,2:2:0:0:
470,155,48510,1,2,2:2:0:0:
410,215,48669,1,2,2:2:0:0:
334,202,48828,1,2,2:2:0:0:
255,15,48987,6,0,P|267:59|274:106,1,93.3333800000003,2|2,2:2|2:2,0:0:0:0:
225,170,49463,1,2,2:2:0:0:
145,160,49622,1,2,2:2:0:0:
115,85,49780,1,2,2:2:0:0:
225,170,49939,6,0,B|238:247|191:235|205:305,1,140.00007,2|2,2:2|2:2,0:0:0:0:
280,280,50574,2,0,L|326:273,1,46.6666900000002,2|2,2:2|2:2,0:0:0:0:
140,365,50891,2,0,P|101:309|33:308,1,140.00007,2|2,2:2|2:2,0:0:0:0:
130,230,51526,2,0,L|123:184,1,46.6666900000002,2|2,2:2|2:2,0:0:0:0:
165,70,51844,6,0,P|60:58|45:162,1,233.333450000001,2|2,2:2|2:2,0:0:0:0:
200,150,52796,2,0,P|246:142|291:131,1,93.3333800000003,2|2,2:2|2:2,0:0:0:0:
360,175,53272,1,2,2:2:0:0:
420,125,53431,1,2,2:2:0:0:
500,225,53590,5,2,2:2:0:0:
475,355,53749,2,0,B|439:342|411:348|411:348|382:301|382:301|353:309|319:294,1,185.5,6|2,2:2|2:2,0:0:0:0:
360,225,54701,2,0,P|351:329|247:319,1,233.333450000001,2|2,2:2|2:2,0:0:0:0:
140,300,55653,5,2,2:2:0:0:
140,300,55733,2,0,L|154:113,1,186.6375,2|2,0:0|2:2,0:0:0:0:
15,95,56606,6,0,P|60:89|96:60,1,93.3333800000003,2|2,2:2|2:2,0:0:0:0:
154,114,57082,1,2,2:2:0:0:
232,130,57241,1,2,2:2:0:0:
309,146,57399,1,2,2:2:0:0:
500,100,57558,6,0,B|533:72|529:-9|415:-9|417:69|417:69|421:88|414:108,1,233.333450000001,2|2,2:2|2:2,0:0:0:0:
309,146,58510,2,0,P|353:158|396:178,1,93.3333800000003,2|2,2:2|2:2,0:0:0:0:
450,235,58987,1,2,2:2:0:0:
400,295,59145,2,0,L|404:341,1,46.6666900000002,2|2,2:2|2:2,0:0:0:0:
255,345,59463,6,0,B|187:340|203:304|124:298,1,140.00007,2|2,2:2|2:2,0:0:0:0:
54,197,60098,2,0,L|56:173,3,23.3333450000001,2|2|2|2,2:2|0:0|2:2|0:0,0:0:0:0:
8,268,60415,6,0,P|126:211|255:191,1,265.307486631017,2|0,2:2|0:0,0:0:0:0:
267,112,61377,6,0,P|271:77|277:42,1,70,14|0,2:1|0:0,0:0:0:0:
319,241,61694,2,0,P|348:262|375:285,1,70,2|2,2:2|2:2,0:0:0:0:
181,222,62011,2,0,P|148:236|115:248,1,70,2|2,2:2|2:2,0:0:0:0:
330,161,62329,6,0,P|363:147|396:135,1,70,2|0,2:2|0:0,0:0:0:0:
245,272,62646,2,0,P|241:307|235:342,1,70,2|2,2:2|2:2,0:0:0:0:
192,142,62964,2,0,P|163:121|136:98,1,70,2|2,2:2|2:2,0:0:0:0:
385,245,63281,6,0,L|350:238,2,35,2|2|2,2:2|0:0|0:0,0:0:0:0:
390,325,63599,2,0,P|355:319|320:314,1,70,2|2,2:2|2:2,0:0:0:0:
460,275,63916,2,0,P|465:240|470:205,1,70,2|2,2:2|2:2,0:0:0:0:
430,135,64234,6,0,P|395:129|360:124,1,70,2|0,2:2|0:0,0:0:0:0:
340,30,64551,2,0,P|311:50|283:71,1,70,2|2,2:2|2:2,0:0:0:0:
200,20,64869,2,0,P|194:54|189:89,1,70,2|2,2:2|2:2,0:0:0:0:
10,200,65186,6,0,B|84:190|78:228|146:219,1,140,2|2,2:2|2:2,0:0:0:0:
190,285,65662,1,2,2:2:0:0:
275,180,65821,2,0,P|269:214|264:249,1,70,2|2,2:2|2:2,0:0:0:0:
400,360,66138,6,0,P|463:343|471:278,1,140,2|2,2:2|2:2,0:0:0:0:
410,220,66615,1,2,2:2:0:0:
330,320,66773,2,0,P|295:326|260:331,1,70,2|2,2:2|2:2,0:0:0:0:
275,180,67091,6,0,B|265:106|303:112|294:44,1,140,2|2,2:2|2:2,0:0:0:0:
220,65,67567,1,2,2:2:0:0:
350,150,67726,2,0,P|381:137|395:105,1,70,2|2,2:2|2:2,0:0:0:0:
230,250,68043,6,0,P|172:212|103:209,1,140,2|2,2:2|2:2,0:0:0:0:
35,255,68519,1,2,2:2:0:0:
115,370,68678,2,0,P|115:335|99:304,1,70,2|2,2:2|2:2,0:0:0:0:
45,155,68996,6,0,P|50:120|57:86,1,70,6|0,2:2|0:0,0:0:0:0:
135,60,69313,2,0,P|161:82|188:105,1,70,2|2,2:2|2:2,0:0:0:0:
169,186,69630,2,0,P|136:198|103:209,1,70,2|2,2:2|2:2,0:0:0:0:
230,250,69948,6,0,P|256:272|282:295,1,70,2|0,2:2|0:0,0:0:0:0:
255,170,70265,2,0,P|261:135|268:101,1,70,2|2,2:2|2:2,0:0:0:0:
152,278,70583,2,0,P|144:312|138:346,1,70,2|2,2:2|2:2,0:0:0:0:
36,228,70900,6,0,P|69:219|102:209,1,70,2|0,2:2|0:0,0:0:0:0:
55,365,71218,2,0,P|34:337|11:310,1,70,2|2,2:2|2:2,0:0:0:0:
140,140,71535,2,0,P|117:113|96:85,1,70,2|2,2:2|2:2,0:0:0:0:
20,60,71853,6,0,L|157:34,1,140,2|2,2:2|2:2,0:0:0:0:
255,170,72329,1,2,2:2:0:0:
320,130,72488,2,0,B|334:100|334:100|320:65,1,70,2|2,2:2|2:2,0:0:0:0:
305,230,72805,6,0,P|339:236|373:245,1,70,2|0,2:2|0:0,0:0:0:0:
425,310,73123,2,0,P|418:344|409:378,1,70,2|2,2:2|2:2,0:0:0:0:
495,270,73440,2,0,P|501:235|510:201,1,70,2|2,2:2|2:2,0:0:0:0:
480,130,73757,6,0,P|446:121|411:114,1,70,2|0,2:2|0:0,0:0:0:0:
255,170,74075,2,0,P|221:178|186:185,1,70,2|2,2:2|2:2,0:0:0:0:
125,240,74392,2,0,P|90:233|56:224,1,70,2|2,2:2|2:2,0:0:0:0:
305,230,74710,6,0,P|313:264|320:299,1,70,2|0,2:2|0:0,0:0:0:0:
255,170,75027,2,0,P|247:136|240:101,1,70,2|2,2:2|2:2,0:0:0:0:
300,45,75345,1,2,2:2:0:0:
310,40,75503,1,2,2:2:0:0:
255,170,75662,5,2,2:2:0:0:
305,230,75821,1,0,0:0:0:0:
315,225,75980,1,2,2:2:0:0:
370,170,76138,1,2,2:2:0:0:
440,200,76297,1,2,2:2:0:0:
450,205,76456,1,2,2:2:0:0:
255,370,76615,6,0,P|253:346|249:323,1,46.6669,2|2,2:2|2:2,0:0:0:0:
305,230,76932,2,0,P|306:253|310:276,1,46.6669,10|2,2:2|2:2,0:0:0:0:
180,280,77250,2,0,P|156:283|133:285,1,46.6669,10|2,2:2|2:2,0:0:0:0:
70,240,77567,2,0,P|69:234|68:228,2,11.666725,2|2|2,2:2|0:0|0:0,0:0:0:0:
255,25,77884,6,0,P|250:47|246:70,1,46.6669,10|0,2:2|0:0,0:0:0:0:
170,55,78202,2,0,P|174:32|178:9,1,46.6669,10|0,2:2|0:0,0:0:0:0:
240,190,78519,5,2,2:2:0:0:
310,230,78678,1,2,2:2:0:0:
385,200,78837,1,10,2:2:0:0:
415,125,78996,1,2,2:2:0:0:
370,55,79154,1,10,2:2:0:0:
240,190,79472,5,2,2:2:0:0:
170,150,79630,1,2,2:2:0:0:
95,180,79789,1,10,2:2:0:0:
65,255,79948,1,2,2:2:0:0:
110,325,80107,1,10,2:2:0:0:
240,190,80424,6,0,L|248:144,1,46.6669,2|2,2:2|2:2,0:0:0:0:
325,115,80742,2,0,L|360:145,1,46.6669,10|2,2:2|2:2,0:0:0:0:
350,225,81059,2,0,L|306:240,1,46.6669,10|2,2:2|2:2,0:0:0:0:
170,150,81376,2,0,L|172:138,2,11.666725,2|2|2,2:2|0:0|0:0,0:0:0:0:
110,325,81694,6,0,L|66:340,1,46.6669,10|0,2:2|0:0,0:0:0:0:
65,255,82011,2,0,L|21:270,1,46.6669,10|0,2:2|0:0,0:0:0:0:
170,150,82329,5,2,2:2:0:0:
95,180,82488,1,2,2:2:0:0:
30,130,82646,1,10,2:2:0:0:
45,50,82805,1,2,2:2:0:0:
120,15,82964,2,0,L|165:23,1,46.6669,10|0,2:2|0:0,0:0:0:0:
170,150,83281,5,2,2:2:0:0:
225,215,83440,1,2,2:2:0:0:
175,285,83599,1,10,2:2:0:0:
100,260,83757,1,2,2:2:0:0:
95,180,83916,1,10,2:2:0:0:
245,15,84234,6,0,L|251:61,1,46.6669,2|2,2:2|2:2,0:0:0:0:
305,125,84551,2,0,L|298:171,1,46.6669,10|2,2:2|2:2,0:0:0:0:
225,215,84869,1,10,2:2:0:0:
230,230,85027,1,2,2:2:0:0:
290,290,85186,2,0,L|288:301,2,11.666725,2|2|2,2:2|0:0|0:0,0:0:0:0:
375,190,85503,6,0,L|382:144,1,46.6669,10|0,2:2|0:0,0:0:0:0:
430,80,85821,2,0,L|423:34,1,46.6669,10|0,2:2|0:0,0:0:0:0:
245,15,86138,6,0,L|251:61,1,46.6669,2|2,2:2|2:2,0:0:0:0:
305,125,86456,2,0,L|298:171,1,46.6669,10|2,2:2|2:2,0:0:0:0:
225,215,86773,1,10,2:2:0:0:
230,230,86932,1,2,2:2:0:0:
290,290,87091,2,0,L|288:301,2,11.666725,2|2|2,2:2|0:0|0:0,0:0:0:0:
375,190,87408,6,0,L|382:144,1,46.6669,10|0,2:2|0:0,0:0:0:0:
430,80,87726,2,0,L|423:34,1,46.6669,10|0,2:2|0:0,0:0:0:0:
305,125,88043,6,0,L|298:171,1,46.6669,2|2,2:2|2:2,0:0:0:0:
225,215,88361,1,10,2:2:0:0:
110,140,88519,6,0,L|87:144,2,23.33345,2|2|10,2:2|2:2|2:2,0:0:0:0:
110,140,88837,1,2,2:2:0:0:
280,280,88996,5,2,2:2:0:0:
225,215,89154,1,2,2:2:0:0:
350,230,89313,1,10,2:2:0:0:
305,125,89472,6,0,L|308:101,2,23.33345,2|2|10,2:2|2:2|2:2,0:0:0:0:
305,125,89789,1,2,2:2:0:0:
280,280,89948,5,2,2:2:0:0:
225,215,90107,2,0,P|203:223|180:228,1,46.6669,2|10,2:2|2:2,0:0:0:0:
35,185,90424,1,2,2:2:0:0:
120,280,90583,2,0,P|98:270|79:257,1,46.6669,10|2,2:2|2:2,0:0:0:0:
90,50,90900,6,0,L|97:72,2,22.75,2|2|2,2:2|0:0|0:0,0:0:0:0:
90,50,91218,6,0,L|97:72,1,22.8581151832461,10|0,2:2|0:0,0:0:0:0:
90,90,91532,2,0,L|82:67,1,22.8581151832461,10|0,2:2|0:0,0:0:0:0:
250,190,91846,6,0,P|270:169|295:154,1,58.1000000000002,14|0,2:1|0:0,0:0:0:0:
170,220,92163,2,0,P|155:195|148:166,1,58.1000000000002,10|0,2:2|0:0,0:0:0:0:
295,260,92480,2,0,P|324:258|352:264,1,58.1000000000002,10|8,2:2|2:1,0:0:0:0:
170,305,92798,6,0,P|141:311|112:310,1,58.338,10|10,2:2|2:2,0:0:0:0:
250,330,93433,6,0,P|272:348|287:373,1,58.3333333331,10|2,2:2|2:2,0:0:0:0:
295,260,93750,2,0,P|324:258|352:264,1,58.3333333331,2|0,2:2|0:0,0:0:0:0:
250,190,94068,2,0,P|270:169|295:154,1,58.3333333331,10|0,2:2|0:0,0:0:0:0:
170,220,94385,2,0,P|155:195|148:166,1,58.3333333331,10|0,2:2|0:0,0:0:0:0:
170,305,94703,6,0,P|141:311|112:310,1,58.3333333331,10|0,2:2|0:0,0:0:0:0:
295,260,95020,2,0,P|324:258|352:264,1,58.3333333331,10|0,2:2|0:0,0:0:0:0:
170,220,95338,2,0,P|155:195|148:166,1,58.3333333331,10|0,2:2|0:0,0:0:0:0:
350,90,95655,6,0,P|365:115|372:144,1,58.3333333331,10|0,2:1|0:0,0:0:0:0:
189,4,95972,1,10,2:2:0:0:
255,55,96131,1,0,0:0:0:0:
180,85,96290,1,10,2:2:0:0:
115,35,96449,1,8,2:1:0:0:
250,190,96607,6,0,B|245:281|195:252|183:352,1,174.9999999993,10|0,2:2|0:0,0:0:0:0:
255,380,97242,2,0,L|289:374,1,35,10|0,2:2|0:0,0:0:0:0:
350,320,97560,6,0,L|358:262,1,58.3333333331,10|0,2:1|0:0,0:0:0:0:
270,115,97877,1,10,2:2:0:0:
250,190,98036,1,8,2:1:0:0:
330,175,98195,2,0,L|388:183,1,58.3333333331,10|8,2:2|2:1,0:0:0:0:
190,130,98512,6,0,L|132:138,1,58.3333333331,10|0,2:2|0:0,0:0:0:0:
278,57,98830,2,0,L|270:115,1,58.3333333331,10|0,2:2|0:0,0:0:0:0:
242,248,99147,2,0,L|250:190,1,58.3333333331,10|0,2:2|0:0,0:0:0:0:
110,60,99465,6,0,P|28:76|8:157,1,174.9999999993,10|0,2:1|0:0,0:0:0:0:
55,220,100099,2,0,L|113:212,1,58.3333333331,10|8,2:2|2:1,0:0:0:0:
278,57,100417,6,0,B|337:64|325:93|384:103,1,116.6666666662,10|10,2:2|2:2,0:0:0:0:
505,65,100893,1,0,0:0:0:0:
445,10,101052,2,0,L|387:20,1,58.3333333331,10|0,2:2|0:0,0:0:0:0:
250,190,101369,6,0,L|245:224,1,35,2|0,2:2|0:0,0:0:0:0:
230,340,101687,2,0,L|234:305,1,35,10|0,2:2|0:0,0:0:0:0:
310,280,102004,6,0,L|368:272,1,58.3333333331,10|0,2:2|0:0,0:0:0:0:
165,260,102322,2,0,L|107:268,1,58.3333333331,10|0,2:2|0:0,0:0:0:0:
45,320,102639,2,0,L|37:378,1,58.3333333331,10|0,2:2|0:0,0:0:0:0:
55,210,102957,5,10,2:2:0:0:
58,192,103115,1,0,0:0:0:0:
5,125,103274,6,0,B|66:116|49:92|113:84,1,116.6666666662,10|10,2:1|2:2,0:0:0:0:
245,45,103750,1,0,0:0:0:0:
170,30,103909,1,10,2:2:0:0:
255,120,104068,1,8,2:1:0:0:
500,20,104226,6,0,P|465:66|435:117,1,116.6666666662,10|10,2:2|2:2,0:0:0:0:
435,117,104861,1,10,2:2:0:0:
512,138,105020,1,0,0:0:0:0:
255,120,105179,5,10,2:1:0:0:
270,195,105338,1,0,0:0:0:0:
245,115,105496,6,0,L|254:57,1,58.3333333331,10|8,2:2|2:1,0:0:0:0:
207,253,105814,5,10,2:2:0:0:
345,220,105972,1,8,2:1:0:0:
280,85,106131,6,0,L|223:94,1,58.3333333331,10|0,2:2|0:0,0:0:0:0:
155,135,106449,6,0,L|144:198,1,64.1689999999997,10|0,2:2|0:0,0:0:0:0:
275,345,106766,6,0,L|286:275,1,70,10|0,2:2|0:0,0:0:0:0:
345,220,107084,6,0,B|419:217|411:255|479:251,1,139.99999999986,2|2,2:2|2:3,0:0:0:0:
470,125,108353,2,0,L|465:171,1,46.66666666662,2|2,2:2|2:2,0:0:0:0:
510,55,108830,5,2,2:2:0:0:
440,15,108988,2,0,B|408:20|408:20|366:80|366:80|332:89,1,139.99999999986,2|2,2:3|2:3,0:0:0:0:
195,15,110258,6,0,L|191:38,1,23.33333333331,2|0,2:2|0:0,0:0:0:0:
223,133,110576,2,0,L|227:110,1,23.33333333331,2|0,2:2|0:0,0:0:0:0:
125,85,110893,6,0,L|79:92,2,46.66666666662,2|2|2,2:2|2:2|2:2,0:0:0:0:
25,150,111845,2,0,L|9:241,1,93.33333333324,2|2,2:2|2:2,0:0:0:0:
255,365,112798,6,0,L|262:319,1,46.66666666662,2|2,2:2|2:2,0:0:0:0:
205,265,113274,1,0,0:0:0:0:
195,270,113433,1,2,2:2:0:0:
340,195,113750,1,2,2:2:0:0:
255,25,114068,6,0,L|258:47,1,23.33333333331,2|0,2:2|0:0,0:0:0:0:
220,140,114385,2,0,L|216:117,1,23.33333333331,2|0,2:2|0:0,0:0:0:0:
330,90,114703,6,0,L|375:97,1,46.66666666662,2|2,2:2|0:0,0:0:0:0:
435,150,115179,1,2,0:0:0:0:
490,95,115338,1,2,2:2:0:0:
220,140,115655,6,0,L|174:147,1,46.66666666662,2|2,2:2|2:2,0:0:0:0:
115,200,116131,1,2,0:0:0:0:
165,260,116290,1,2,2:2:0:0:
335,275,116607,6,0,L|380:282,1,46.66666666662,2|2,2:2|2:2,0:0:0:0:
440,335,117084,1,2,0:0:0:0:
490,275,117242,1,2,2:2:0:0:
255,355,117560,6,0,L|258:332,1,23.33333333331,2|0,2:2|0:0,0:0:0:0:
245,255,117877,2,0,L|242:232,1,23.33333333331,2|2,2:2|0:0,0:0:0:0:
260,155,118195,2,0,L|263:132,1,23.33333333331,2|0,2:2|0:0,0:0:0:0:
220,65,118512,6,0,L|174:75,1,46.66666666662,2|2,2:2|2:2,0:0:0:0:
110,120,119147,1,2,2:2:0:0:
260,155,119465,6,0,L|329:165,1,70,2|0,2:2|0:0,0:0:0:0:
410,40,119782,2,0,L|366:95,1,70,2|0,2:2|0:0,0:0:0:0:
435,230,120099,2,0,L|408:165,1,70,2|0,2:2|0:0,0:0:0:0:
245,255,120417,6,0,B|238:261|238:261|143:279,1,105,2|0,2:2|0:0,0:0:0:0:
80,120,120734,2,0,B|88:123|88:123|151:196,1,105,2|0,2:2|0:0,0:0:0:0:
40,330,121052,2,0,B|38:320|38:320|70:229,1,105,2|0,2:2|0:0,0:0:0:0:
260,155,121369,5,2,2:2:0:0:
260,155,122322,6,0,B|269:233|238:215|245:292,1,140,14|2,2:1|2:2,0:0:0:0:
290,360,122798,1,2,2:2:0:0:
360,320,122957,2,0,L|429:309,1,70,2|2,2:2|2:2,0:0:0:0:
245,292,123274,6,0,L|175:281,1,70,2|0,2:2|0:0,0:0:0:0:
100,310,123592,2,0,L|89:379,1,70,2|2,2:2|2:2,0:0:0:0:
18,312,123909,2,0,L|28:242,1,70,2|2,2:2|2:2,0:0:0:0:
45,135,124226,6,0,P|88:187|156:191,1,140,10|2,2:2|2:2,0:0:0:0:
220,135,124703,1,2,2:2:0:0:
160,15,124861,2,0,P|134:37|127:71,1,70,2|2,2:2|2:2,0:0:0:0:
285,180,125179,6,0,L|319:175,2,35,2|2|2,2:2|0:0|0:0,0:0:0:0:
225,235,125496,2,0,L|210:303,1,70,2|2,2:2|2:2,0:0:0:0:
220,135,125814,2,0,L|234:66,1,70,2|2,2:2|2:2,0:0:0:0:
300,20,126131,6,0,B|374:31|356:65|425:77,1,140,10|2,2:1|2:2,0:0:0:0:
480,20,126607,1,2,2:2:0:0:
345,90,126766,2,0,P|354:123|362:157,1,70,2|2,2:2|2:2,0:0:0:0:
345,235,127084,6,0,P|411:248|463:204,1,140,2|2,2:2|2:2,0:0:0:0:
490,125,127560,1,2,2:2:0:0:
425,77,127719,1,2,2:2:0:0:
260,155,128036,6,0,B|269:233|238:215|245:292,1,140,10|2,2:2|2:2,0:0:0:0:
300,350,128988,6,0,L|367:367,1,70,2|0,2:2|0:0,0:0:0:0:
180,185,129306,6,0,B|128:199|128:199|118:214|98:224,1,93.3800000000002,2|2,2:2|2:2,0:0:0:0:
20,90,129941,6,0,B|-13:61|0:19|40:3|83:9|87:48|76:57|85:70|104:88|134:85,1,210,14|2,2:1|2:2,0:0:0:0:
200,45,130576,2,0,P|234:52|268:58,1,70,2|2,2:2|2:2,0:0:0:0:
500,190,130893,6,0,B|474:195|474:195|438:271|438:271|409:279,1,140,2|2,2:2|2:2,0:0:0:0:
335,250,131369,1,2,2:2:0:0:
275,305,131528,2,0,P|282:339|288:373,1,70,2|2,2:2|2:2,0:0:0:0:
5,190,131845,6,0,B|50:193|103:144|76:131|76:131|47:129|71:180|71:180|130:211|134:176|191:190,1,297.500000000001,10|2,2:2|2:2,0:0:0:0:
255,135,132798,6,0,P|248:69|185:48,1,140,2|2,2:2|2:2,0:0:0:0:
191,190,133274,1,2,2:2:0:0:
220,265,133433,1,2,2:2:0:0:
300,260,133592,1,2,2:2:0:0:
325,180,133750,6,0,P|358:170|393:165,1,70,10|0,2:1|0:0,0:0:0:0:
220,265,134068,2,0,P|232:309|236:356,1,93.3800000000002,2|2,2:2|2:2,0:0:0:0:
62,236,134703,6,0,B|134:242|124:200|191:190,1,140,2|2,2:2|2:2,0:0:0:0:
255,135,135179,1,2,2:2:0:0:
200,75,135338,2,0,L|187:6,1,70,2|2,2:2|2:2,0:0:0:0:
325,180,135655,6,0,P|377:136|445:142,1,140,10|2,2:2|2:2,0:0:0:0:
380,350,136131,2,0,P|388:280|401:211,1,140,10|2,2:1|2:2,0:0:0:0:
255,135,136607,2,0,B|204:129|204:129|191:141|191:141|122:158,1,140,10|2,2:1|2:2,0:0:0:0:
295,10,137084,2,0,P|304:43|316:76,1,70,10|2,2:1|2:2,0:0:0:0:
240,285,137401,5,2,2:2:0:0:
240,285,137560,2,0,L|253:216,1,70,14|0,2:1|0:0,0:0:0:0:
202,89,137877,2,0,L|256:135,1,70,2|2,2:2|2:2,0:0:0:0:
390,155,138195,2,0,L|323:178,1,70,2|2,2:2|2:2,0:0:0:0:
125,220,138512,6,0,L|182:180,1,70,2|0,2:2|0:0,0:0:0:0:
320,25,138830,2,0,L|325:95,1,70,2|2,2:2|2:2,0:0:0:0:
390,285,139147,2,0,L|327:254,1,70,2|2,2:2|2:2,0:0:0:0:
133,76,139465,6,0,L|202:89,1,70,10|0,2:2|0:0,0:0:0:0:
435,101,139782,2,0,L|390:155,1,70,2|2,2:2|2:2,0:0:0:0:
263,351,140099,2,0,L|240:285,1,70,2|2,2:2|2:2,0:0:0:0:
286,37,140417,6,0,L|325:94,1,70,2|0,2:2|0:0,0:0:0:0:
397,248,140734,2,0,L|327:254,1,70,2|2,2:2|2:2,0:0:0:0:
152,243,141052,2,0,L|182:180,1,70,2|10,2:2|2:1,0:0:0:0:
145,110,141369,6,0,B|75:116|75:116|73:118|73:118|6:124,1,140,10|2,2:1|2:2,0:0:0:0:
152,243,141845,1,2,2:2:0:0:
80,290,142004,2,0,P|71:256|61:222,1,70,2|2,2:2|2:2,0:0:0:0:
195,380,142322,6,0,P|239:329|307:333,1,140,2|10,2:2|2:1,0:0:0:0:
380,300,142798,1,2,2:2:0:0:
430,360,142957,2,0,P|463:369|497:378,1,70,10|2,2:1|2:2,0:0:0:0:
350,200,143274,6,0,P|332:132|309:65,1,140,10|2,2:2|2:2,0:0:0:0:
255,10,143750,1,2,2:2:0:0:
415,115,143909,2,0,P|431:84|463:71,1,70,2|2,2:2|2:2,0:0:0:0:
460,285,144226,6,0,P|472:215|489:146,1,140,2|2,2:2|2:2,0:0:0:0:
415,115,144703,1,2,2:2:0:0:
350,200,144861,2,0,P|316:191|281:184,1,70,2|2,2:2|2:2,0:0:0:0:
210,230,145179,6,0,P|201:263|194:298,1,70,14|0,2:1|0:0,0:0:0:0:
230,120,145496,2,0,P|196:111|161:104,1,70,2|2,2:2|2:2,0:0:0:0:
95,155,145814,2,0,P|61:146|26:139,1,70,2|2,2:2|2:2,0:0:0:0:
145,25,146131,2,0,P|213:38|281:54,2,140,2|10|10,2:2|2:1|2:1,0:0:0:0:
500,20,147084,6,0,P|434:26|421:90,1,140,10|2,2:1|2:2,0:0:0:0:
350,200,147560,1,2,2:2:0:0:
410,250,147719,2,0,P|443:243|463:215,1,70,2|2,2:2|2:2,0:0:0:0:
230,120,148036,6,0,B|161:128|178:163|103:175,1,140,10|10,2:2|2:1,0:0:0:0:
195,345,148512,1,2,2:2:0:0:
245,285,148671,2,0,P|232:252|226:217,1,70,10|2,2:1|2:2,0:0:0:0:
285,375,148988,6,0,P|329:324|396:329,1,140,10|2,2:1|2:2,0:0:0:0:
397,329,149465,1,2,2:2:0:0:
330,280,149623,1,2,2:2:0:0:
350,200,149782,1,2,2:2:0:0:
195,345,149941,6,0,P|136:315|145:250,1,140,10|2,2:1|2:2,0:0:0:0:
145,250,150417,1,2,2:2:0:0:
110,330,150576,1,2,2:2:0:0:
30,305,150734,1,2,2:2:0:0:
10,80,150893,6,0,P|44:87|78:92,1,70,10|0,2:1|0:0,0:0:0:0:
145,145,151211,2,0,P|179:137|213:132,1,70,2|2,2:2|2:2,0:0:0:0:
275,85,151528,1,2,2:2:0:0:
285,10,151687,1,2,2:2:0:0:
500,190,151845,5,10,2:1:0:0:
425,170,152004,1,0,0:0:0:0:
360,220,152163,2,0,P|353:254|348:288,1,70,2|2,2:2|2:2,0:0:0:0:
190,370,152480,2,0,P|183:335|178:301,1,70,2|2,2:2|2:2,0:0:0:0:
285,165,152796,6,0,L|261:317,1,154,6|0,2:2|0:0,0:0:0:0:
190,370,156625,2,0,P|183:335|178:301,3,70.0046634,2|2|2|2,2:2|2:2|2:2|2:2,0:0:0:0:
10,190,160457,6,0,P|50:188|78:158,2,84,2|2|2,2:2|0:0|0:0,0:0:0:0:
256,192,165193,12,0,167905,0:0:0:0:
255,145,168054,6,0,P|258:110|269:76,1,70,6|0,2:2|0:0,0:0:0:0:
385,170,168371,1,2,2:2:0:0:
310,215,168530,1,0,0:0:0:0:
255,145,168688,2,0,P|220:148|186:159,1,70,2|0,2:2|0:0,0:0:0:0:
25,270,169006,5,2,2:2:0:0:
25,185,169165,1,0,0:0:0:0:
100,225,169323,2,0,P|134:228|168:239,1,70,2|0,2:2|0:0,0:0:0:0:
220,305,169641,2,0,P|216:339|205:373,1,70,2|0,2:2|0:0,0:0:0:0:
310,215,169958,6,0,B|388:224|361:257|438:265,1,140,2|2,2:2|2:2,0:0:0:0:
512,218,170434,1,0,0:0:0:0:
435,180,170593,1,2,2:2:0:0:
220,305,170911,6,0,B|142:314|169:347|91:355,1,140,2|2,2:2|2:2,0:0:0:0:
18,308,171387,1,0,0:0:0:0:
95,270,171546,1,2,2:2:0:0:
260,380,171863,6,0,P|271:275|296:173,1,210.000000000001,2|2,2:2|2:2,0:0:0:0:
115,35,172815,2,0,P|157:122|252:99,1,210.000000000001,2|2,2:2|2:2,0:0:0:0:
500,50,173768,2,0,P|402:45|373:138,1,210.000000000001,2|2,2:2|2:2,0:0:0:0:
202,282,174720,2,0,P|297:269|297:173,1,210.000000000001,2|2,2:2|2:2,0:0:0:0:
225,130,175673,6,0,P|191:138|156:143,1,70,2|0,2:2|0:0,0:0:0:0:
95,195,175990,1,2,2:2:0:0:
20,160,176149,1,0,0:0:0:0:
0,80,176307,1,2,2:2:0:0:
45,10,176466,1,0,0:0:0:0:
255,45,176625,6,0,P|289:49|323:58,1,70,2|0,2:2|0:0,0:0:0:0:
390,15,176942,1,2,2:2:0:0:
465,45,177101,1,0,0:0:0:0:
445,125,177260,1,2,2:2:0:0:
365,130,177419,1,0,0:0:0:0:
202,282,177577,6,0,P|210:315|215:350,1,70,2|0,2:2|0:0,0:0:0:0:
290,335,177895,2,0,P|281:301|276:266,1,70,2|0,2:2|0:0,0:0:0:0:
140,225,178212,2,0,P|105:220|71:211,1,70,2|0,2:2|0:0,0:0:0:0:
55,290,178530,6,0,P|89:294|123:303,1,70,2|0,2:2|0:0,0:0:0:0:
200,170,178847,2,0,P|234:166|268:157,1,70,2|0,2:2|0:0,0:0:0:0:
255,80,179165,2,0,P|221:84|187:93,1,70,2|0,2:2|0:0,0:0:0:0:
276,266,179482,6,0,P|309:275|344:279,1,70,2|0,2:2|0:0,0:0:0:0:
510,155,179800,1,2,2:2:0:0:
463,87,179958,1,0,0:0:0:0:
410,150,180117,2,0,P|401:183|397:218,1,70,2|0,2:2|0:0,0:0:0:0:
276,266,180434,6,0,P|285:299|289:334,1,70,2|0,2:2|0:0,0:0:0:0:
225,375,180752,1,2,2:2:0:0:
155,350,180911,1,0,0:0:0:0:
85,380,181069,2,0,P|76:347|72:312,1,70,2|0,2:2|0:0,0:0:0:0:
15,115,181387,6,0,P|48:123|80:137,1,70,2|0,2:2|0:0,0:0:0:0:
240,20,181704,2,0,P|231:53|217:85,1,70,2|0,2:2|0:0,0:0:0:0:
105,10,182022,2,0,P|122:39|135:72,1,70,2|0,2:2|0:0,0:0:0:0:
255,190,182339,6,0,P|288:181|320:167,1,70,2|0,2:2|0:0,0:0:0:0:
480,285,182657,2,0,P|471:251|457:219,1,70,2|0,2:2|0:0,0:0:0:0:
345,295,182974,2,0,P|362:265|375:232,1,70,2|0,2:2|0:0,0:0:0:0:
255,375,183287,5,6,2:2:0:0:
