osu file format v14

[General]
AudioFilename: audio.mp3
AudioLeadIn: 0
PreviewTime: 55499
Countdown: 0
SampleSet: Soft
StackLeniency: 0.6
Mode: 0
LetterboxInBreaks: 0
WidescreenStoryboard: 1

[Editor]
DistanceSpacing: 0.8
BeatDivisor: 4
GridSize: 4
TimelineZoom: 1.10002

[Metadata]
Title:Vai! Ya! Vai!
TitleUnicode:Vai! Ya! Vai!
Artist:JUNNA
ArtistUnicode:JUNNA
Creator:Yohanes
Version:Hard
Source:
Tags:Yunna Vaiyavai Japanese J-Pop Pop
BeatmapID:2275554
BeatmapSetID:1088269

[Difficulty]
HPDrainRate:5
CircleSize:3.8
OverallDifficulty:6
ApproachRate:7.5
SliderMultiplier:1.3
SliderTickRate:1

[Events]
//Background and Video events
0,0,"BG.jpg",0,0
//Break Periods
2,139555,147566
2,152567,155337
//Storyboard Layer 0 (Background)
//Storyboard Layer 1 (Fail)
//Storyboard Layer 2 (Pass)
//Storyboard Layer 3 (Foreground)
//Storyboard Layer 4 (Overlay)
//Storyboard Sound Samples

[TimingPoints]
560,361.44578313253,4,2,1,45,1,0
6343,-100,4,2,1,60,0,0
16463,-100,4,2,1,45,0,0
17909,-100,4,2,1,60,0,0
55499,-100,4,2,1,70,0,1
74114,-100,4,2,1,60,0,0
80078,-100,4,2,1,45,0,0
81523,-100,4,2,1,60,0,0
119114,-100,4,2,1,70,0,1
137728,-100,4,2,1,60,0,0
139355,-100,4,2,1,45,0,0
148029,-100,4,2,1,55,0,0
156162,-100,4,2,1,60,0,0
180198,-100,4,2,1,45,0,0
181192,-100,4,2,1,5,0,0
181282,-100,4,2,1,70,0,1
199897,-100,4,2,1,60,0,0
200642,272.727272727273,4,2,1,60,1,0
200835,413.793103448276,4,2,1,45,1,0
200835,-83.3333333333333,4,2,1,45,0,0
201643,361.44578313253,4,2,1,70,1,1
201643,-100,4,2,1,70,0,1
220257,-100,4,2,1,60,0,0
245016,-200,4,2,1,40,0,0

[Colours]
Combo1 : 255,94,55
Combo2 : 173,255,95
Combo3 : 17,254,176
Combo4 : 255,88,100

[HitObjects]
40,148,560,6,0,L|192:163,1,130,2|0,0:0|0:0,0:0:0:0:
264,192,1102,2,0,P|292:144|288:64,1,130,2|0,0:0|0:0,0:0:0:0:
212,32,1644,1,2,0:0:0:0:
212,32,1825,1,0,0:0:0:0:
140,80,2005,5,2,0:0:0:0:
252,336,2367,1,0,0:0:0:0:
252,336,2547,2,0,P|304:316|392:320,1,130,2|0,0:0|0:0,0:0:0:0:
472,340,3090,2,0,L|456:268,1,65,2|0,0:0|0:0,0:0:0:0:
440,188,3451,5,2,0:0:0:0:
188,264,3813,1,0,0:0:0:0:
188,264,3993,1,2,0:0:0:0:
344,100,4355,2,0,L|392:48,2,65,0|2|0,0:0|0:0|0:0,0:0:0:0:
256,64,4897,5,2,0:0:0:0:
196,128,5078,2,0,P|124:136|79:99,2,130,8|2|2,0:0|0:0|0:0,0:0:0:0:
256,64,5981,2,0,L|244:-16,1,65,8|2,0:0|0:0,0:0:0:0:
316,132,6343,6,0,P|396:136|468:164,1,130,4|8,3:2|3:2,0:0:0:0:
484,232,6885,2,0,L|508:296,1,65,2|0,0:0|3:2,0:0:0:0:
408,272,7246,1,2,0:0:0:0:
408,272,7427,2,0,L|384:336,1,65,8|0,3:2|0:0,0:0:0:0:
304,276,7788,6,0,P|244:292|160:292,1,130,2|8,3:2|3:2,0:0:0:0:
92,352,8331,2,0,L|48:208,1,130,2|2,0:0|0:0,0:0:0:0:
76,136,8873,2,0,P|36:120|8:96,1,65,8|2,3:2|0:0,0:0:0:0:
96,44,9234,6,0,P|176:24|248:28,1,130,4|8,3:2|3:2,0:0:0:0:
304,64,9776,1,2,0:0:0:0:
168,256,10138,1,2,0:0:0:0:
232,312,10319,1,8,3:2:0:0:
316,304,10500,1,2,0:0:0:0:
376,244,10680,6,0,P|388:196|352:100,1,130,2|8,3:2|3:2,0:0:0:0:
280,140,11222,2,0,L|136:124,1,130,2|2,0:0|0:0,0:0:0:0:
56,88,11764,2,0,L|76:164,1,65,8|2,3:2|0:0,0:0:0:0:
4,228,12126,6,0,L|148:244,1,130,4|8,3:2|3:2,0:0:0:0:
212,288,12668,2,0,P|248:264|264:236,1,65,2|0,0:0|3:2,0:0:0:0:
348,264,13029,2,0,P|345:220|328:192,1,65,2|8,0:0|3:2,0:0:0:0:
428,192,13391,1,2,0:0:0:0:
428,192,13572,6,0,P|420:124|436:48,1,130,2|8,3:2|3:2,0:0:0:0:
344,44,14114,2,0,L|276:28,1,65,2|0,0:0|3:2,0:0:0:0:
168,80,14475,1,2,0:0:0:0:
168,80,14656,2,0,L|236:96,1,65,8|2,3:2|0:0,0:0:0:0:
256,220,15017,6,0,P|204:176|124:184,1,130,6|8,3:2|3:2,0:0:0:0:
224,300,15559,2,0,P|276:256|356:264,1,130,2|2,0:0|0:0,0:0:0:0:
412,304,16102,1,8,3:2:0:0:
480,212,16282,1,2,0:0:0:0:
480,212,16463,1,2,0:0:0:0:
384,88,16825,6,0,L|392:152,1,65,2|0,0:0|0:0,0:0:0:0:
245,65,17367,5,2,0:0:0:0:
221,86,17548,1,8,2:2:0:0:
210,116,17728,1,2,0:0:0:0:
216,148,17909,6,0,P|160:128|72:132,1,130,4|8,2:2|3:2,0:0:0:0:
16,168,18451,1,2,0:0:0:0:
40,252,18632,2,0,L|28:328,1,65,0|2,3:2|0:0,0:0:0:0:
128,244,18993,2,0,L|276:232,1,130,8|2,3:2|3:2,0:0:0:0:
334,199,19535,5,0,0:0:0:0:
390,262,19716,1,8,3:2:0:0:
348,335,19897,2,0,P|304:348|280:360,1,65,2|0,0:0|3:2,0:0:0:0:
192,356,20258,2,0,P|162:342|130:334,1,65,2|8,0:0|3:2,0:0:0:0:
44,336,20620,1,2,0:0:0:0:
4,212,20800,6,0,P|56:240|140:252,1,130,4|8,3:2|3:2,0:0:0:0:
204,212,21343,1,0,0:0:0:0:
256,132,21523,2,0,L|240:68,2,65,2|0|8,3:2|0:0|0:0,0:0:0:0:
360,104,22066,1,0,0:0:0:0:
360,104,22246,6,0,L|328:244,1,130,2|8,3:2|3:2,0:0:0:0:
232,276,22788,2,0,L|220:208,1,65,2|0,0:0|3:2,0:0:0:0:
316,312,23150,2,0,L|328:380,1,65,2|8,0:0|3:2,0:0:0:0:
432,312,23511,1,2,0:0:0:0:
432,312,23692,6,0,P|448:224|420:176,1,130,6|8,3:2|3:2,0:0:0:0:
364,132,24234,1,0,0:0:0:0:
420,56,24415,2,0,P|324:80|264:76,1,130,2|8,3:2|3:2,0:0:0:0:
189,54,24957,1,0,0:0:0:0:
189,54,25138,6,0,L|209:122,1,65,2|0,3:2|0:0,0:0:0:0:
237,204,25499,1,8,3:2:0:0:
139,198,25680,2,0,P|126:272|165:326,1,130,0|2,0:0|0:0,0:0:0:0:
244,348,26222,1,8,3:2:0:0:
336,339,26403,1,0,0:0:0:0:
428,330,26584,6,0,P|432:284|428:260,1,65,6|0,3:2|0:0,0:0:0:0:
380,136,26945,2,0,P|376:182|380:206,1,65,8|0,3:2|0:0,0:0:0:0:
436,64,27306,1,2,3:2:0:0:
436,64,27487,2,0,P|376:84|292:84,1,130,0|0,0:0|0:0,0:0:0:0:
216,88,28029,6,0,P|156:68|72:68,1,130,2|8,3:2|3:2,0:0:0:0:
4,96,28572,1,2,0:0:0:0:
35,181,28752,1,2,3:2:0:0:
120,150,28933,1,2,0:0:0:0:
151,235,29114,1,8,3:2:0:0:
66,266,29294,1,0,0:0:0:0:
66,266,29475,6,0,L|54:329,1,65,4|0,3:2|0:0,0:0:0:0:
148,324,29837,2,0,L|211:336,1,65,8|0,3:2|0:0,0:0:0:0:
304,352,30198,1,2,3:2:0:0:
348,228,30379,2,0,P|300:268|224:240,1,130,0|0,0:0|0:0,0:0:0:0:
280,172,30921,6,0,P|280:124|272:100,2,65,2|0|8,3:2|0:0|3:2,0:0:0:0:
192,180,31463,2,0,P|144:184|112:196,1,65,2|0,0:0|3:2,0:0:0:0:
60,92,31825,2,0,P|108:96|140:108,1,65,2|8,0:0|3:2,0:0:0:0:
28,180,32186,1,2,0:0:0:0:
28,180,32367,6,0,L|60:324,1,130,4|8,3:2|3:2,0:0:0:0:
128,368,32909,1,2,0:0:0:0:
188,308,33090,2,0,P|228:288|256:284,1,65,0|2,3:2|0:0,0:0:0:0:
392,324,33451,2,0,P|360:316|332:300,1,65,8|2,3:2|0:0,0:0:0:0:
288,188,33813,6,0,P|280:144|284:112,2,65,2|0|8,3:2|0:0|3:2,0:0:0:0:
378,151,34355,2,0,L|446:169,1,65,2|0,0:0|3:2,0:0:0:0:
468,56,34716,1,2,0:0:0:0:
468,56,34806,1,0,0:0:0:0:
468,56,34897,2,0,L|400:74,1,65,8|0,3:2|0:0,0:0:0:0:
298,35,35258,6,0,P|254:85|191:97,1,130,6|8,3:2|3:2,0:0:0:0:
61,19,35800,1,0,0:0:0:0:
107,93,35981,2,0,P|120:144|123:173,1,65,2|0,3:2|0:0,0:0:0:0:
17,213,36343,2,0,P|30:162|33:133,1,65,8|0,3:2|0:0,0:0:0:0:
113,244,36704,6,0,P|180:254|248:242,1,130,6|8,3:2|3:2,0:0:0:0:
320,186,37246,2,0,L|347:54,1,130,2|2,0:0|0:0,0:0:0:0:
247,118,37788,2,0,L|232:49,1,65,8|2,3:2|0:0,0:0:0:0:
418,138,38150,1,4,3:2:0:0:
441,129,38873,5,4,3:2:0:0:
464,120,39415,6,0,L|459:188,1,65,12|2,0:0|3:2,0:0:0:0:
508,292,39776,5,2,0:0:0:0:
424,260,39957,1,8,3:2:0:0:
336,284,40138,2,0,L|188:260,1,130,4|2,0:0|0:0,0:0:0:0:
104,256,40680,2,0,P|128:296|136:320,1,65,2|2,0:3|0:3,0:0:0:0:
12,232,41041,6,0,P|32:188|96:128,1,130,4|8,3:2|3:2,0:0:0:0:
172,100,41584,1,0,0:0:0:0:
268,88,41764,2,0,L|332:104,1,65,2|0,3:2|0:0,0:0:0:0:
484,76,42126,2,0,L|420:60,1,65,8|2,3:2|0:0,0:0:0:0:
372,184,42487,6,0,P|432:156|508:184,1,130,2|8,3:2|3:2,0:0:0:0:
444,252,43029,2,0,P|473:308|462:371,1,130,2|2,0:0|0:0,0:0:0:0:
384,316,43572,2,0,L|312:332,1,65,10|0,3:2|0:0,0:0:0:0:
164,312,43933,5,2,3:2:0:0:
244,272,44114,1,0,0:0:0:0:
239,360,44294,1,8,3:2:0:0:
156,308,44475,2,0,P|132:224|132:172,1,130,2|2,0:0|0:0,0:0:0:0:
152,96,45017,2,0,P|124:42|100:18,1,65,8|0,3:2|0:0,0:0:0:0:
224,164,45379,6,0,P|251:110|275:86,1,65,2|0,3:2|0:0,0:0:0:0:
324,52,45740,1,8,3:2:0:0:
412,32,45921,2,0,B|489:39,1,65,2|0,0:0|3:2,0:0:0:0:
400,140,46282,1,2,0:0:0:0:
400,140,46463,2,0,B|323:133,1,65,8|0,3:2|0:0,0:0:0:0:
380,240,46825,6,0,B|509:251,2,130,4|8|2,3:2|3:2|3:2,0:0:0:0:
296,288,47728,1,0,0:0:0:0:
296,288,47909,2,0,L|308:360,1,65,8|0,3:2|0:0,0:0:0:0:
208,360,48270,6,0,P|188:312|112:292,1,130,2|8,3:2|3:2,0:0:0:0:
15,266,48813,2,0,P|59:230|99:154,1,130,2|2,0:0|0:0,0:0:0:0:
84,80,49355,1,8,3:2:0:0:
344,68,49716,6,0,P|375:60|408:56,1,65,2|0,3:2|0:0,0:0:0:0:
452,152,50078,2,0,P|420:143|388:139,1,65,8|0,3:2|0:0,0:0:0:0:
360,240,50439,2,0,P|391:231|423:227,1,65,2|0,3:2|0:0,0:0:0:0:
467,323,50801,2,0,P|435:314|403:310,1,65,10|0,3:2|0:0,0:0:0:0:
304,344,51162,5,8,3:2:0:0:
304,344,51343,2,0,L|148:328,1,130,12|2,0:0|0:0,0:0:0:0:
64,236,51885,2,0,P|140:252|188:208,1,130,12|2,3:2|3:2,0:0:0:0:
296,144,52427,2,0,P|236:140|148:120,1,130,12|2,0:0|0:0,0:0:0:0:
36,24,52969,2,0,P|60:80|80:164,1,130,12|12,3:2|3:2,0:0:0:0:
256,192,53421,12,0,55138,1:0:0:0:
272,136,55499,6,0,P|290:196|276:264,2,130,4|10|0,1:2|1:2|1:2,0:0:0:0:
220,64,56403,1,0,0:0:0:0:
136,96,56584,2,0,P|92:100|56:96,1,65,14|0,1:2|0:0,0:0:0:0:
22,237,56945,6,0,P|74:198|136:180,1,130,0|10,1:2|1:2,0:0:0:0:
120,280,57487,2,0,P|176:264|260:280,1,130,0|0,0:0|0:0,0:0:0:0:
328,320,58029,2,0,L|340:388,1,65,8|0,1:2|1:0,0:0:0:0:
420,296,58391,6,0,L|392:152,1,130,6|8,1:2|1:2,0:0:0:0:
368,60,58933,1,2,0:0:0:0:
368,60,59114,2,0,P|324:44|296:44,1,65,0|2,1:2|0:2,0:0:0:0:
252,140,59475,2,0,P|296:124|324:124,1,65,8|2,1:2|0:0,0:0:0:0:
208,56,59837,6,0,L|48:36,1,130,4|8,1:2|1:2,0:0:0:0:
4,104,60379,2,0,P|-8:152|44:212,1,130,2|2,0:0|0:0,0:0:0:0:
128,248,60921,1,8,1:2:0:0:
196,184,61102,1,0,0:0:0:0:
292,272,61282,6,0,L|208:276,1,65,4|0,1:2|0:0,0:0:0:0:
156,340,61644,2,0,P|96:320|4:316,1,130,8|2,1:2|1:2,0:0:0:0:
0,212,62186,1,0,0:0:0:0:
0,212,62367,2,0,P|52:220|84:220,1,65,8|2,1:2|0:0,0:0:0:0:
156,168,62728,6,0,P|160:84|152:20,1,130,4|8,1:2|1:2,0:0:0:0:
155,38,63270,1,0,0:0:0:0:
240,104,63451,2,0,P|280:120|316:128,1,65,2|0,1:2|0:0,0:0:0:0:
156,168,63813,2,0,P|124:176|94:189,1,65,8|2,1:2|0:0,0:0:0:0:
244,212,64174,6,0,P|292:224|380:204,1,130,4|8,1:2|1:2,0:0:0:0:
472,132,64716,1,0,0:0:0:0:
472,132,64897,2,0,P|452:196|448:276,1,130,2|8,1:2|1:2,0:0:0:0:
476,340,65439,1,0,0:0:0:0:
364,320,65620,6,0,L|288:336,1,65,2|2,1:2|1:2,0:0:0:0:
284,240,65981,2,0,L|208:232,1,65,8|2,1:2|1:2,0:0:0:0:
200,324,66343,1,0,1:2:0:0:
200,324,66433,1,0,1:0:0:0:
200,324,66523,1,0,1:0:0:0:
120,260,66704,2,0,L|44:252,1,65,8|2,1:2|1:2,0:0:0:0:
24,160,67066,6,0,P|24:96|76:28,2,130,4|8|0,1:2|1:2|1:2,0:0:0:0:
112,124,67969,1,0,0:0:0:0:
204,80,68150,2,0,L|192:156,1,65,12|0,1:2|0:0,0:0:0:0:
120,236,68511,6,0,L|260:220,1,130,0|8,1:2|1:2,0:0:0:0:
344,244,69053,2,0,L|364:172,2,65,0|2|0,0:0|1:2|0:0,0:0:0:0:
276,320,69596,2,0,P|328:328|352:340,1,65,8|0,1:2|1:0,0:0:0:0:
444,360,69957,6,0,P|436:312|460:224,1,130,6|8,1:2|1:2,0:0:0:0:
496,96,70499,1,0,0:0:0:0:
496,96,70680,2,0,P|416:124|356:124,1,130,2|8,1:2|1:2,0:0:0:0:
288,96,71222,1,0,0:0:0:0:
211,149,71403,6,0,P|211:205|215:237,2,65,6|0|8,1:2|0:0|1:2,0:0:0:0:
170,66,71945,1,0,0:0:0:0:
81,42,72126,2,0,L|5:26,1,65,0|0,1:0|1:0,0:0:0:0:
4,120,72487,2,0,L|16:196,1,65,8|2,1:2|0:0,0:0:0:0:
0,300,72849,6,0,P|47:268|148:264,1,130,6|8,1:2|1:2,0:0:0:0:
207,285,73391,1,2,0:0:0:0:
296,232,73572,1,8,1:2:0:0:
296,232,73662,1,0,1:0:0:0:
296,232,73752,2,0,L|324:358,1,130,0|6,1:0|0:0,0:0:0:0:
324,360,74656,5,12,1:2:0:0:
424,164,75017,2,0,L|408:112,4,32.5,0|0|0|0|8,1:0|1:0|1:0|1:0|1:2,0:0:0:0:
428,176,75740,6,0,P|344:156|284:152,1,130,4|8,1:2|1:2,0:0:0:0:
319,239,76282,2,0,P|265:236|224:240,1,65,2|0,0:0|1:2,0:0:0:0:
177,134,76644,2,0,P|174:188|178:229,1,65,2|8,0:0|1:2,0:0:0:0:
92,304,77005,1,2,0:0:0:0:
92,304,77186,6,0,P|96:228|90:171,1,130,4|8,1:2|1:2,0:0:0:0:
23,90,77728,2,0,P|77:93|118:89,1,65,2|0,0:0|1:2,0:0:0:0:
221,36,78090,2,0,P|167:39|126:35,1,65,2|8,0:0|1:2,0:0:0:0:
177,134,78451,1,2,0:0:0:0:
272,112,78632,6,0,P|272:176|264:200,1,65,2|0,1:2|1:0,0:0:0:0:
388,112,78993,2,0,P|388:176|396:200,1,65,8|2,1:2|1:2,0:0:0:0:
252,144,79355,6,0,P|235:205|221:226,1,65,0|2,1:0|1:2,0:0:0:0:
408,144,79716,2,0,P|424:205|438:226,1,65,8|2,1:2|1:2,0:0:0:0:
330,268,80078,5,2,1:2:0:0:
330,268,81523,6,0,L|346:336,1,65,4|0,3:2|0:0,0:0:0:0:
260,352,81885,2,0,P|216:296|144:288,1,130,8|2,3:2|3:2,0:0:0:0:
80,320,82427,2,0,P|32:324|4:320,1,65,0|8,0:0|3:2,0:0:0:0:
0,236,82788,1,0,0:0:0:0:
0,236,82969,6,0,P|47:244|75:242,1,65,2|0,3:2|0:0,0:0:0:0:
144,188,83331,1,8,3:2:0:0:
88,116,83511,2,0,L|80:40,1,65,2|0,0:0|3:2,0:0:0:0:
168,16,83873,5,2,0:0:0:0:
256,32,84053,1,8,3:2:0:0:
344,48,84234,1,2,0:0:0:0:
432,64,84415,2,0,P|444:136|440:200,1,130,6|8,3:2|3:2,0:0:0:0:
372,244,84957,6,0,P|328:228|296:228,2,65,0|2|0,0:0|3:2|0:0,0:0:0:0:
324,316,85499,1,8,3:2:0:0:
324,316,85680,1,2,0:0:0:0:
240,348,85861,6,0,P|176:316|100:308,1,130,4|8,3:2|3:2,0:0:0:0:
44,240,86403,2,0,L|12:88,2,130,2|2|2,0:0|0:0|0:0,0:0:0:0:
124,188,87306,6,0,P|160:220|240:212,1,130,6|8,3:2|3:2,0:0:0:0:
309,156,87849,1,0,0:0:0:0:
309,156,88029,2,0,P|273:124|193:132,1,130,2|8,3:2|3:2,0:0:0:0:
237,213,88572,1,0,0:0:0:0:
312,268,88752,6,0,P|396:264|452:268,1,130,4|8,3:2|3:2,0:0:0:0:
228,304,89294,2,0,P|144:308|88:304,1,130,2|2,0:0|0:0,0:0:0:0:
32,240,89837,2,0,L|44:172,2,65,8|2|4,3:2|0:0|3:2,0:0:0:0:
140,216,90379,5,0,0:0:0:0:
176,132,90559,2,0,L|160:52,1,65,8|2,3:2|0:0,0:0:0:0:
272,128,90921,1,0,3:2:0:0:
272,128,91102,2,0,L|352:144,1,65,2|8,0:0|3:2,0:0:0:0:
424,100,91463,6,0,P|440:136|440:232,1,130,2|2,0:0|0:0,0:0:0:0:
384,296,92005,2,0,P|376:346|378:382,1,65,8|0,3:2|0:0,0:0:0:0:
292,321,92367,2,0,P|250:351|227:378,1,65,2|2,3:2|0:0,0:0:0:0:
208,273,92728,2,0,P|157:265|121:267,1,65,8|2,3:2|0:0,0:0:0:0:
60,288,93090,5,6,3:2:0:0:
80,200,93270,2,0,L|60:124,2,65,0|8|0,0:0|3:2|0:0,0:0:0:0:
164,156,93813,1,2,3:2:0:0:
240,212,93993,2,0,P|308:232|376:224,1,130
448,180,94535,5,2,3:2:0:0:
472,92,94716,1,0,0:0:0:0:
384,116,94897,1,8,3:2:0:0:
448,180,95078,2,0,P|474:225|481:251,1,65,0|2,0:0|3:2,0:0:0:0:
366,226,95439,2,0,P|343:273|327:294,1,65,2|8,0:0|3:2,0:0:0:0:
168,248,95800,1,2,0:0:0:0:
168,248,95981,6,0,P|244:236|292:192,1,130,6|8,3:2|3:2,0:0:0:0:
195,157,96523,1,0,0:0:0:0:
110,178,96704,2,0,P|41:178|22:174,1,65,2|0,3:2|0:0,0:0:0:0:
0,104,97066,2,0,P|0:35|4:16,1,65,8|0,3:2|0:0,0:0:0:0:
88,72,97427,6,0,L|160:68,1,65,2|0,3:2|0:0,0:0:0:0:
244,68,97788,1,8,3:2:0:0:
320,16,97969,2,0,P|368:52|448:64,1,130,2|2,0:0|0:0,0:0:0:0:
364,136,98511,2,0,P|352:172|352:208,1,65,8|2,3:2|0:0,0:0:0:0:
456,296,98873,6,0,P|432:224|440:164,1,130,6|8,3:2|3:2,0:0:0:0:
281,257,99415,1,2,0:0:0:0:
281,257,99596,2,0,P|339:286|380:336,1,130,2|8,3:2|3:2,0:0:0:0:
284,360,100138,1,0,0:0:0:0:
188,360,100319,6,0,L|44:360,1,130,6|8,3:2|3:2,0:0:0:0:
4,252,100861,2,0,P|84:280|140:252,1,130,2|2,0:0|0:0,0:0:0:0:
64,150,101403,2,0,P|32:156|0:158,1,65,8|2,3:2|0:0,0:0:0:0:
104,16,101764,1,4,3:2:0:0:
128,24,102487,5,4,3:2:0:0:
152,32,103029,6,0,L|236:24,1,65,12|2,0:0|3:2,0:0:0:0:
280,100,103391,2,0,L|196:108,1,65,2|8,0:0|3:2,0:0:0:0:
172,236,103752,2,0,P|224:192|300:188,1,130,6|0,0:0|0:0,0:0:0:0:
256,276,104294,2,0,P|252:324|256:356,1,65,2|2,0:3|0:3,0:0:0:0:
352,376,104656,6,0,P|344:316|348:232,1,130,6|8,3:2|3:2,0:0:0:0:
376,164,105198,1,0,0:0:0:0:
448,112,105379,2,0,L|520:128,1,65,2|0,3:2|0:0,0:0:0:0:
456,24,105740,2,0,L|384:40,1,65,8|2,3:2|0:0,0:0:0:0:
320,88,106102,6,0,P|264:48|192:48,1,130,2|8,3:2|3:2,0:0:0:0:
128,168,106644,2,0,P|184:128|256:128,1,130,2|2,0:0|0:0,0:0:0:0:
268,232,107186,2,0,P|232:208|196:208,1,65,10|0,3:2|0:0,0:0:0:0:
76,296,107547,6,0,L|220:288,1,130,2|8,3:2|3:2,0:0:0:0:
276,352,108090,2,0,P|336:316|412:316,1,130,2|0,0:0|0:0,0:0:0:0:
484,348,108632,2,0,P|492:288|500:268,1,65,8|0,3:2|0:0,0:0:0:0:
424,224,108993,6,0,P|416:164|408:144,1,65,2|0,3:2|0:0,0:0:0:0:
460,60,109355,1,8,3:2:0:0:
460,60,109535,2,0,P|360:80|328:100,1,130,2|0,0:0|1:0,0:0:0:0:
256,140,110078,2,0,P|212:144|184:140,1,65,8|0,3:2|0:0,0:0:0:0:
51,51,110439,6,0,P|107:83|95:159,1,130,6|8,3:2|3:2,0:0:0:0:
44,196,110981,1,0,0:0:0:0:
24,276,111162,1,2,3:2:0:0:
56,352,111343,1,0,0:0:0:0:
136,376,111523,2,0,P|194:365|208:357,1,65,8|0,3:2|0:0,0:0:0:0:
292,368,111885,6,0,L|312:216,1,130,2|8,3:2|3:2,0:0:0:0:
280,140,112427,2,0,P|328:188|408:192,1,130,2|0,0:0|1:0,0:0:0:0:
472,164,112969,1,8,3:2:0:0:
180,16,113331,6,0,L|192:84,1,65,2|0,3:2|0:0,0:0:0:0:
140,152,113692,2,0,L|152:220,1,65,8|0,3:2|0:0,0:0:0:0:
80,20,114053,2,0,L|92:88,1,65,2|0,3:2|0:0,0:0:0:0:
40,156,114415,2,0,L|52:224,1,65,8|0,2:2|0:0,0:0:0:0:
120,344,114776,5,6,3:2:0:0:
120,344,114957,2,0,P|44:304|-20:308,1,130,4|0,0:0|0:0,0:0:0:0:
151,216,115499,2,0,P|227:256|291:252,1,130,12|0,3:2|3:2,0:0:0:0:
336,360,116041,2,0,P|368:308|436:268,1,130,12|2,0:0|0:0,0:0:0:0:
372,132,116584,2,0,L|224:160,1,130,4|4,3:2|3:2,0:0:0:0:
256,192,117035,12,0,118752,1:0:0:0:
222,165,119114,6,0,B|198:158|198:158|172:166|172:166|130:146|74:166,2,130,6|8|0,1:2|1:2|1:2,0:0:0:0:
300,204,120017,1,0,2:0:0:0:
384,168,120198,2,0,P|436:196|464:220,1,65,14|0,1:2|0:0,0:0:0:0:
364,292,120559,6,0,P|276:288|212:304,1,130,0|8,1:2|1:2,0:0:0:0:
172,236,121102,1,0,0:0:0:0:
144,316,121282,2,0,L|124:384,1,65,2|0,1:2|0:0,0:0:0:0:
0,318,121644,2,0,P|59:305|71:306,1,65,8|0,1:2|1:0,0:0:0:0:
8,220,122005,6,0,L|32:64,2,130,6|8|2,1:2|1:2|1:2,0:0:0:0:
108,188,122909,2,0,P|148:180|176:184,1,65,0|8,0:0|1:2,0:0:0:0:
248,228,123270,1,0,0:0:0:0:
332,156,123451,6,0,P|300:112|216:124,1,130,4|8,1:2|1:2,0:0:0:0:
328,32,123993,2,0,P|408:32|484:20,1,130,2|2,0:0|3:0,0:0:0:0:
504,100,124535,2,0,L|496:180,1,65,8|0,1:2|0:0,0:0:0:0:
404,128,124897,6,0,L|436:276,1,130,6|8,1:2|1:2,0:0:0:0:
500,356,125439,2,0,P|464:340|428:336,1,65,0|2,0:0|1:2,0:0:0:0:
356,352,125800,1,0,0:0:0:0:
273,367,125981,2,0,P|241:362|212:348,1,65,8|0,1:2|0:0,0:0:0:0:
300,284,126343,6,0,P|284:220|300:136,1,130,4|8,1:2|1:2,0:0:0:0:
352,68,126885,1,0,0:0:0:0:
352,68,127066,2,0,L|260:76,1,65,2|0,1:2|0:0,0:0:0:0:
212,128,127427,2,0,L|120:136,1,65,8|0,1:2|0:0,0:0:0:0:
72,48,127788,6,0,L|201:36,2,130,4|8|2,1:2|1:2|1:2,0:0:0:0:
12,112,128692,2,0,L|0:200,2,65,0|8|0,0:0|1:2|0:0,0:0:0:0:
108,152,129234,6,0,B|144:149|193:169,1,65,2|0,1:2|1:2,0:0:0:0:
248,216,129596,2,0,B|275:228|311:225,1,65,8|2,1:2|1:2,0:0:0:0:
401,197,129957,1,0,1:2:0:0:
401,197,130047,1,0,1:0:0:0:
401,197,130138,1,0,1:0:0:0:
489,231,130319,2,0,P|493:195|485:163,1,65,8|2,1:2|1:2,0:0:0:0:
464,60,130680,6,0,P|428:92|344:92,2,130,6|8|0,1:2|1:2|1:2,0:0:0:0:
388,16,131584,1,2,0:0:0:0:
272,56,131764,2,0,P|240:24|216:8,1,65,14|0,1:2|0:0,0:0:0:0:
108,80,132126,6,0,P|192:88|220:120,1,130,2|8,1:2|1:2,0:0:0:0:
142,163,132668,1,2,0:0:0:0:
196,236,132849,2,0,L|188:308,1,65,2|0,1:2|0:0,0:0:0:0:
56,360,133210,2,0,P|100:352|136:356,1,65,8|0,1:2|1:0,0:0:0:0:
96,260,133572,6,0,P|36:240|12:164,1,130,4|8,1:2|1:2,0:0:0:0:
40,92,134114,1,0,0:0:0:0:
130,62,134294,2,0,P|188:88|208:148,1,130,2|8,1:2|1:2,0:0:0:0:
276,240,134837,1,0,0:0:0:0:
276,240,135017,6,0,P|288:204|312:160,1,65,4|0,1:2|0:0,0:0:0:0:
296,80,135379,2,0,P|329:63|378:48,1,65,8|0,1:2|0:0,0:0:0:0:
476,144,135740,2,0,P|442:127|393:112,1,65,2|0,1:2|0:0,0:0:0:0:
368,248,136102,2,0,P|401:231|450:216,1,65,8|0,1:2|1:0,0:0:0:0:
464,352,136463,6,0,P|360:336|328:336,1,130,6|8,1:2|1:2,0:0:0:0:
240,360,137005,1,0,0:0:0:0:
156,312,137186,1,0,1:0:0:0:
156,312,137276,1,0,1:0:0:0:
156,312,137367,2,0,L|144:228,2,65,0|8|6,1:0|1:2|0:0,0:0:0:0:
156,312,138270,5,12,0:0:0:0:
316,116,138632,2,0,L|324:156,4,32.5,0|0|0|0|0,1:0|1:0|1:0|1:0|1:0,0:0:0:0:
316,116,139355,5,2,0:0:0:0:
40,140,148391,6,0,L|196:156,1,130,12|0,1:2|3:2,0:0:0:0:
472,244,149114,6,0,L|316:228,1,130,12|2,1:2|3:2,0:0:0:0:
304,66,149656,5,0,1:0:0:0:
272,150,149837,1,0,1:0:0:0:
240,234,150017,1,0,1:0:0:0:
208,318,150198,2,0,L|220:362,3,32.5,0|0|0|0,1:0|1:0|1:0|1:0,0:0:0:0:
144,285,150559,2,0,L|132:329,3,32.5,0|0|0|0,1:0|1:0|1:0|1:0,0:0:0:0:
105,224,150921,1,4,1:2:0:0:
256,192,151011,12,4,152367,0:0:0:0:
196,148,156162,6,0,L|145:162,2,32.5,2|2|8,0:0|0:0|1:2,0:0:0:0:
248,224,156523,1,8,0:0:0:0:
336,188,156704,6,0,P|424:204|480:220,2,130,4|8|0,1:2|1:2|1:2,0:0:0:0:
248,224,157608,1,2,0:0:0:0:
312,294,157788,2,0,P|380:286|400:282,1,65,8|0,1:2|0:0,0:0:0:0:
240,352,158150,6,0,P|176:364|104:360,1,130,2|8,1:2|1:2,0:0:0:0:
56,248,158692,2,0,P|116:270|188:279,1,130,2|2,0:0|0:0,0:0:0:0:
216,180,159234,2,0,P|172:192|140:192,1,65,8|0,1:2|0:0,0:0:0:0:
64,160,159596,6,0,L|52:84,1,65,6|0,1:2|0:0,0:0:0:0:
40,4,159957,1,8,1:2:0:0:
123,43,160138,1,0,0:0:0:0:
206,82,160319,2,0,P|250:46|338:53,1,130,2|8,1:2|1:2,0:0:0:0:
287,136,160861,1,0,0:0:0:0:
207,189,161041,6,0,L|207:264,1,65,2|0,1:2|0:0,0:0:0:0:
300,224,161403,1,8,1:2:0:0:
364,292,161584,1,0,0:0:0:0:
432,228,161764,2,0,L|424:156,1,65,2|0,1:2|0:0,0:0:0:0:
492,76,162126,2,0,L|420:84,1,65,8|0,1:2|0:0,0:0:0:0:
344,144,162487,6,0,L|329:14,1,130,4|8,1:2|1:2,0:0:0:0:
248,92,163029,2,0,L|208:32,1,65,2|0,0:0|1:2,0:0:0:0:
152,112,163391,1,0,0:0:0:0:
152,112,163481,1,0,0:0:0:0:
152,112,163572,2,0,L|81:97,1,65,8|0,1:2|0:0,0:0:0:0:
24,176,163933,6,0,P|104:184|168:212,1,130,2|8,1:2|1:2,0:0:0:0:
269,210,164475,2,0,P|248:234|233:263,1,65,2|0,0:0|1:2,0:0:0:0:
210,354,164837,2,0,L|225:391,2,32.5,2|0|8,0:0|0:0|1:2,0:0:0:0:
121,329,165198,1,0,0:0:0:0:
32,304,165379,6,0,P|36:236|16:156,1,130,4|8,1:2|1:2,0:0:0:0:
124,192,165921,2,0,P|164:168|192:160,1,65,2|0,0:0|1:2,0:0:0:0:
272,176,166282,1,0,0:0:0:0:
353,222,166463,2,0,P|389:229|429:230,1,65,10|0,1:2|0:0,0:0:0:0:
467,152,166825,5,0,1:2:0:0:
467,152,166915,1,0,0:0:0:0:
467,152,167005,1,2,0:0:0:0:
401,83,167186,2,0,L|305:76,1,65,8|2,1:2|0:2,0:0:0:0:
252,20,167547,5,2,1:2:0:0:
221,99,167728,1,2,1:2:0:0:
191,179,167909,1,8,1:2:0:0:
161,258,168090,1,2,1:2:0:0:
131,340,168270,2,0,P|60:333|15:390,2,130,4|8|0,1:2|1:2|1:2,0:0:0:0:
214,372,169174,5,2,0:0:0:0:
272,303,169355,2,0,P|302:293|334:288,1,65,8|0,1:2|0:0,0:0:0:0:
380,208,169716,2,0,P|444:228|516:232,1,130,2|8,1:2|1:2,0:0:0:0:
404,128,170258,2,0,P|348:172|284:192,1,130,2|2,0:0|0:0,0:0:0:0:
184,136,170800,2,0,L|208:204,1,65,8|2,1:2|0:0,0:0:0:0:
92,312,171162,6,0,P|124:248|108:176,1,130,4|8,1:2|1:2,0:0:0:0:
0,144,171704,2,0,P|53:96|127:93,1,130,2|2,0:0|0:0,0:0:0:0:
184,136,172246,2,0,P|220:136|268:136,1,65,8|2,1:2|0:0,0:0:0:0:
344,140,172608,6,0,P|336:88|373:-4,1,130,2|8,1:2|1:2,0:0:0:0:
474,103,173150,2,0,P|482:155|445:247,1,130,2|2,0:0|0:0,0:0:0:0:
338,265,173692,2,0,P|387:284|404:294,1,65,8|2,1:2|0:0,0:0:0:0:
332,368,174053,6,0,L|176:384,1,130,6|8,1:2|1:2,0:0:0:0:
104,352,174596,1,0,0:0:0:0:
104,352,174686,1,0,0:0:0:0:
104,352,174776,2,0,P|128:284|108:216,1,130,2|8,1:2|1:2,0:0:0:0:
16,172,175319,1,2,0:0:0:0:
16,172,175409,1,0,0:0:0:0:
16,172,175499,6,0,P|54:162|84:140,1,65,8|0,1:3|0:0,0:0:0:0:
138,75,175861,2,0,P|176:85|206:107,1,65,8|0,1:2|0:0,0:0:0:0:
297,116,176222,2,0,P|297:83|288:53,1,65,8|0,1:3|1:0,0:0:0:0:
233,185,176584,2,0,P|233:218|242:248,1,65,8|0,1:2|0:2,0:0:0:0:
346,204,176945,5,4,1:2:0:0:
346,204,177126,2,0,P|417:214|432:272,1,130,6|8,0:0|0:0,0:0:0:0:
283,370,177668,2,0,P|271:310|235:238,1,130,6|8,1:2|1:2,0:0:0:0:
47,328,178210,2,0,L|195:344,1,130,6|8,0:0|0:0,0:0:0:0:
152,166,178752,6,0,P|116:246|56:238,1,130,6|8,1:2|1:2,0:0:0:0:
10,74,179294,2,0,P|75:97|131:73,1,130,6|8,0:0|0:0,0:0:0:0:
284,28,179837,2,0,L|256:160,1,130,6|2,1:2|1:2,0:0:0:0:
231,155,181282,6,0,P|191:191|111:187,2,130,6|8|0,1:2|1:2|1:2,0:0:0:0:
152,104,182186,1,0,0:0:0:0:
192,32,182367,2,0,P|236:24|272:32,1,65,14|0,1:2|0:0,0:0:0:0:
360,16,182728,6,0,P|340:80|332:148,1,130,0|10,1:2|1:2,0:0:0:0:
436,68,183270,2,0,P|427:132|430:197,1,130,0|0,0:0|0:0,0:0:0:0:
512,288,183813,2,0,L|432:276,1,65,8|0,1:2|1:0,0:0:0:0:
276,368,184174,6,0,P|344:328|400:344,1,130,4|8,1:2|1:2,0:0:0:0:
308,248,184716,1,0,0:0:0:0:
308,248,184897,2,0,P|292:192|292:168,1,65,2|2,1:2|0:0,0:0:0:0:
392,124,185258,2,0,P|376:180|376:204,1,65,8|0,1:2|0:0,0:0:0:0:
264,100,185620,6,0,P|328:52|376:32,2,130,6|8|0,1:2|1:2|1:2,0:0:0:0:
216,172,186523,1,2,0:0:0:0:
188,256,186704,2,0,L|196:336,1,65,8|2,1:2|0:0,0:0:0:0:
112,368,187066,6,0,L|96:220,1,130,4|8,1:2|1:2,0:0:0:0:
88,148,187608,1,0,0:0:0:0:
60,54,187788,2,0,P|31:41|0:35,1,65,0|2,1:2|0:0,0:0:0:0:
88,148,188150,2,0,P|119:141|149:128,1,65,8|0,1:2|0:0,0:0:0:0:
248,152,188511,6,0,P|260:80|240:12,1,130,4|8,1:2|1:2,0:0:0:0:
348,112,189053,1,0,0:0:0:0:
348,112,189234,2,0,P|384:104|416:100,1,65,2|0,1:2|0:0,0:0:0:0:
472,196,189596,2,0,P|436:188|404:184,1,65,8|0,1:2|0:0,0:0:0:0:
320,288,189957,6,0,P|388:276|460:272,2,130,6|8|2,1:2|1:2|1:2,0:0:0:0:
232,320,190861,1,0,0:0:0:0:
144,352,191041,2,0,P|104:352|64:344,1,65,8|0,1:2|0:0,0:0:0:0:
28,276,191403,6,0,L|44:200,1,65,2|0,1:2|1:0,0:0:0:0:
124,264,191764,2,0,L|140:188,1,65,8|0,1:2|1:0,0:0:0:0:
76,132,192126,1,2,1:2:0:0:
76,132,192216,1,0,1:0:0:0:
76,132,192306,1,0,1:0:0:0:
172,120,192487,2,0,L|188:44,1,65,8|2,1:2|0:0,0:0:0:0:
260,160,192849,6,0,P|324:136|408:140,1,130,4|8,1:2|1:2,0:0:0:0:
432,244,193391,2,0,P|380:216|300:228,1,130,4|0,0:0|0:0,0:0:0:0:
368,304,193933,2,0,L|384:376,1,65,12|0,1:2|0:0,0:0:0:0:
276,320,194294,6,0,P|192:324|128:340,1,130,0|8,1:2|1:2,0:0:0:0:
20,348,194837,2,0,P|56:316|76:288,1,65,0|2,0:0|1:2,0:0:0:0:
80,204,195198,1,0,1:0:0:0:
80,204,195379,2,0,P|58:160|36:134,1,65,8|0,1:2|0:0,0:0:0:0:
128,40,195740,6,0,P|68:56|-24:52,1,130,6|8,1:2|1:2,0:0:0:0:
144,132,196282,1,0,0:0:0:0:
144,132,196463,2,0,P|204:116|296:120,1,130,2|8,1:2|1:2,0:0:0:0:
360,136,197005,1,0,0:0:0:0:
424,40,197186,6,0,P|436:88|448:112,1,65,4|0,1:2|0:0,0:0:0:0:
488,184,197547,2,0,P|476:232|464:256,1,65,8|2,1:2|0:0,0:0:0:0:
412,320,197909,2,0,P|424:368|436:392,2,65,0|2|8,1:2|0:0|1:2,0:0:0:0:
352,248,198451,1,2,0:0:0:0:
280,312,198632,6,0,P|212:304|200:232,1,130,6|8,1:2|1:2,0:0:0:0:
236,168,199174,1,0,0:0:0:0:
176,96,199355,1,0,1:2:0:0:
176,96,199445,1,0,1:2:0:0:
176,96,199535,2,0,P|116:88|96:92,1,65,0|8,1:2|1:2,0:0:0:0:
28,120,199897,1,4,1:2:0:0:
28,120,200642,5,10,1:2:0:0:
104,184,200835,2,0,L|125:315,2,116.999996429443,4|4|4,0:0|0:0|0:0,0:0:0:0:
159,100,201643,6,0,P|191:40|255:48,2,130,6|8|0,1:2|1:2|1:2,0:0:0:0:
211,180,202546,1,0,0:0:0:0:
299,148,202727,2,0,P|347:148|371:152,1,65,12|0,1:2|0:0,0:0:0:0:
427,248,203088,6,0,P|343:232|287:232,1,130,0|10,1:2|1:2,0:0:0:0:
151,268,203630,2,0,P|195:272|227:268,1,65,0|2,0:0|1:2,0:0:0:0:
359,320,203992,1,0,0:0:0:0:
359,320,204173,2,0,P|315:316|283:320,1,65,8|0,1:2|1:0,0:0:0:0:
187,360,204534,6,0,P|111:360|47:336,1,130,4|8,1:2|1:2,0:0:0:0:
15,260,205076,1,0,0:0:0:0:
67,188,205257,2,0,P|71:152|67:104,1,65,0|2,1:2|0:0,0:0:0:0:
171,160,205618,2,0,P|165:124|149:78,1,65,8|0,1:2|0:0,0:0:0:0:
87,28,205980,6,0,L|243:44,1,130,4|8,1:2|1:2,0:0:0:0:
311,41,206522,2,0,L|440:27,1,130,2|2,0:0|0:0,0:0:0:0:
419,132,207064,2,0,P|355:124|331:128,1,65,8|2,1:2|0:0,0:0:0:0:
271,172,207426,6,0,P|295:240|311:320,2,130,6|8|2,1:2|1:2|1:2,0:0:0:0:
187,136,208329,2,0,P|147:128|123:116,1,65,0|8,0:0|1:2,0:0:0:0:
143,212,208691,1,0,0:0:0:0:
143,212,208871,6,0,P|91:216|19:264,1,130,4|8,1:2|1:2,0:0:0:0:
59,340,209414,1,0,0:0:0:0:
143,368,209594,2,0,P|215:360|283:360,1,130,2|8,1:2|1:2,0:0:0:0:
369,368,210136,1,2,0:0:0:0:
411,240,210317,6,0,P|367:276|283:280,2,130,6|8|0,1:2|1:2|1:2,0:0:0:0:
451,152,211221,1,2,0:0:0:0:
451,152,211402,2,0,P|451:112|455:80,1,65,8|0,1:2|0:0,0:0:0:0:
363,116,211763,6,0,P|311:112|279:108,1,65,2|2,1:2|1:2,0:0:0:0:
215,196,212124,2,0,P|267:192|299:188,1,65,8|2,1:2|1:2,0:0:0:0:
199,100,212486,1,2,1:2:0:0:
199,100,212576,1,0,1:0:0:0:
199,100,212667,1,0,1:0:0:0:
107,112,212847,2,0,P|55:108|23:104,1,65,8|2,1:2|0:0,0:0:0:0:
3,208,213209,6,0,P|79:212|127:272,2,130,4|8|0,1:2|1:2|1:2,0:0:0:0:
39,292,214112,2,0,P|27:336|23:364,1,65,0|12,0:0|1:2,0:0:0:0:
119,368,214474,1,0,0:0:0:0:
195,308,214655,6,0,P|255:324|323:372,1,130,2|8,1:2|1:2,0:0:0:0:
349,271,215197,1,2,0:0:0:0:
412,331,215377,2,0,P|416:327|451:251,1,65,2|0,1:2|0:0,0:0:0:0:
251,228,215739,2,0,P|183:220|167:216,1,65,8|0,1:2|0:0,0:0:0:0:
103,184,216100,2,0,L|91:112,1,65,6|0,1:2|0:0,0:0:0:0:
35,36,216462,6,0,L|187:60,1,130,8|2,1:2|1:2,0:0:0:0:
267,92,217004,2,0,P|259:48|263:12,1,65,0|8,0:0|1:2,0:0:0:0:
363,28,217365,1,0,0:0:0:0:
363,28,217546,6,0,P|355:72|359:108,1,65,6|0,1:2|0:0,0:0:0:0:
447,68,217908,1,8,1:2:0:0:
467,156,218088,2,0,L|439:304,1,130,2|2,0:0|0:0,0:0:0:0:
363,352,218630,2,0,L|355:276,1,65,8|0,1:2|0:0,0:0:0:0:
263,332,218992,6,0,P|219:332|183:332,1,65,2|0,1:2|0:0,0:0:0:0:
115,356,219353,2,0,P|99:332|83:308,1,65,8|0,1:2|0:0,0:0:0:0:
11,232,219715,1,2,1:2:0:0:
11,232,219805,1,0,1:0:0:0:
11,232,219896,1,2,1:2:0:0:
51,152,220076,1,8,1:2:0:0:
23,68,220257,1,4,1:2:0:0:
23,68,220799,5,4,1:2:0:0:
243,40,221161,2,0,L|231:0,4,32.5,0|0|0|0|12,1:0|1:0|1:0|1:0|1:2,0:0:0:0:
243,40,221883,6,0,L|219:188,1,130,4|8,1:2|1:2,0:0:0:0:
255,248,222426,2,0,L|327:248,1,65,2|0,0:0|1:2,0:0:0:0:
163,224,222787,2,0,L|91:224,1,65,2|8,0:0|1:2,0:0:0:0:
59,324,223149,1,2,0:0:0:0:
59,324,223329,6,0,P|115:308|195:324,1,130,4|8,1:2|1:2,0:0:0:0:
271,356,223871,2,0,P|323:360|355:352,1,65,2|0,0:0|1:2,0:0:0:0:
379,272,224233,1,2,0:0:0:0:
379,272,224414,2,0,P|327:276|295:268,1,65,8|2,1:2|0:0,0:0:0:0:
235,220,224775,6,0,P|227:160|227:72,1,130,4|8,1:2|1:2,0:0:0:0:
131,152,225317,2,0,P|138:91|161:6,1,130,2|2,0:0|0:0,0:0:0:0:
315,104,225859,2,0,P|307:56|307:32,1,65,8|0,1:2|0:0,0:0:0:0:
225,90,226221,6,0,P|217:138|217:162,1,65,6|0,1:2|0:0,0:0:0:0:
259,232,226582,1,8,1:2:0:0:
219,316,226763,2,0,P|295:288|363:300,1,130,2|2,0:0|0:0,0:0:0:0:
419,344,227305,2,0,P|443:304|467:284,1,65,8|2,1:2|0:0,0:0:0:0:
503,156,227667,6,0,P|427:208|375:212,1,130,6|8,1:2|1:2,0:0:0:0:
327,152,228209,2,0,P|315:112|303:76,1,65,2|0,0:0|1:2,0:0:0:0:
235,140,228570,2,0,P|204:111|176:86,1,65,2|8,0:0|1:2,0:0:0:0:
99,88,228932,1,0,0:0:0:0:
22,160,229112,6,0,P|87:166|151:180,1,130,6|8,1:2|1:2,0:0:0:0:
235,248,229655,2,0,P|170:254|106:267,1,130,0|0,0:0|0:0,0:0:0:0:
199,336,230197,2,0,P|263:344|279:348,1,65,8|0,1:2|0:0,0:0:0:0:
399,356,230558,5,2,1:2:0:0:
399,356,230739,2,0,P|371:328|363:232,1,130,0|0,0:0|0:0,0:0:0:0:
451,272,231281,2,0,P|451:232|513:158,1,130,2|8,1:2|1:2,0:0:0:0:
383,160,231823,6,0,P|383:100|391:76,1,65,0|2,0:0|1:2,0:0:0:0:
427,12,232185,1,2,1:2:0:0:
335,24,232365,1,8,1:2:0:0:
243,36,232546,1,2,1:2:0:0:
151,48,232727,2,0,L|143:92,2,32.5,0|0|2,1:0|1:0|1:2,0:0:0:0:
227,144,233088,2,0,L|219:100,2,32.5,8|0|8,1:2|1:2|1:2,0:0:0:0:
147,208,233450,6,0,P|83:184|15:184,2,130,6|8|0,1:2|1:2|1:2,0:0:0:0:
199,284,234353,1,2,0:0:0:0:
299,284,234534,2,0,P|283:320|271:356,1,65,8|2,1:2|0:0,0:0:0:0:
395,320,234896,6,0,P|375:244|371:176,1,130,4|8,1:2|1:2,0:0:0:0:
479,104,235438,2,0,P|459:180|455:248,1,130,2|2,0:0|0:0,0:0:0:0:
483,312,235980,1,8,1:2:0:0:
483,312,236161,1,2,0:0:0:0:
343,356,236341,6,0,P|263:312|203:308,1,130,4|8,1:2|1:2,0:0:0:0:
59,320,236883,2,0,P|123:284|139:216,1,130,2|2,0:0|0:0,0:0:0:0:
179,144,237426,2,0,L|163:68,1,65,8|0,1:2|0:0,0:0:0:0:
243,208,237787,6,0,P|291:176|371:176,1,130,6|8,1:2|1:2,0:0:0:0:
491,88,238329,2,0,P|463:152|451:228,1,130,2|2,0:0|0:0,0:0:0:0:
387,96,238871,2,0,P|335:88|311:88,1,65,8|0,1:2|0:0,0:0:0:0:
223,112,239233,6,0,P|139:112|71:96,1,130,4|8,1:2|1:2,0:0:0:0:
3,168,239775,2,0,P|59:192|75:204,1,65,2|0,0:0|1:2,0:0:0:0:
75,288,240136,2,0,P|131:264|147:252,1,65,2|8,0:0|1:2,0:0:0:0:
215,332,240498,1,2,0:0:0:0:
215,332,240679,6,0,P|307:316|371:328,1,130,6|8,1:2|1:2,0:0:0:0:
435,360,241221,2,0,P|467:308|467:220,1,130,2|2,0:0|0:0,0:0:0:0:
435,156,241763,2,0,P|435:112|443:84,1,65,8|2,1:2|0:0,0:0:0:0:
371,224,242124,5,4,1:2:0:0:
371,224,242305,2,0,P|307:208|235:200,1,130,2|0,0:0|0:0,0:0:0:0:
91,216,242847,2,0,P|139:200|167:176,1,65,2|0,1:2|0:0,0:0:0:0:
283,120,243209,2,0,P|235:120|207:128,1,65,8|0,1:2|0:0,0:0:0:0:
91,132,243570,5,2,1:2:0:0:
163,60,243751,1,2,1:2:0:0:
64,33,243932,1,8,1:2:0:0:
91,132,244112,1,2,1:2:0:0:
35,216,244293,6,0,L|-9:208,2,32.5,0|0|0,1:0|1:0|1:0,0:0:0:0:
103,272,244655,2,0,L|147:264,2,32.5,8|0|8,1:2|1:0|1:2,0:0:0:0:
35,320,245016,1,2,1:2:0:0:
