osu file format v14

[General]
AudioFilename: audio.mp3
AudioLeadIn: 0
PreviewTime: 54964
Countdown: 0
SampleSet: Soft
StackLeniency: 0.4
Mode: 0
LetterboxInBreaks: 0
WidescreenStoryboard: 0

[Editor]
Bookmarks: 2103,13669,20898,44030,55596,72946,84512
DistanceSpacing: 1
BeatDivisor: 2
GridSize: 32
TimelineZoom: 2

[Metadata]
Title:Umi to Shinju (TV Size)
TitleUnicode:海と真珠 (TV Size)
Artist:JUNNA
ArtistUnicode:JUNNA
Creator:Vanya2
Version:The Far and Distant Sea
Source:海賊王女
Tags:oriental dora- doraemonelf the sea and a pearl kaizoku oujo fena pirate princess anime op opening japanese rock female vocal jrock
BeatmapID:3243994
BeatmapSetID:1566413

[Difficulty]
HPDrainRate:6
CircleSize:3.8
OverallDifficulty:8
ApproachRate:9
SliderMultiplier:1.6
SliderTickRate:1

[Events]
//Background and Video events
0,0,"a.jpg",0,0
Video,1058,"b.mp4"
//Break Periods
//Storyboard Layer 0 (Background)
//Storyboard Layer 1 (Fail)
//Storyboard Layer 2 (Pass)
//Storyboard Layer 3 (Foreground)
//Storyboard Layer 4 (Overlay)
//Storyboard Sound Samples

[TimingPoints]
2103,361.44578313253,4,2,1,60,1,0
2103,-133.333333333333,4,2,1,60,0,0
12223,-133.333333333333,4,2,1,70,0,0
13307,-133.333333333333,4,2,2,70,0,0
13669,-100,4,2,1,75,0,0
19090,-100,4,2,3,80,0,0
20898,361.44578313253,4,2,2,60,1,0
20898,-133.333333333333,4,2,2,60,0,0
21982,-133.333333333333,4,2,4,60,0,0
22163,-133.333333333333,4,2,2,60,0,0
24873,-133.333333333333,4,2,4,60,0,0
25054,-133.333333333333,4,2,2,60,0,0
27765,-133.333333333333,4,2,4,60,0,0
27946,-133.333333333333,4,2,2,60,0,0
29934,-133.333333333333,4,2,1,60,0,0
30656,-133.333333333333,4,2,4,60,0,0
31379,-111.111111111111,4,2,4,60,0,0
32102,-111.111111111111,4,2,3,60,0,0
32464,-111.111111111111,4,2,2,60,0,0
33548,-111.111111111111,4,2,4,60,0,0
33729,-111.111111111111,4,2,2,60,0,0
36439,-111.111111111111,4,2,4,60,0,0
36620,-111.111111111111,4,2,2,60,0,0
37885,-111.111111111111,4,2,1,60,0,0
38247,-111.111111111111,4,2,4,65,0,0
39331,-111.111111111111,4,2,1,65,0,0
44030,-100,4,2,1,70,0,0
45476,-100,4,2,3,70,0,0
45656,-100,4,2,1,70,0,0
46922,-100,4,2,3,70,0,0
47464,-100,4,2,1,70,0,0
49452,-100,4,2,3,70,0,0
49813,-100,4,2,2,70,0,0
50355,-100,4,2,1,70,0,0
51259,-100,4,2,3,70,0,0
51439,-100,4,2,1,70,0,0
52705,-100,4,2,4,75,0,0
53247,-100,4,2,5,75,0,0
53428,-100,4,2,1,75,0,0
53789,-100,4,2,5,75,0,0
54151,-100,4,2,6,80,0,0
55596,-90.9090909090909,4,2,1,85,0,1
56500,-90.9090909090909,4,2,6,85,0,1
66801,-90.9090909090909,4,2,7,85,0,1
67163,-90.9090909090909,4,2,1,85,0,1
68066,-90.9090909090909,4,2,6,85,0,1
78729,-90.9090909090909,4,2,8,85,0,1
79090,-90.9090909090909,4,2,6,85,0,1
81620,-90.9090909090909,4,2,3,85,0,1
83066,-90.9090909090909,4,2,1,85,0,1
83970,-90.9090909090909,4,2,3,85,0,1
84512,-90.9090909090909,4,2,3,85,0,0
85235,-90.9090909090909,4,2,1,60,0,0
85958,-90.9090909090909,4,2,1,50,0,0
86681,-90.9090909090909,4,2,1,40,0,0
87404,-90.9090909090909,4,2,1,30,0,0
88126,-90.9090909090909,4,2,1,20,0,0
88849,-90.9090909090909,4,2,1,10,0,0
89572,-90.9090909090909,4,2,99,5,0,0

[Colours]
Combo1 : 37,226,170
Combo2 : 152,250,165
Combo3 : 252,153,148
Combo4 : 168,228,239

[HitObjects]
500,122,2103,6,0,B|403:106|434:179|324:163,1,180,6|0,2:0|2:0,2:0:0:0:
260,25,2825,2,0,P|326:35|358:104,1,120,2|2,2:0|2:0,2:0:0:0:
170,241,3548,2,0,L|150:96,1,120,2|0,2:0|2:0,2:0:0:0:
41,326,4271,6,0,B|118:314|118:314|155:332|155:332|235:319,1,180,2|0,2:0|2:0,2:0:0:0:
251,252,4994,2,0,P|292:293|291:351,2,120,2|2|2,2:0|2:0|2:0,2:0:0:0:
251,252,6440,5,2,2:0:0:0:
410,304,6801,1,2,2:0:0:0:
201,120,7163,1,2,2:0:0:0:
171,382,7524,1,2,2:0:0:0:
361,179,7886,6,0,L|492:165,1,120,2|0,2:0|2:0,2:0:0:0:
201,34,8609,2,0,B|103:43|152:106|41:119,1,180,2|0,2:0|2:0,2:0:0:0:
201,120,9331,1,2,2:0:0:0:
52,30,9693,1,2,2:0:0:0:
225,257,10054,1,2,2:0:0:0:
268,0,10416,1,2,2:0:0:0:
256,192,10506,12,4,12946,2:3:0:0:
15,101,13307,6,0,L|56:93,1,30.0000000000001,2|2,1:2|2:0,2:0:0:0:
154,48,13488,2,0,L|113:40,1,30.0000000000001,2|2,2:0|2:0,2:0:0:0:
1,119,13669,6,0,L|118:100,1,80,6|0,3:2|2:0,2:0:0:0:
265,219,14030,1,8,1:2:0:0:
58,193,14211,1,0,2:0:0:0:
154,48,14392,2,0,P|173:84|173:123,1,80,8|2,3:2|3:2,2:0:0:0:
85,275,14753,1,10,1:2:0:0:
255,136,14934,1,2,2:0:0:0:
255,136,15024,1,2,2:0:0:0:
255,136,15115,6,0,P|295:137|343:250,1,160,8|8,3:2|1:2,2:0:0:0:
210,312,15657,2,0,L|327:293,1,80,2|8,2:0|3:2,2:0:0:0:
476,133,16018,1,2,3:2:0:0:
265,219,16199,1,10,1:2:0:0:
476,311,16380,1,2,2:0:0:0:
358,80,16560,6,0,B|297:68|297:68|264:80|264:80|201:68,1,160,10|10,3:2|1:2,2:0:0:0:
265,219,17102,2,0,P|292:190|304:152,1,80,2|8,2:0|3:2,2:0:0:0:
122,29,17464,2,0,P|112:67|121:106,1,80,2|8,3:2|1:2,2:0:0:0:
172,249,17825,1,2,2:0:0:0:
172,249,17916,1,2,2:0:0:0:
172,249,18006,6,0,P|116:195|42:214,1,160,8|10,3:2|1:2,2:0:0:0:
94,350,18548,2,0,L|211:331,1,80,2|8,2:0|3:2,2:0:0:0:
359,190,18910,1,2,3:2:0:0:
246,383,19090,1,6,1:2:0:0:
159,126,19271,1,6,1:2:0:0:
210,199,20898,6,0,L|341:182,1,120,6|0,3:2|2:0,2:0:0:0:
511,231,21440,1,2,3:2:0:0:
511,231,21620,2,0,L|434:222,1,60.0000000000001,2|0,2:0|2:0,2:0:0:0:
320,266,21982,1,0,1:0:0:0:
434,205,22163,1,2,2:0:0:0:
468,367,22343,6,0,L|337:350,1,120,2|0,3:2|2:0,2:0:0:0:
220,359,22885,1,2,3:2:0:0:
220,359,23066,2,0,L|143:368,1,60.0000000000001,2|0,2:0|2:0,2:0:0:0:
24,300,23428,1,2,1:2:0:0:
24,300,23789,6,0,P|48:246|29:190,1,120,2|2,3:2|2:0,2:0:0:0:
90,93,24331,2,0,P|118:84|148:87,1,60.0000000000001,2|0,3:2|2:0,2:0:0:0:
259,171,24693,2,0,P|229:171|201:160,1,60.0000000000001,2|0,2:0|1:0,2:0:0:0:
298,95,25054,1,2,2:0:0:0:
298,95,25144,1,2,2:0:0:0:
298,95,25235,6,0,P|341:134|347:192,1,120,0|0,3:0|2:0,2:0:0:0:
258,312,25777,1,0,3:0:0:0:
186,169,25958,2,0,L|109:160,1,60.0000000000001,2|0,2:0|2:0,2:0:0:0:
337,275,26319,2,0,L|414:266,1,60.0000000000001,2|0,1:2|2:0,2:0:0:0:
466,147,26681,6,0,L|449:16,1,120,2|0,3:2|2:0,2:0:0:0:
323,0,27223,1,2,3:2:0:0:
323,0,27404,2,0,P|301:20|289:47,1,60.0000000000001,2|0,2:0|2:0,2:0:0:0:
346,193,27765,1,0,1:0:0:0:
372,64,27946,1,2,2:0:0:0:
233,143,28126,6,0,P|174:146|128:109,1,120,2|2,3:2|2:0,2:0:0:0:
207,4,28669,2,0,L|200:63,1,60.0000000000001,2|0,3:2|2:0,2:0:0:0:
37,158,29030,2,0,L|30:98,1,60.0000000000001,2|0,2:0|1:0,2:0:0:0:
132,235,29391,1,2,2:0:0:0:
132,235,29482,1,2,2:0:0:0:
132,235,29572,6,0,P|113:258|87:272,1,60.0000000000001,0|0,3:0|2:0,2:0:0:0:
207,384,29934,2,0,P|188:328|212:274,2,120,2|0|0,2:0|2:0|1:0,2:0:0:0:
274,333,31018,5,0,3:0:0:0:
322,195,31379,2,0,L|334:300,1,72.0000000000001,2|0,2:0|3:0,2:0:0:0:
442,384,31741,2,0,L|450:312,1,72.0000000000001,2|0,2:0|2:0,2:0:0:0:
341,111,32102,1,6,1:2:0:0:
341,111,32464,6,0,B|256:93|284:163|177:135,1,144,6|0,3:2|2:0,2:0:0:0:
92,35,33006,1,2,3:2:0:0:
92,35,33187,2,0,P|66:59|53:93,1,72.0000000000001,2|0,2:0|2:0,2:0:0:0:
208,239,33548,1,0,1:0:0:0:
138,101,33729,1,2,2:0:0:0:
19,220,33910,6,0,L|124:208,1,72.0000000000001,2|0,3:2|2:0,2:0:0:0:
238,327,34271,1,2,2:0:0:0:
238,327,34452,2,0,P|202:332|168:322,1,72.0000000000001,2|0,3:2|2:0,2:0:0:0:
104,196,34813,1,2,2:0:0:0:
82,364,34994,1,0,1:0:0:0:
208,239,35175,1,2,2:0:0:0:
208,239,35265,1,2,2:0:0:0:
208,239,35355,6,0,B|260:233|260:233|298:246|298:246|349:239,1,144,0|2,3:0|2:0,2:0:0:0:
500,192,35897,2,0,L|395:180,1,72.0000000000001,2|0,3:2|2:0,2:0:0:0:
318,326,36259,2,0,L|423:314,1,72.0000000000001,2|0,2:0|1:0,2:0:0:0:
370,130,36620,1,2,2:0:0:0:
370,130,36711,1,2,2:0:0:0:
370,130,36801,6,0,P|300:139|262:197,1,144,0|0,3:0|2:0,2:0:0:0:
474,337,37343,1,0,3:0:0:0:
474,337,37524,2,0,L|462:232,1,72.0000000000001,0|0,2:0|3:0,2:0:0:0:
345,208,37885,1,2,1:2:0:0:
300,347,38066,1,2,2:0:0:0:
225,176,38247,6,0,B|184:204|184:204|95:173,1,144,6|2,3:2|2:0,2:0:0:0:
139,47,38789,2,0,P|161:74|170:109,1,72.0000000000001,2|0,3:2|2:0,2:0:0:0:
14,205,39151,2,0,P|8:169|18:135,1,72.0000000000001,2|0,3:2|1:0,2:0:0:0:
148,231,39512,1,2,2:0:0:0:
148,231,39602,1,2,2:0:0:0:
148,231,39693,6,0,L|136:336,1,72.0000000000001,2|2,3:2|2:0,2:0:0:0:
249,384,40054,2,0,P|315:362|342:297,2,144,2|0|0,2:0|2:0|1:0,2:0:0:0:
252,90,41138,6,0,L|396:108,1,144,2|2,3:2|2:0,2:0:0:0:
512,21,41681,2,0,L|407:33,1,72.0000000000001,2|0,3:2|2:0,2:0:0:0:
322,175,42042,1,0,3:0:0:0:
260,18,42223,2,0,L|248:123,1,72.0000000000001,2|0,1:2|2:0,2:0:0:0:
424,188,42584,6,0,P|454:206|490:210,1,72.0000000000001,2|0,3:2|2:0,2:0:0:0:
371,99,42946,1,2,1:2:0:0:
323,282,43126,1,0,1:0:0:0:
323,282,43217,1,0,1:0:0:0:
323,282,43307,1,2,3:2:0:0:
182,115,43488,1,8,2:3:0:0:
297,171,43669,1,10,2:3:0:0:
229,6,43849,1,4,2:3:0:0:
137,187,44030,6,0,B|94:158|94:158|111:46,1,160,6|0,3:2|2:0,2:0:0:0:
20,199,44572,1,8,2:3:0:0:
182,115,44753,2,0,L|292:128,1,80,2|0,2:0|3:0,2:0:0:0:
375,210,45114,2,0,L|485:197,1,80,0|0,1:0|2:0,2:0:0:0:
370,49,45476,6,0,P|352:79|349:126,2,80,6|8|2,3:2|2:3|2:0,2:0:0:0:
445,164,46018,1,4,2:3:0:0:
288,207,46199,2,0,L|301:317,1,80,2|0,2:0|3:0,2:0:0:0:
441,384,46560,2,0,L|454:274,1,80,2|0,1:2|2:0,2:0:0:0:
288,207,46922,6,0,B|195:196|223:262|117:246,1,160,6|2,3:2|2:0,2:0:0:0:
3,195,47464,1,8,2:3:0:0:
40,352,47644,2,0,L|53:242,1,80,2|0,2:0|3:0,2:0:0:0:
151,159,48006,2,0,L|142:80,1,80,2|0,1:2|2:0,2:0:0:0:
268,292,48367,6,0,P|307:291|343:273,2,80,2|8|0,3:2|2:3|2:0,2:0:0:0:
151,159,48910,1,4,2:3:0:0:
297,127,49090,2,0,L|284:237,1,80,2|0,2:0|3:0,2:0:0:0:
171,324,49452,2,0,L|158:214,1,80,4|0,1:2|2:0,2:0:0:0:
262,34,49813,6,0,P|339:37|391:96,1,160,4|0,3:2|2:0,2:0:0:0:
287,206,50355,1,8,2:3:0:0:
200,101,50536,2,0,L|90:88,1,80,2|0,2:0|3:0,2:0:0:0:
0,207,50897,2,0,L|110:194,1,80,0|0,1:0|2:0,2:0:0:0:
52,33,51259,6,0,P|32:67|30:107,2,80,6|8|2,3:2|2:3|2:0,2:0:0:0:
79,197,51801,1,4,2:3:0:0:
200,101,51982,2,0,L|209:180,1,80,2|0,2:0|3:0,2:0:0:0:
55,299,52343,1,2,1:2:0:0:
114,120,52524,1,2,1:2:0:0:
251,266,52705,6,0,L|430:247,1,160,6|2,3:2|3:2,2:0:0:0:
217,21,53247,2,0,P|144:48|113:119,1,160,6|2,1:2|3:2,2:0:0:0:
366,154,53789,2,0,L|379:44,1,80,6|0,1:2|2:0,2:0:0:0:
229,267,54151,5,0,3:0:0:0:
438,187,54331,1,0,3:0:0:0:
214,112,54512,1,0,3:0:0:0:
362,320,54693,1,0,3:0:0:0:
294,67,54873,1,0,3:0:0:0:
142,290,55054,1,2,1:2:0:0:
217,21,55235,1,2,1:2:0:0:
365,235,55416,1,2,1:2:0:0:
139,62,55596,6,0,P|66:89|36:183,2,176,4|8|8,3:2|1:2|3:2,2:0:0:0:
319,227,56500,1,2,3:2:0:0:
125,151,56681,1,10,1:2:0:0:
327,71,56861,1,2,2:0:0:0:
224,285,57042,6,0,B|214:220|214:220|231:168|231:168|219:81,2,176,8|8|8,3:2|1:2|3:2,2:0:0:0:
438,344,57946,1,2,3:2:0:0:
321,148,58126,1,10,1:2:0:0:
271,357,58307,1,2,2:0:0:0:
419,180,58488,6,0,P|460:166|504:168,1,88,8|0,3:2|2:0,2:0:0:0:
261,369,58849,2,0,P|217:371|175:357,1,88,10|0,1:2|2:0,2:0:0:0:
0,155,59211,2,0,P|41:141|85:143,1,88,10|0,3:2|3:0,2:0:0:0:
236,242,59572,1,10,1:2:0:0:
69,378,59753,1,2,2:0:0:0:
69,378,59843,1,2,2:0:0:0:
69,378,59934,6,0,B|23:346|23:346|62:204,1,176,8|10,3:2|1:2,2:0:0:0:
299,144,60476,1,0,2:0:0:0:
119,304,60657,1,10,3:2:0:0:
110,62,60837,1,0,3:0:0:0:
260,239,61018,2,0,L|388:223,1,88,10|0,1:2|2:0,2:0:0:0:
461,30,61379,6,0,P|377:11|310:63,1,176,14|10,3:2|1:2,2:0:0:0:
436,265,61922,2,0,P|438:221|424:179,1,88,2|8,2:0|3:2,2:0:0:0:
235,10,62283,2,0,P|221:51|223:95,1,88,2|8,3:2|1:2,2:0:0:0:
347,228,62644,1,0,2:0:0:0:
157,159,62825,6,0,L|29:175,1,88,10|0,3:2|2:0,2:0:0:0:
310,63,63187,2,0,L|438:79,1,88,10|0,1:2|2:0,2:0:0:0:
181,238,63548,2,0,L|53:254,1,88,10|0,3:2|3:0,2:0:0:0:
308,144,63910,2,0,L|436:160,1,88,10|0,1:2|2:0,2:0:0:0:
503,345,64271,6,0,B|399:330|443:415|309:378,1,176,10|10,3:2|1:2,2:0:0:0:
181,238,64813,2,0,L|197:366,1,88,2|8,2:0|3:2,2:0:0:0:
235,117,65175,1,2,3:2:0:0:
349,243,65355,1,8,1:2:0:0:
382,79,65536,1,0,2:0:0:0:
264,266,65717,5,10,3:2:0:0:
299,43,65897,1,2,2:0:0:0:
440,210,66078,1,10,1:2:0:0:
212,113,66259,2,0,P|171:99|127:101,1,88,2|10,2:0|3:2,2:0:0:0:
254,287,66620,1,2,3:2:0:0:
396,49,66801,1,14,1:2:0:0:
456,311,66982,1,6,1:2:0:0:
194,233,67163,6,0,B|90:218|130:290|-2:266,2,176,4|8|8,3:2|1:2|3:2,2:0:0:0:
356,133,68066,1,2,3:2:0:0:
235,330,68247,1,10,1:2:0:0:
174,109,68428,1,2,2:0:0:0:
372,252,68608,6,0,L|394:54,2,176,8|8|8,3:2|1:2|3:2,2:0:0:0:
135,350,69512,1,2,3:2:0:0:
267,165,69693,1,10,1:2:0:0:
317,384,69873,1,2,2:0:0:0:
144,211,70054,6,0,L|16:227,1,88,8|0,3:2|2:0,2:0:0:0:
225,74,70416,2,0,L|353:90,1,88,10|0,1:2|2:0,2:0:0:0:
446,234,70777,2,0,L|318:250,1,88,10|0,3:2|3:0,2:0:0:0:
512,142,71138,1,10,1:2:0:0:
445,346,71319,1,2,2:0:0:0:
337,167,71500,6,0,P|294:188|263:223,1,88,10|0,3:2|2:0,2:0:0:0:
107,70,71861,2,0,P|145:94|192:104,1,88,10|0,1:2|2:0,2:0:0:0:
139,314,72223,2,0,P|141:266|126:221,1,88,10|0,3:2|3:0,2:0:0:0:
0,69,72584,1,10,1:2:0:0:
58,281,72765,1,2,2:0:0:0:
202,101,72946,6,0,B|269:90|269:90|321:107|321:107|408:95,1,176,14|8,3:2|1:2,2:0:0:0:
263,177,73488,1,0,2:0:0:0:
415,13,73669,2,0,P|464:72|443:169,1,176,10|8,3:2|1:2,2:0:0:0:
329,25,74211,1,0,2:0:0:0:
242,185,74391,6,0,L|114:169,1,88,10|0,3:2|2:0,2:0:0:0:
415,257,74753,2,0,L|543:241,1,88,10|0,1:2|2:0,2:0:0:0:
214,362,75114,2,0,P|204:319|210:275,1,88,10|0,3:2|3:0,2:0:0:0:
373,99,75476,1,8,1:2:0:0:
295,317,75657,1,0,2:0:0:0:
188,103,75837,6,0,P|144:97|101:107,1,88,10|0,3:2|2:0,2:0:0:0:
334,185,76199,2,0,P|377:190|420:180,1,88,10|0,1:2|2:0,2:0:0:0:
285,20,76560,2,0,L|269:148,1,88,10|0,3:2|3:0,2:0:0:0:
209,275,76922,1,8,1:2:0:0:
117,61,77102,1,0,2:0:0:0:
26,274,77283,6,0,P|67:287|111:285,1,88,10|0,3:2|2:0,2:0:0:0:
348,148,77644,2,0,P|304:145|262:159,1,88,10|0,1:2|2:0,2:0:0:0:
386,323,78006,2,0,L|402:195,1,88,10|0,3:2|3:0,2:0:0:0:
187,15,78367,2,0,L|203:143,1,88,10|0,1:2|2:0,2:0:0:0:
79,268,78729,6,0,B|144:255|144:255|190:274|190:274|274:258,1,176,6|8,3:2|1:2,2:0:0:0:
439,155,79271,1,0,2:0:0:0:
362,334,79452,2,0,L|328:150,1,176,10|8,3:2|1:2,2:0:0:0:
187,15,79994,1,0,2:0:0:0:
102,169,80175,6,0,P|88:127|91:82,1,88,10|0,3:2|2:0,2:0:0:0:
260,177,80536,2,0,P|262:221|248:263,1,88,10|0,1:2|2:0,2:0:0:0:
15,180,80897,2,0,L|143:164,1,88,10|0,3:2|3:0,2:0:0:0:
335,273,81259,2,0,L|207:257,1,88,10|0,1:2|2:0,2:0:0:0:
67,369,81620,5,14,3:2:0:0:
119,168,81801,1,0,3:0:0:0:
274,347,81982,1,8,1:2:0:0:
182,113,82163,1,0,3:0:0:0:
23,291,82343,1,14,1:2:0:0:
260,177,82524,1,0,3:0:0:0:
28,53,82705,2,0,L|44:180,1,88,8|0,1:2|2:0,2:0:0:0:
325,246,83066,5,10,2:3:0:0:
341,220,83157,1,4,2:3:0:0:
349,190,83247,1,2,1:2:0:0:
348,159,83337,1,2,1:2:0:0:
337,130,83428,1,2,1:2:0:0:
172,166,83608,2,0,L|299:182,1,88,2|2,3:2|2:0,2:0:0:0:
40,49,83970,1,6,3:2:0:0:
141,304,84151,1,6,3:2:0:0:
256,192,85235,5,4,3:2:0:0:
256,192,85325,12,0,89572,2:0:0:0:
