osu file format v14

[General]
AudioFilename: audio.mp3
AudioLeadIn: 0
PreviewTime: 55055
Countdown: 0
SampleSet: Soft
StackLeniency: 0.7
Mode: 0
LetterboxInBreaks: 0
WidescreenStoryboard: 0

[Editor]
Bookmarks: 66336
DistanceSpacing: 0.3
BeatDivisor: 4
GridSize: 8
TimelineZoom: 1.2

[Metadata]
Title:Umi to Shinju (TV Size)
TitleUnicode:海と真珠 (TV Size)
Artist:JUNNA
ArtistUnicode:JUNNA
Creator:HeTo
Version:Calling of the Sea
Source:海賊王女
Tags:Kaizoku Oujo fena houtman Pirate princess japanese jpop j-pop pop anime the sea and a pearl op opening
BeatmapID:3230685
BeatmapSetID:1581982

[Difficulty]
HPDrainRate:5.5
CircleSize:4
OverallDifficulty:8
ApproachRate:9
SliderMultiplier:1.74
SliderTickRate:1

[Events]
//Background and Video events
Video,918,"1.mp4"
0,0,"1 (1).jpg",0,0
//Break Periods
//Storyboard Layer 0 (Background)
//Storyboard Layer 1 (Fail)
//Storyboard Layer 2 (Pass)
//Storyboard Layer 3 (Foreground)
//Storyboard Layer 4 (Overlay)
//Storyboard Sound Samples

[TimingPoints]
2104,361.44578313253,4,2,5,55,1,0
2104,-156.25,4,2,5,55,0,0
2736,-156.25,4,2,5,5,0,0
2826,-156.25,4,2,5,55,0,0
4272,-294.117647058824,4,2,5,55,0,0
4905,-294.117647058824,4,2,5,5,0,0
4995,-156.25,4,2,5,55,0,0
8610,-294.117647058824,4,2,5,55,0,0
9242,-294.117647058824,4,2,5,5,0,0
9332,-156.25,4,2,5,55,0,0
10778,-172.413793103448,4,2,5,55,0,0
12224,-106.382978723404,4,2,5,65,0,0
13670,-102.040816326531,4,2,5,65,0,0
19814,-208.333333333335,4,2,5,65,0,0
20899,-128.205128205129,4,2,5,60,0,0
26230,-128.205128205129,4,2,5,5,0,0
26320,-128.205128205129,4,2,5,60,0,0
44031,-113.636363636364,4,2,5,60,0,0
49724,-113.636363636364,4,2,5,5,0,0
49814,-113.636363636364,4,2,5,60,0,0
52706,-102.040816326531,4,2,5,65,0,0
52977,-102.040816326531,4,2,5,5,0,0
53067,-102.040816326531,4,2,5,65,0,0
53158,-102.040816326531,4,2,5,5,0,0
53248,-102.040816326531,4,2,5,65,0,0
54061,-102.040816326531,4,2,5,5,0,0
54152,-102.040816326531,4,2,5,60,0,0
55146,-102.040816326531,4,2,5,5,0,0
55236,-102.040816326531,4,2,5,60,0,0
55326,-102.040816326531,4,2,5,5,0,0
55417,-102.040816326531,4,2,5,60,0,0
55507,-102.040816326531,4,2,5,5,0,0
55597,-96.1538461538461,4,2,5,70,0,0
57314,-96.1538461538461,4,2,5,5,0,0
57405,-96.1538461538461,4,2,5,70,0,0
58760,-96.1538461538461,4,2,5,5,0,0
58850,-96.1538461538461,4,2,5,70,0,0
60206,-96.1538461538461,4,2,5,5,0,0
60296,-96.1538461538461,4,2,5,70,0,0
61652,-96.1538461538461,4,2,5,5,0,0
61742,-96.1538461538461,4,2,5,70,0,0
70326,-96.1538461538461,4,2,5,5,0,0
70417,-96.1538461538461,4,2,5,70,0,0
72857,-96.1538461538461,4,2,5,5,0,0
72947,-96.1538461538461,4,2,5,70,0,0
75116,-185.185185185185,4,2,5,70,0,0
75477,-96.1538461538461,4,2,5,70,0,0
75838,-96.1538461538461,4,2,5,70,0,0
76561,-156.25,4,2,5,70,0,0
76923,-96.1538461538461,4,2,5,70,0,0
80447,-96.1538461538461,4,2,5,5,0,0
80537,-96.1538461538461,4,2,5,70,0,0
83881,-96.1538461538461,4,2,5,5,0,0
83971,-96.1538461538461,4,2,5,70,0,0
84061,-96.1538461538461,4,2,5,5,0,0
84152,-96.1538461538461,4,2,5,70,0,0
84242,-96.1538461538461,4,2,5,5,0,0
85236,-96.1538461538461,4,2,5,70,0,0
88850,-96.1538461538461,4,2,5,5,0,0

[Colours]
Combo1 : 219,196,181
Combo2 : 248,152,112
Combo3 : 252,234,109
Combo4 : 206,206,255

[HitObjects]
266,79,2104,6,0,B|148:101|222:171|104:203,1,194.88,6|0,0:0|0:0,0:0:0:0:
122,197,2826,2,0,P|116:235|130:259,1,55.68,2|0,0:0|0:0,0:0:0:0:
47,141,3188,2,0,P|15:164|8:191,1,55.68,2|0,0:0|0:0,0:0:0:0:
105,327,3549,2,0,P|137:292|218:291,1,111.36,2|0,0:0|0:0,0:0:0:0:
208,292,4272,6,0,P|246:308|316:319,1,103.530000631897,2|0,0:0|0:0,0:0:0:0:
307,318,4995,6,0,P|311:287|294:255,1,55.68,2|0,0:0|0:0,0:0:0:0:
399,366,5357,2,0,P|423:346|434:312,1,55.68,2|0,0:0|0:0,0:0:0:0:
338,190,5718,2,0,P|294:212|214:220,1,111.36,2|0,0:0|0:0,0:0:0:0:
233,221,6260,1,0,0:0:0:0:
104,144,6441,6,0,P|101:106|103:77,1,55.68,2|0,0:0|0:0,0:0:0:0:
206,39,6802,2,0,P|209:77|207:106,1,55.68,2|0,0:0|0:0,0:0:0:0:
159,196,7164,2,0,P|113:197|71:238,1,83.52,2|0,0:0|0:0,0:0:0:0:
83,217,7525,2,0,P|82:244|85:272,1,55.68,2|0,0:0|0:0,0:0:0:0:
239,384,7887,2,0,P|241:321|234:256,1,111.36,2|0,0:0|0:0,0:0:0:0:
244,259,8610,6,0,P|271:230|334:236,1,103.530000631897,2|0,0:0|0:0,0:0:0:0:
330,233,9332,6,0,P|345:197|337:171,1,55.68,2|0,0:0|0:0,0:0:0:0:
452,168,9694,2,0,P|428:137|401:130,1,55.68,2|0,0:0|0:0,0:0:0:0:
322,27,10055,6,0,P|289:40|247:44,1,55.68,2|0,0:0|0:0,0:0:0:0:
155,158,10417,2,0,P|122:148|77:142,1,55.68,2|0,0:0|0:0,0:0:0:0:
206,8,10778,2,0,P|214:45|222:131,2,100.920003079834,2|2|2,0:0|0:0|0:0,0:0:0:0:
89,270,11863,5,2,0:0:0:0:
89,270,12224,6,0,B|171:282,1,81.7799987521363,14|0,0:0|1:2,0:0:0:0:
379,177,12585,1,0,1:2:0:0:
310,100,12766,2,0,P|287:133|287:173,1,81.7799987521363,8|0,0:3|1:2,0:0:0:0:
383,336,13128,1,0,1:2:0:0:
476,217,13308,6,0,P|428:229|419:229,1,40.8899993760681,10|2,0:0|0:0,0:0:0:0:
297,331,13489,2,0,P|278:323|257:319,1,40.8899993760681,2|2,0:0|0:0,0:0:0:0:
150,205,13670,6,0,B|101:177|56:209|56:209|46:257|-12:276,2,170.519998438843,6|8|2,1:2|0:0|1:2,0:0:0:0:
0,115,14573,1,2,1:2:0:0:
171,27,14754,1,10,0:0:0:0:
88,110,14935,5,2,0:0:0:0:
88,110,15025,1,2,0:0:0:0:
88,110,15116,2,0,P|85:51|81:10,1,85.2599992194214,2|0,1:2|0:0,0:0:0:0:
227,192,15477,1,8,0:0:0:0:
340,84,15658,2,0,P|336:126|334:169,1,85.2599992194214,2|0,0:0|1:2,0:0:0:0:
248,31,16019,1,2,1:2:0:0:
429,144,16200,1,10,0:0:0:0:
254,272,16381,1,2,0:0:0:0:
334,169,16561,6,0,P|384:177|444:256,1,127.889998829132,2|0,1:2|0:0,0:0:0:0:
439,243,16923,1,10,0:0:0:0:
241,135,17103,2,0,P|240:95|233:29,1,85.2599992194214,2|0,0:0|1:2,0:0:0:0:
378,1,17465,2,0,P|379:43|383:86,1,85.2599992194214,2|8,0:0|0:0,0:0:0:0:
235,274,17826,5,2,0:0:0:0:
235,274,17917,1,2,0:0:0:0:
235,274,18007,2,0,P|183:253|134:260,1,85.2599992194214,2|0,1:2|0:0,0:0:0:0:
86,296,18369,1,10,0:0:0:0:
250,143,18549,2,0,P|256:89|256:38,1,85.2599992194214,2|0,0:0|1:2,0:0:0:0:
322,196,18911,5,2,1:2:0:0:
158,123,19091,1,10,0:0:0:0:
419,11,19272,5,10,0:0:0:0:
38,211,20899,6,0,P|94:208|152:287,1,135.72000455603,6|0,1:2|0:0,0:0:0:0:
244,345,21441,1,2,0:0:0:0:
236,266,21622,2,0,B|151:279|199:323|102:340,1,135.72000455603,2|2,0:0|0:3,0:0:0:0:
114,336,22073,1,2,0:3:0:0:
103,335,22164,1,2,0:3:0:0:
198,184,22344,6,0,P|203:144|209:21,1,135.72000455603,2|0,1:2|0:0,0:0:0:0:
296,146,22887,1,2,1:2:0:0:
344,210,23067,2,0,P|396:220|419:226,1,67.8600022780152,2|0,0:0|0:0,0:0:0:0:
290,25,23429,2,0,P|256:32|223:38,1,67.8600022780152,10|0,0:0|0:0,0:0:0:0:
88,184,23790,6,0,P|33:184|5:105,1,135.72000455603,2|2,1:2|0:0,0:0:0:0:
147,256,24332,2,0,P|187:264|232:277,1,67.8600022780152,2|0,0:0|0:0,0:0:0:0:
68,370,24694,2,0,P|74:329|73:293,1,67.8600022780152,2|0,0:0|0:0,0:0:0:0:
252,200,25055,5,2,0:0:0:0:
252,200,25146,1,2,0:0:0:0:
252,200,25236,2,0,P|254:250|264:349,1,135.72000455603,2|0,1:2|0:0,0:0:0:0:
376,248,25778,1,0,1:2:0:0:
437,197,25959,6,0,P|439:139|445:82,1,101.790003417023,2|0,0:0|0:0,0:0:0:0:
410,24,26320,1,10,0:0:0:0:
410,24,26682,6,0,B|349:42|349:42|338:54|338:54|265:77,1,135.72000455603,2|0,1:2|0:0,0:0:0:0:
184,170,27224,1,2,0:0:0:0:
193,94,27405,2,0,P|226:93|286:173,1,135.72000455603,2|0,0:0|0:0,0:0:0:0:
161,301,27947,5,2,0:0:0:0:
161,301,28037,1,2,0:0:0:0:
161,301,28128,2,0,B|86:314|86:314|69:282|118:243,1,135.72000455603,2|2,1:2|0:0,0:0:0:0:
284,181,28670,2,0,P|280:236|278:270,1,67.8600022780152,2|0,1:2|0:0,0:0:0:0:
318,332,29031,1,2,0:0:0:0:
188,224,29212,1,10,0:0:0:0:
375,131,29393,5,2,0:0:0:0:
375,131,29483,1,2,0:0:0:0:
375,131,29573,2,0,B|458:145|411:169|501:188,1,135.72000455603,2|2,1:2|0:0,0:0:0:0:
340,376,30116,2,0,P|324:356|324:316,1,67.8600022780152,2|0,0:0|0:0,0:0:0:0:
371,249,30477,1,0,0:0:0:0:
228,120,30658,2,0,P|187:132|136:137,1,67.8600022780152,2|0,0:0|0:0,0:0:0:0:
95,183,31019,5,0,1:2:0:0:
95,183,31381,2,0,P|75:145|88:112,1,67.8600022780152,2|0,0:0|1:2,0:0:0:0:
247,211,31742,2,0,P|242:265|242:298,1,67.8600022780152,2|0,0:0|0:0,0:0:0:0:
123,378,32103,1,10,0:0:0:0:
162,308,32284,5,2,0:0:0:0:
162,308,32375,1,2,0:0:0:0:
162,308,32465,2,0,P|225:323|304:358,1,135.72000455603,6|0,1:2|0:0,0:0:0:0:
483,280,33007,1,2,0:0:0:0:
428,223,33188,2,0,P|386:240|371:321,1,135.72000455603,2|2,0:0|0:3,0:0:0:0:
376,330,33640,1,2,0:3:0:0:
381,338,33730,1,2,0:3:0:0:
509,192,33911,6,0,P|501:146|498:40,1,135.72000455603,2|2,1:2|0:0,0:0:0:0:
358,130,34453,2,0,P|356:179|349:229,1,67.8600022780152,2|0,1:2|0:0,0:0:0:0:
488,47,34814,2,0,P|451:24|416:31,1,67.8600022780152,2|8,0:0|0:0,0:0:0:0:
270,130,35176,5,2,0:0:0:0:
270,130,35266,1,2,0:0:0:0:
270,130,35357,2,0,P|220:140|118:172,1,135.72000455603,2|2,1:2|0:0,0:0:0:0:
3,85,35899,2,0,P|7:39|8:12,1,67.8600022780152,2|0,0:0|0:0,0:0:0:0:
126,161,36260,2,0,P|127:194|130:228,1,67.8600022780152,2|0,0:0|0:0,0:0:0:0:
26,326,36622,1,2,0:0:0:0:
52,251,36802,6,0,P|84:251|153:329,1,135.72000455603,0|0,1:2|0:0,0:0:0:0:
325,215,37344,1,0,1:2:0:0:
273,154,37525,2,0,P|249:181|254:234,1,67.8600022780152,2|0,0:0|1:2,0:0:0:0:
395,361,37887,1,14,0:0:0:0:
395,361,38067,1,2,0:0:0:0:
393,279,38248,6,0,B|308:294|361:325|253:347,1,135.72000455603,6|2,1:2|0:0,0:0:0:0:
101,273,38790,2,0,P|83:232|96:196,1,67.8600022780152,2|0,1:2|0:0,0:0:0:0:
227,78,39152,1,2,1:2:0:0:
169,215,39332,1,10,0:0:0:0:
68,76,39513,5,2,0:0:0:0:
68,76,39603,1,2,0:0:0:0:
68,76,39694,2,0,P|112:88|148:87,1,67.8600022780152,0|2,1:2|0:0,0:0:0:0:
337,197,40055,1,2,0:0:0:0:
259,214,40236,2,0,B|256:131|292:180|278:67,1,135.72000455603,0|0,1:2|1:2,0:0:0:0:
163,232,40778,2,0,P|127:239|89:249,1,67.8600022780152,8|0,0:0|0:0,0:0:0:0:
307,316,41140,6,0,P|364:326|444:353,1,135.72000455603,2|2,1:2|0:0,0:0:0:0:
362,178,41682,2,0,P|365:130|363:87,1,67.8600022780152,2|0,1:2|0:0,0:0:0:0:
459,219,42043,1,0,1:2:0:0:
307,316,42224,2,0,P|283:286|289:252,1,67.8600022780152,10|0,0:0|0:0,0:0:0:0:
326,37,42585,6,0,P|376:67|477:62,1,135.72000455603,2|8,1:2|0:0,0:0:0:0:
224,192,43218,1,8,0:0:0:0:
217,199,43308,2,0,P|179:201|151:216,1,67.8600022780152,0|8,1:2|0:3,0:0:0:0:
19,301,43670,1,0,1:2:0:0:
1,222,43850,5,0,1:2:0:0:
1,222,43941,1,0,1:2:0:0:
1,222,44031,2,0,B|49:206|79:239|79:239|88:278|141:291,1,153.120004672852,6|0,1:2|0:0,0:0:0:0:
308,162,44573,1,8,0:3:0:0:
228,115,44754,2,0,P|228:153|226:193,1,76.5600023364259,2|0,0:0|1:2,0:0:0:0:
389,257,45116,2,0,P|389:219|391:179,1,76.5600023364259,10|0,0:0|0:0,0:0:0:0:
351,53,45477,5,2,1:2:0:0:
419,9,45658,2,0,P|462:13|487:40,1,76.5600023364259,8|0,0:3|0:0,0:0:0:0:
391,181,46019,1,8,0:3:0:0:
265,89,46200,2,0,P|268:30|267:3,1,76.5600023364259,0|0,1:2|1:2,0:0:0:0:
391,181,46561,2,0,P|440:184|482:201,1,76.5600023364259,10|0,0:0|0:0,0:0:0:0:
277,297,46923,6,0,B|174:309|233:346|126:361,1,153.120004672852,2|0,1:2|0:0,0:0:0:0:
135,270,47465,1,8,0:3:0:0:
345,351,47646,2,0,P|362:312|347:268,1,76.5600023364259,2|0,0:0|1:2,0:0:0:0:
257,140,48007,1,10,0:0:0:0:
257,140,48369,5,2,1:2:0:0:
383,80,48549,2,0,P|432:96|474:100,1,76.5600023364259,8|0,0:3|0:0,0:0:0:0:
314,196,48911,1,8,0:3:0:0:
452,273,49091,1,0,1:2:0:0:
417,201,49272,1,0,1:2:0:0:
231,378,49453,6,0,P|179:371|175:306,1,114.840003504639,14|0,0:0|0:0,0:0:0:0:
177,309,49814,6,0,P|184:249|180:125,1,153.120004672852,0|0,1:2|0:0,0:0:0:0:
103,231,50357,1,8,0:3:0:0:
263,158,50537,2,0,P|306:169|345:174,1,76.5600023364259,2|0,0:0|1:2,0:0:0:0:
154,36,50899,2,0,P|116:41|79:51,1,76.5600023364259,10|0,0:0|0:0,0:0:0:0:
183,157,51260,5,2,1:2:0:0:
269,76,51441,2,0,P|265:37|264:-7,1,76.5600023364259,8|0,0:3|0:0,0:0:0:0:
263,0,51802,1,8,0:3:0:0:
94,134,51983,2,0,P|92:172|88:210,1,76.5600023364259,2|0,1:2|1:2,0:0:0:0:
241,372,52344,1,14,0:0:0:0:
241,372,52525,1,2,0:0:0:0:
245,288,52706,6,0,B|192:298|192:298|170:320|170:320|95:338,1,127.889998829132,6|0,1:2|0:0,0:0:0:0:
116,325,53067,2,0,B|97:306|97:306|109:278,1,42.6299996097107,2|0,0:0|0:0,0:0:0:0:
319,229,53248,6,0,B|345:266|345:266|325:306,1,85.2599992194214,14|0,0:0|1:2,0:0:0:0:
279,364,53610,1,0,1:2:0:0:
62,174,53790,6,0,B|67:127|67:127|54:100|54:100|60:49,1,127.889998829132,14|0,0:0|0:0,0:0:0:0:
74,44,54152,5,0,1:2:0:0:
138,93,54332,1,0,1:2:0:0:
220,51,54513,5,0,1:2:0:0:
62,175,54694,1,8,0:0:0:0:
217,274,54875,1,8,0:0:0:0:
95,355,55055,6,0,P|96:333|96:312,1,42.6299996097107,10|0,0:0|0:0,0:0:0:0:
235,257,55236,6,0,P|233:235|233:214,1,42.6299996097107,10|0,0:0|0:0,0:0:0:0:
55,149,55417,6,0,P|56:127|56:106,1,42.6299996097107,10|0,0:0|0:0,0:0:0:0:
286,11,55597,6,0,P|331:23|385:30,1,90.4799994477539,6|2,1:2|0:0,0:0:0:0:
511,214,55959,1,10,0:0:0:0:
512,121,56140,2,0,P|462:129|434:191,1,90.4799994477539,2|0,0:0|1:2,0:0:0:0:
303,299,56501,5,2,1:2:0:0:
152,193,56682,1,10,0:0:0:0:
232,160,56863,1,2,0:0:0:0:
232,160,56953,1,2,0:0:0:0:
232,160,57043,2,0,B|239:254|210:202|222:316,1,135.719999171631,2|0,1:2|0:0,0:0:0:0:
217,305,57405,1,8,0:0:0:0:
349,164,57585,2,0,P|351:106|356:68,1,90.4799994477539,2|0,0:0|1:2,0:0:0:0:
232,160,57947,1,2,1:2:0:0:
458,263,58128,5,10,0:0:0:0:
450,184,58308,2,0,B|395:170|359:209|359:209|345:260|274:267,1,180.959998895508,2|0,0:0|0:0,0:0:0:0:
142,359,58850,2,0,P|92:359|68:322,1,90.4799994477539,10|0,0:0|0:0,0:0:0:0:
219,163,59212,2,0,P|230:137|215:53,1,90.4799994477539,2|0,1:2|1:2,0:0:0:0:
302,261,59573,1,10,0:0:0:0:
150,111,59754,5,2,0:0:0:0:
150,111,59844,1,2,0:0:0:0:
150,111,59935,2,0,B|96:123|96:123|75:153|75:153|10:170,1,135.719999171631,2|0,1:2|0:0,0:0:0:0:
19,159,60296,2,0,P|-2:115|21:56,1,90.4799994477539,10|0,0:0|0:0,0:0:0:0:
213,241,60658,1,2,1:2:0:0:
38,334,60838,1,0,1:2:0:0:
120,227,61019,2,0,P|127:293|133:329,1,90.4799994477539,10|0,0:0|0:0,0:0:0:0:
278,113,61381,6,0,B|363:136|313:158|424:186,1,135.719999171631,2|0,1:2|0:0,0:0:0:0:
409,178,61742,1,10,0:0:0:0:
240,345,61923,2,0,P|220:299|240:243,1,90.4799994477539,2|0,0:0|1:2,0:0:0:0:
278,199,62284,1,0,1:2:0:0:
159,91,62465,1,10,0:0:0:0:
159,91,62826,6,0,P|109:104|63:109,1,90.4799994477539,2|0,1:2|0:0,0:0:0:0:
240,345,63188,2,0,P|284:350|328:362,1,90.4799994477539,10|0,0:0|0:0,0:0:0:0:
468,164,63549,1,2,1:2:0:0:
468,164,63730,1,0,1:2:0:0:
400,111,63911,2,0,B|373:150|373:150|400:203,1,90.4799994477539,10|0,0:0|0:0,0:0:0:0:
491,348,64272,6,0,P|440:337|396:334,1,90.4799994477539,2|0,1:2|0:0,0:0:0:0:
327,344,64634,1,10,0:0:0:0:
490,164,64814,2,0,P|492:107|499:62,1,90.4799994477539,2|0,0:0|1:2,0:0:0:0:
321,230,65176,1,2,1:2:0:0:
228,31,65357,2,0,P|299:41|317:109,1,135.719999171631,10|0,0:0|0:0,0:0:0:0:
315,107,65718,5,2,1:2:0:0:
151,227,65899,1,2,0:0:0:0:
317,332,66079,1,10,0:0:0:0:
235,214,66260,2,0,P|232:276|226:322,1,90.4799994477539,2|0,0:0|1:2,0:0:0:0:
186,376,66622,5,2,1:2:0:0:
374,246,66802,1,10,0:0:0:0:
180,127,66983,1,10,0:0:0:0:
312,24,67164,6,0,P|309:80|308:126,1,90.4799994477539,6|0,1:2|0:0,0:0:0:0:
495,277,67525,2,0,B|440:255|396:289|396:289|383:336|326:339,1,180.959998895508,10|0,0:0|1:2,0:0:0:0:
154,203,68067,5,0,1:2:0:0:
308,114,68248,1,10,0:0:0:0:
243,219,68429,1,2,0:0:0:0:
243,219,68519,1,2,0:0:0:0:
243,219,68610,2,0,B|250:125|221:177|228:81,1,135.719999171631,2|0,1:2|0:0,0:0:0:0:
225,75,68971,1,10,0:0:0:0:
82,253,69152,2,0,P|78:316|72:347,1,90.4799994477539,2|0,0:0|1:2,0:0:0:0:
243,219,69513,1,2,1:2:0:0:
74,141,69694,1,10,0:0:0:0:
221,357,69875,5,2,0:0:0:0:
221,357,69965,1,2,0:0:0:0:
221,357,70055,2,0,P|271:340|365:358,1,135.719999171631,0|0,1:2|0:0,0:0:0:0:
362,363,70417,2,0,P|422:364|446:319,1,90.4799994477539,10|0,0:0|0:0,0:0:0:0:
270,163,70778,2,0,P|274:100|274:59,1,90.4799994477539,2|0,1:2|1:2,0:0:0:0:
405,195,71140,1,10,0:0:0:0:
216,323,71320,1,2,0:0:0:0:
417,190,71501,6,0,P|465:204|508:210,1,90.4799994477539,2|0,1:2|0:0,0:0:0:0:
199,50,71863,2,0,P|155:62|111:69,1,90.4799994477539,10|0,0:0|0:0,0:0:0:0:
331,331,72224,2,0,P|333:285|338:240,1,90.4799994477539,2|0,1:2|1:2,0:0:0:0:
142,382,72585,2,0,P|137:310|127:240,1,135.719999171631,10|0,0:0|0:0,0:0:0:0:
121,238,72947,2,0,P|158:201|208:211,1,90.4799994477539,6|0,1:2|0:0,0:0:0:0:
416,351,73308,2,0,B|378:345|378:345|368:335|368:335|312:328,1,90.4799994477539,8|0,0:0|0:0,0:0:0:0:
496,191,73670,5,2,1:2:0:0:
351,87,73850,1,0,1:2:0:0:
436,34,74031,2,0,P|432:87|429:131,1,90.4799994477539,10|0,0:0|0:0,0:0:0:0:
330,330,74393,6,0,P|287:311|274:260,1,90.4799994477539,2|0,1:2|0:0,0:0:0:0:
101,360,74754,2,0,P|95:313|133:276,1,90.4799994477539,10|0,0:0|0:0,0:0:0:0:
268,125,75116,2,0,P|319:149|374:155,1,93.9600022939454,2|8,1:2|0:0,0:0:0:0:
431,134,75658,1,0,0:0:0:0:
317,341,75838,6,0,P|274:322|261:271,1,90.4799994477539,2|0,1:2|0:0,0:0:0:0:
88,371,76200,2,0,P|82:324|120:287,1,90.4799994477539,10|0,0:0|0:0,0:0:0:0:
188,123,76561,2,0,P|187:177|183:239,1,111.36,2|8,1:2|0:0,0:0:0:0:
185,314,77103,1,0,0:0:0:0:
98,150,77284,6,0,P|46:166|3:169,1,90.4799994477539,2|0,1:2|0:0,0:0:0:0:
268,290,77646,2,0,P|312:294|355:309,1,90.4799994477539,10|0,0:0|0:0,0:0:0:0:
506,147,78007,1,2,1:2:0:0:
506,147,78188,1,0,1:2:0:0:
434,65,78369,2,0,P|402:111|412:155,1,90.4799994477539,10|0,0:0|0:0,0:0:0:0:
221,364,78730,6,0,B|168:372|144:329|144:329|144:325|144:325|110:281|51:299,1,180.959998895508,6|8,1:2|0:0,0:0:0:0:
238,149,79272,1,2,0:0:0:0:
144,74,79453,2,0,P|149:128|150:177,1,90.4799994477539,2|0,1:2|1:2,0:0:0:0:
347,277,79814,2,0,P|342:223|341:174,1,90.4799994477539,10|0,0:0|0:0,0:0:0:0:
203,1,80176,6,0,P|160:20|45:37,1,135.719999171631,2|0,1:2|0:0,0:0:0:0:
60,37,80537,2,0,P|25:84|33:124,1,90.4799994477539,10|0,0:0|0:0,0:0:0:0:
127,332,80899,1,2,1:2:0:0:
150,164,81079,1,0,1:2:0:0:
14,273,81260,2,0,P|58:262|102:254,1,90.4799994477539,10|0,0:0|0:0,0:0:0:0:
363,181,81622,5,2,1:2:0:0:
238,117,81802,1,0,1:2:0:0:
381,179,81983,5,10,0:0:0:0:
219,301,82164,1,0,1:2:0:0:
435,97,82344,5,10,0:0:0:0:
383,331,82525,1,0,1:2:0:0:
238,117,82706,1,10,0:0:0:0:
238,117,83067,6,0,P|166:133|113:137,1,90.4799994477539,6|8,1:2|0:0,0:0:0:0:
135,134,83338,1,8,0:0:0:0:
121,132,83429,1,8,0:0:0:0:
300,372,83610,2,0,P|304:302|312:228,1,135.719999171631,6|0,1:2|0:0,0:0:0:0:
315,228,83971,6,0,P|272:217|262:215,1,45.239999723877,2|0,1:2|0:0,0:0:0:0:
122,38,84152,2,0,P|79:49|69:51,1,45.239999723877,6|0,1:2|0:0,0:0:0:0:
4,121,85236,5,6,1:2:0:0:
256,192,85326,12,0,88850,0:0:0:0:
