osu file format v14

[General]
AudioFilename: audio.mp3
AudioLeadIn: 0
PreviewTime: 60391
Countdown: 0
SampleSet: Soft
StackLeniency: 0.7
Mode: 0
LetterboxInBreaks: 0
WidescreenStoryboard: 0

[Editor]
Bookmarks: 459,3769,7079,13700,20321,26941,33562,33572,40183,46803,51769,53424,61700,74941,88183
DistanceSpacing: 0.2
BeatDivisor: 8
GridSize: 4
TimelineZoom: 1.9

[Metadata]
Title:Kono Yubi Tomare (TV Size)
TitleUnicode:コノユビトマレ (TV Size)
Artist:JUNNA
ArtistUnicode:JUNNA
Creator:Enerugii
Version:Trynna's Extra
Source:賭ケグルイ××
Tags:kakegurui season 2 opening
BeatmapID:1894609
BeatmapSetID:907890

[Difficulty]
HPDrainRate:6
CircleSize:4.2
OverallDifficulty:9
ApproachRate:8.5
SliderMultiplier:1.8
SliderTickRate:1

[Events]
//Background and Video events
0,0,"bgg.jpg",0,0
//Break Periods
//Storyboard Layer 0 (Background)
//Storyboard Layer 1 (Fail)
//Storyboard Layer 2 (Pass)
//Storyboard Layer 3 (Foreground)
//Storyboard Sound Samples

[TimingPoints]
459,413.793103448276,4,2,0,100,1,0
5424,-58.8235294117647,4,2,0,100,0,0
13715,413.793103448276,4,2,0,100,1,0
13715,-71.4285714285714,4,2,0,100,0,0
40197,-133.333333333333,4,2,0,100,0,0
46818,-100,4,2,0,100,0,0
53439,-71.4285714285714,4,2,0,100,0,0
58381,413.793103448276,4,2,0,100,1,0
60894,413.793103448276,4,2,0,100,1,0
61173,413.793103448276,4,2,0,100,1,0
61461,413.793103448276,4,2,0,100,1,0
61715,413.793103448276,4,2,0,100,1,0
61715,-58.8235294117647,4,2,0,100,0,1
86542,-140.252454417952,4,2,0,100,0,0

[Colours]
Combo1 : 244,203,77
Combo2 : 193,79,82
Combo3 : 240,60,60
Combo4 : 207,171,88

[HitObjects]
82,99,459,6,0,L|171:90,1,90
238,42,769,1,0,0:0:0:0:
238,42,872,2,0,P|254:83|247:127,1,90
189,190,1183,1,0,0:0:0:0:
189,190,1286,1,0,0:0:0:0:
304,225,1493,1,0,0:0:0:0:
420,258,1700,2,0,L|430:214,1,45
393,145,1907,2,0,L|403:101,1,45
490,305,2114,6,0,P|458:336|415:345,1,90
347,303,2424,1,0,0:0:0:0:
347,303,2527,2,0,L|218:315,1,90
200,366,2838,1,0,0:0:0:0:
200,366,2941,1,0,0:0:0:0:
186,227,3148,1,0,0:0:0:0:
77,304,3355,1,0,0:0:0:0:
77,304,3459,1,0,0:0:0:0:
77,304,3562,1,0,0:0:0:0:
175,138,3769,6,0,L|166:48,1,90
84,107,4079,1,0,0:0:0:0:
84,107,4183,2,0,P|32:89|-7:92,1,90
263,87,4493,1,0,0:0:0:0:
263,87,4597,1,0,0:0:0:0:
477,124,4803,1,0,0:0:0:0:
487,104,4907,1,0,0:0:0:0:
488,81,5010,1,0,0:0:0:0:
484,58,5114,1,0,0:0:0:0:
473,38,5217,1,0,0:0:0:0:
371,88,5424,6,0,L|378:164,1,76.5000014591217
215,348,5631,2,0,L|222:271,1,76.5000014591217
442,227,5838,1,0,0:0:0:0:
413,252,5941,1,0,0:0:0:0:
375,261,6045,1,0,0:0:0:0:
338,250,6148,1,0,0:0:0:0:
311,222,6252,1,0,0:0:0:0:
275,193,6355,1,0,0:0:0:0:
229,182,6459,1,0,0:0:0:0:
182,190,6562,1,0,0:0:0:0:
144,216,6665,1,0,0:0:0:0:
131,217,6769,1,0,0:0:0:0:
117,218,6872,1,0,0:0:0:0:
103,219,6976,1,0,0:0:0:0:
58,291,7079,6,0,L|60:138,1,153.000002918243
65,53,7390,1,0,0:0:0:0:
66,29,7493,1,0,0:0:0:0:
229,182,7700,1,0,0:0:0:0:
266,177,7803,1,0,0:0:0:0:
304,171,7907,1,0,0:0:0:0:
341,166,8010,1,0,0:0:0:0:
379,161,8114,2,0,L|370:83,1,76.5000014591217
276,261,8321,1,0,0:0:0:0:
280,282,8424,2,0,L|288:357,1,76.5000014591217
238,91,8631,5,0,0:0:0:0:
238,91,8734,2,0,P|139:140|131:249,1,229.500004377365
146,270,9148,1,0,0:0:0:0:
386,302,9355,6,0,L|470:290,1,76.5000014591217
479,200,9562,2,0,B|438:201|407:176|407:176|384:208|345:216,1,153.000002918243
113,62,9976,2,0,B|137:29|137:29|138:141,1,153.000002918243
198,216,10286,1,0,0:0:0:0:
184,232,10390,6,0,L|100:238,1,76.5000014591217
32,288,10596,1,0,0:0:0:0:
15,253,10700,1,0,0:0:0:0:
22,215,10803,1,0,0:0:0:0:
193,344,11010,1,0,0:0:0:0:
279,173,11217,2,0,L|264:20,1,153.000002918243
512,116,11631,2,0,P|475:106|445:82,1,76.5000014591217
444,259,11838,2,0,P|470:231|505:217,1,76.5000014591217
353,128,12045,2,0,P|363:164|357:202,1,76.5000014591217
331,327,12252,5,0,0:0:0:0:
322,302,12355,1,0,0:0:0:0:
351,309,12459,1,0,0:0:0:0:
337,312,12665,5,0,0:0:0:0:
305,290,12769,1,0,0:0:0:0:
267,284,12872,1,0,0:0:0:0:
229,291,12976,1,0,0:0:0:0:
229,291,13183,5,0,0:0:0:0:
185,247,13286,1,0,0:0:0:0:
177,185,13390,1,0,0:0:0:0:
200,128,13493,1,0,0:0:0:0:
190,67,13596,1,0,0:0:0:0:
179,47,13715,5,0,0:0:0:0:
273,209,13921,2,0,L|334:193,1,62.9999980773926
385,122,14128,1,0,0:0:0:0:
499,274,14335,1,0,0:0:0:0:
483,289,14438,2,0,L|395:276,1,62.9999980773926
337,312,14645,1,0,0:0:0:0:
337,312,14748,1,0,0:0:0:0:
470,161,14956,2,0,P|475:99|439:49,1,125.999996154785
348,17,15266,5,0,0:0:0:0:
330,31,15370,2,0,B|267:43|279:1|207:13,1,125.999996154785
232,95,15680,1,0,0:0:0:0:
232,95,15783,1,0,0:0:0:0:
68,17,15990,2,0,L|72:79,1,62.9999980773926
138,196,16197,1,0,0:0:0:0:
142,171,16301,1,0,0:0:0:0:
144,146,16404,1,0,0:0:0:0:
176,359,16611,2,0,B|111:343|43:338|43:338|31:310|50:287,1,188.999994232178
52,265,17025,6,0,P|83:266|114:271,1,62.9999980773926
258,344,17232,2,0,P|226:345|195:350,1,62.9999980773926
307,252,17439,1,0,0:0:0:0:
451,355,17646,1,0,0:0:0:0:
456,330,17749,1,0,0:0:0:0:
437,295,17852,1,0,0:0:0:0:
442,270,17955,1,0,0:0:0:0:
478,250,18059,1,0,0:0:0:0:
361,111,18266,2,0,B|295:119|295:119|242:148|242:148|181:157,1,188.999994232178
162,172,18680,6,0,P|152:140|155:109,1,62.9999980773926
326,206,18887,2,0,P|328:237|319:267,1,62.9999980773926
338,20,19094,2,0,P|399:26|443:69,1,125.999996154785
512,118,19404,1,0,0:0:0:0:
499,139,19508,1,0,0:0:0:0:
478,153,19611,1,0,0:0:0:0:
452,156,19715,1,0,0:0:0:0:
319,267,19921,1,0,0:0:0:0:
377,310,20025,2,0,L|252:294,1,125.999996154785
159,337,20335,6,0,P|142:280|140:212,1,125.999996154785
169,138,20646,1,0,0:0:0:0:
178,124,20749,1,0,0:0:0:0:
26,211,20956,2,0,P|4:177|0:152,1,62.9999980773926
64,23,21163,2,0,P|81:79|82:147,1,125.999996154785
258,147,21577,2,0,P|256:85|209:46,1,125.999996154785
352,112,21887,5,0,0:0:0:0:
352,112,21990,2,0,B|436:110|436:110|475:89,1,125.999996154785
413,33,22301,1,0,0:0:0:0:
413,33,22405,1,0,0:0:0:0:
491,249,22611,2,0,B|504:220|504:220|502:188,1,62.9999980773926
411,200,22818,2,0,B|327:202|327:202|287:222,1,125.999996154785
98,341,23232,2,0,B|174:348|140:298|214:307,1,125.999996154785
334,323,23542,5,0,0:0:0:0:
334,323,23646,2,0,L|388:357,1,62.9999980773926
289,221,23852,2,0,L|291:157,1,62.9999980773926
213,307,24059,1,0,0:0:0:0:
41,132,24266,1,0,0:0:0:0:
176,19,24473,2,0,L|164:144,1,125.999996154785
37,219,24887,2,0,L|30:156,1,62.9999980773926
204,57,25094,2,0,L|198:120,1,62.9999980773926
306,240,25301,5,0,0:0:0:0:
317,247,25404,1,0,0:0:0:0:
328,255,25508,1,0,0:0:0:0:
488,49,25715,2,0,L|426:61,1,62.9999980773926
512,135,25921,2,0,L|450:147,1,62.9999980773926
356,129,26128,1,0,0:0:0:0:
436,314,26335,1,0,0:0:0:0:
213,298,26542,2,0,L|151:309,1,62.9999980773926
48,354,26749,5,0,0:0:0:0:
52,329,26852,1,0,0:0:0:0:
56,304,26956,2,0,L|47:241,1,62.9999980773926
83,173,27163,2,0,L|74:110,1,62.9999980773926
112,40,27370,1,0,0:0:0:0:
256,139,27577,1,0,0:0:0:0:
400,40,27783,1,0,0:0:0:0:
254,8,27990,1,0,0:0:0:0:
241,159,28197,2,0,L|251:295,1,125.999996154785
402,208,28611,6,0,L|340:215,1,62.9999980773926
176,313,28818,2,0,L|238:306,1,62.9999980773926
411,300,29025,2,0,P|485:250|479:160,1,188.999994232178
484,135,29439,2,0,B|382:147|416:76|307:89,1,188.999994232178
239,40,29852,1,0,0:0:0:0:
224,60,29956,1,0,0:0:0:0:
219,84,30059,1,0,0:0:0:0:
47,185,30266,6,0,L|33:57,1,125.999996154785
48,41,30577,1,0,0:0:0:0:
47,41,30680,1,0,0:0:0:0:
144,174,30887,1,0,0:0:0:0:
79,304,31094,2,0,B|122:274|122:274|162:288|162:288|197:264|197:264|246:280,1,188.999994232178
266,289,31508,1,0,0:0:0:0:
454,347,31818,6,0,L|460:187,1,157.499995193482
467,91,32197,2,0,P|399:107|361:206,1,167.999994873047
347,205,32542,2,0,L|284:197,1,62.9999980773926
140,168,32749,1,0,0:0:0:0:
161,162,32852,1,0,0:0:0:0:
182,155,32956,1,0,0:0:0:0:
200,149,33059,1,0,0:0:0:0:
158,103,33163,1,0,0:0:0:0:
98,115,33266,1,0,0:0:0:0:
72,170,33370,1,0,0:0:0:0:
98,224,33473,1,0,0:0:0:0:
111,242,33577,6,0,L|90:399,1,125.999996154785
7,291,33887,1,0,0:0:0:0:
23,295,33990,1,0,0:0:0:0:
252,309,34197,2,0,L|192:328,1,62.9999980773926
328,256,34404,2,0,L|388:275,1,62.9999980773926
243,212,34611,1,0,0:0:0:0:
419,189,34818,2,0,P|467:229|477:290,1,125.999996154785
468,320,35128,1,0,0:0:0:0:
468,320,35232,6,0,P|466:346|469:383,2,62.9999980773926
384,193,35646,2,0,L|389:63,1,125.999996154785
448,6,35956,1,0,0:0:0:0:
463,24,36059,1,0,0:0:0:0:
302,124,36266,2,0,L|235:121,1,62.9999980773926
143,159,36473,1,0,0:0:0:0:
388,67,36680,1,0,0:0:0:0:
192,0,36887,5,0,0:0:0:0:
200,23,36990,1,0,0:0:0:0:
208,46,37094,1,0,0:0:0:0:
143,254,37301,1,0,0:0:0:0:
65,70,37508,2,0,L|52:131,1,62.9999980773926
152,176,37715,2,0,L|139:237,1,62.9999980773926
67,299,37921,1,0,0:0:0:0:
243,231,38128,6,0,P|308:276|319:323,1,125.999996154785
315,345,38439,1,0,0:0:0:0:
315,345,38542,1,0,0:0:0:0:
349,330,38646,1,0,0:0:0:0:
386,336,38749,1,0,0:0:0:0:
510,169,38956,1,0,0:0:0:0:
464,263,39163,2,0,P|437:245|417:221,1,62.9999980773926
348,133,39370,1,0,0:0:0:0:
326,94,39473,1,0,0:0:0:0:
326,56,39577,1,0,0:0:0:0:
342,29,39680,1,0,0:0:0:0:
363,16,39783,1,0,0:0:0:0:
233,140,39990,5,0,0:0:0:0:
220,138,40094,1,0,0:0:0:0:
207,137,40197,1,0,0:0:0:0:
209,223,41025,5,0,0:0:0:0:
209,223,41232,2,0,L|201:290,2,67.5000025749208
118,345,41852,6,0,P|65:304|57:239,1,135.000005149842
64,224,42680,2,0,B|81:154|81:154|26:102|36:33,1,202.500007724762
176,12,43508,6,0,P|116:38|204:59,1,202.500007724762
286,23,44335,2,0,B|406:1|351:86|474:64,1,202.500007724762
345,263,45163,6,0,B|320:115|320:115|356:159,1,202.500007724762
256,192,45990,12,0,46818,0:0:0:0:
256,192,47128,5,0,0:0:0:0:
175,241,47335,1,0,0:0:0:0:
155,234,47439,1,0,0:0:0:0:
332,224,47646,1,0,0:0:0:0:
337,217,47749,1,0,0:0:0:0:
340,208,47852,1,0,0:0:0:0:
342,199,47956,1,0,0:0:0:0:
342,190,48059,1,0,0:0:0:0:
339,172,48163,1,0,0:0:0:0:
334,154,48267,1,0,0:0:0:0:
333,136,48370,1,0,0:0:0:0:
336,118,48473,5,0,0:0:0:0:
511,242,48783,1,0,0:0:0:0:
448,134,48990,1,0,0:0:0:0:
428,140,49094,1,0,0:0:0:0:
272,59,49301,1,0,0:0:0:0:
254,62,49404,1,0,0:0:0:0:
236,66,49508,1,0,0:0:0:0:
218,70,49611,1,0,0:0:0:0:
198,89,49715,1,0,0:0:0:0:
176,85,49818,1,0,0:0:0:0:
154,80,49922,1,0,0:0:0:0:
133,75,50025,1,0,0:0:0:0:
107,84,50128,5,0,0:0:0:0:
143,275,50439,1,0,0:0:0:0:
37,194,50646,1,0,0:0:0:0:
59,190,50749,1,0,0:0:0:0:
184,356,50956,2,0,P|230:283|195:204,1,180
263,290,51577,1,0,0:0:0:0:
387,243,51783,5,0,0:0:0:0:
461,277,51921,5,0,0:0:0:0:
390,328,52059,5,0,0:0:0:0:
458,195,52197,5,0,0:0:0:0:
465,376,52335,5,0,0:0:0:0:
291,225,52611,5,0,0:0:0:0:
296,198,52715,1,0,0:0:0:0:
310,175,52818,1,0,0:0:0:0:
334,161,52921,1,0,0:0:0:0:
334,161,53128,5,0,0:0:0:0:
290,148,53232,1,0,0:0:0:0:
247,134,53335,1,0,0:0:0:0:
204,119,53439,6,0,L|184:-10,1,125.999996154785
115,76,53749,2,0,B|53:62|53:62|0:93,1,125.999996154785
71,155,54059,1,0,0:0:0:0:
75,175,54163,1,0,0:0:0:0:
46,343,54370,1,0,0:0:0:0:
64,329,54473,2,0,L|132:328,1,62.9999980773926
164,240,54680,2,0,P|213:276|225:337,1,125.999996154785
323,355,54990,5,0,0:0:0:0:
323,355,55094,2,0,L|325:292,1,62.9999980773926
474,104,55404,2,0,L|476:166,1,62.9999980773926
329,206,55715,1,0,0:0:0:0:
365,219,55818,1,0,0:0:0:0:
401,232,55922,1,0,0:0:0:0:
437,244,56025,1,0,0:0:0:0:
473,256,56128,1,0,0:0:0:0:
313,90,56335,2,0,B|190:118,1,125.999996154785
166,372,56749,6,0,P|172:306|148:247,1,125.999996154785
107,176,57059,2,0,P|160:214|223:223,1,125.999996154785
447,106,57370,6,0,P|387:133|347:183,1,125.999996154785
307,255,57680,2,0,P|313:189|289:130,1,125.999996154785
89,0,57990,6,0,P|142:38|205:47,1,125.999996154785
325,96,58381,6,0,P|282:111|249:140,1,90
162,174,58691,2,0,P|187:210|224:235,1,90
323,233,59001,2,0,P|308:275|279:309,1,90
198,362,59312,2,0,L|53:343,2,135
49,193,60894,5,0,0:0:0:0:
49,193,60998,1,0,0:0:0:0:
145,81,61173,1,0,0:0:0:0:
145,81,61276,1,0,0:0:0:0:
223,202,61461,1,0,0:0:0:0:
242,208,61564,1,0,0:0:0:0:
259,286,61715,6,0,L|290:130,1,153.000002918243
318,49,62025,1,0,0:0:0:0:
318,49,62128,2,0,P|353:68|374:100,1,76.5000014591217
456,221,62335,1,0,0:0:0:0:
456,221,62438,2,0,P|478:190|512:173,1,76.5000014591217
340,305,62646,1,0,0:0:0:0:
335,320,62749,1,0,0:0:0:0:
167,356,62956,1,0,0:0:0:0:
161,318,63059,1,0,0:0:0:0:
154,280,63163,1,0,0:0:0:0:
147,242,63266,1,0,0:0:0:0:
139,204,63370,5,0,0:0:0:0:
127,220,63473,1,0,0:0:0:0:
340,305,63680,1,0,0:0:0:0:
360,307,63783,1,0,0:0:0:0:
327,81,63990,1,0,0:0:0:0:
319,62,64093,1,0,0:0:0:0:
256,192,64301,1,0,0:0:0:0:
256,192,64404,1,0,0:0:0:0:
52,28,64611,2,0,L|33:186,1,153.000002918243
267,286,65025,6,0,B|352:277|307:229|399:219,1,153.000002918243
452,163,65335,1,0,0:0:0:0:
474,160,65439,1,0,0:0:0:0:
273,50,65646,1,0,0:0:0:0:
281,87,65749,1,0,0:0:0:0:
318,80,65852,1,0,0:0:0:0:
310,43,65955,1,0,0:0:0:0:
295,66,66059,1,0,0:0:0:0:
240,352,66266,2,0,B|210:303|239:249|239:249|266:285,1,153.000002918243
341,336,66577,5,0,0:0:0:0:
341,336,66680,1,0,0:0:0:0:
378,327,66783,1,0,0:0:0:0:
415,317,66887,1,0,0:0:0:0:
452,308,66990,1,0,0:0:0:0:
489,300,67094,1,0,0:0:0:0:
391,109,67301,2,0,L|380:184,1,76.5000014591217
447,44,67508,1,0,0:0:0:0:
416,21,67611,1,0,0:0:0:0:
377,25,67715,1,0,0:0:0:0:
266,129,67921,2,0,P|199:157|146:107,1,153.000002918243
41,12,68232,5,0,0:0:0:0:
52,31,68335,2,0,P|57:111|50:183,1,153.000002918243
30,284,68646,1,0,0:0:0:0:
30,284,68749,1,0,0:0:0:0:
146,107,68956,1,0,0:0:0:0:
250,308,69163,2,0,L|262:155,1,153.000002918243
268,71,69473,2,0,P|336:98|355:170,1,153.000002918243
424,231,69783,1,0,0:0:0:0:
504,60,69990,6,0,B|452:60|452:60|401:74|401:74|352:74,1,153.000002918243
268,71,70301,1,0,0:0:0:0:
268,71,70404,1,0,0:0:0:0:
15,46,70611,2,0,B|51:12|51:12|43:115,1,153.000002918243
90,187,70921,1,0,0:0:0:0:
90,187,71025,1,0,0:0:0:0:
299,331,71232,2,0,L|228:359,1,76.5000014591217
410,191,71439,2,0,L|420:115,1,76.5000014591217
423,319,71646,5,0,0:0:0:0:
393,295,71749,1,0,0:0:0:0:
362,271,71852,1,0,0:0:0:0:
332,246,71956,1,0,0:0:0:0:
139,95,72163,1,0,0:0:0:0:
139,95,72266,2,0,L|200:144,1,76.5000014591217
282,12,72473,2,0,P|257:40|221:53,1,76.5000014591217
97,258,72680,2,0,P|94:220|110:185,1,76.5000014591217
72,33,72887,1,0,0:0:0:0:
271,207,73094,2,0,L|299:232,2,38.2500007295609
295,100,73301,5,0,0:0:0:0:
305,117,73715,2,0,B|390:132|365:83|452:94,1,153.000002918243
448,345,74128,1,0,0:0:0:0:
427,184,74335,2,0,L|436:259,1,76.5000014591217
351,371,74542,1,0,0:0:0:0:
314,360,74646,1,0,0:0:0:0:
285,334,74749,1,0,0:0:0:0:
243,300,74852,1,0,0:0:0:0:
189,305,74956,6,0,P|157:326|138:359,1,76.5000014591217
265,224,75163,1,0,0:0:0:0:
248,184,75266,1,0,0:0:0:0:
231,148,75370,2,0,L|229:70,1,76.5000014591217
146,196,75577,1,0,0:0:0:0:
146,196,75680,2,0,P|106:177|71:178,1,76.5000014591217
341,131,75887,1,0,0:0:0:0:
341,131,75990,2,0,P|380:149|415:148,1,76.5000014591217
242,0,76197,1,0,0:0:0:0:
203,0,76301,1,0,0:0:0:0:
171,20,76404,1,0,0:0:0:0:
155,54,76508,1,0,0:0:0:0:
158,91,76611,5,0,0:0:0:0:
151,109,76715,2,0,P|78:86|1:83,1,153.000002918243
55,254,77025,2,0,L|63:178,1,76.5000014591217
171,233,77232,2,0,L|162:308,1,76.5000014591217
93,356,77439,1,0,0:0:0:0:
78,359,77542,1,0,0:0:0:0:
250,174,77749,1,0,0:0:0:0:
265,177,77852,1,0,0:0:0:0:
479,343,78059,2,0,L|404:354,1,76.5000014591217
393,192,78266,6,0,B|411:152|411:152|421:260,1,153.000002918243
330,40,78680,2,0,P|396:6|466:31,1,153.000002918243
313,55,78990,2,0,B|186:77|218:-5|94:18,1,229.500004377365
137,101,79404,1,0,0:0:0:0:
137,101,79508,2,0,L|118:177,1,76.5000014591217
41,239,79715,1,0,0:0:0:0:
61,271,79818,1,0,0:0:0:0:
68,308,79921,1,0,0:0:0:0:
335,339,80128,5,0,0:0:0:0:
299,349,80231,1,0,0:0:0:0:
262,358,80335,1,0,0:0:0:0:
274,305,80439,1,0,0:0:0:0:
287,253,80542,1,0,0:0:0:0:
358,25,80749,2,0,L|371:100,1,76.5000014591217
264,75,80956,2,0,L|277:150,1,76.5000014591217
441,185,81163,1,0,0:0:0:0:
458,170,81266,1,0,0:0:0:0:
468,149,81370,1,0,0:0:0:0:
178,38,81577,6,0,B|67:31|67:31|97:59,1,153.000002918243
134,173,81887,1,0,0:0:0:0:
139,149,81990,1,0,0:0:0:0:
162,260,82197,6,0,B|124:263|124:263|86:248,1,76.5000014591217
227,367,82404,2,0,P|240:293|301:249,1,153.000002918243
393,272,82715,2,0,P|463:282|457:351,1,153.000002918243
360,354,83025,1,0,0:0:0:0:
376,164,83232,6,0,L|355:12,1,153.000002918243
452,79,83542,1,0,0:0:0:0:
472,78,83646,1,0,0:0:0:0:
284,131,83852,6,0,L|206:107,1,76.5000014591217
40,81,84059,2,0,L|118:57,1,76.5000014591217
253,18,84266,1,0,0:0:0:0:
116,167,84473,1,0,0:0:0:0:
123,188,84577,1,0,0:0:0:0:
133,208,84680,1,0,0:0:0:0:
145,227,84783,1,0,0:0:0:0:
157,246,84887,6,0,L|145:348,1,76.5000014591217
325,340,85094,1,0,0:0:0:0:
328,302,85197,1,0,0:0:0:0:
332,263,85301,1,0,0:0:0:0:
327,249,85508,6,0,L|406:232,1,76.5000014591217
376,55,85715,1,0,0:0:0:0:
346,88,85818,1,0,0:0:0:0:
347,134,85921,1,0,0:0:0:0:
362,132,86025,1,0,0:0:0:0:
377,130,86128,1,0,0:0:0:0:
206,92,86335,2,0,L|168:83,2,38.2500007295609
90,58,86542,5,0,0:0:0:0:
257,369,86956,6,0,B|286:280|207:296|207:220|207:220|209:157|277:147|321:171|321:251|278:269,1,384.7499821558,0|0,0:0|0:3,0:0:0:0:
