osu file format v14

[General]
AudioFilename: audio.mp3
AudioLeadIn: 0
PreviewTime: 60391
Countdown: 0
SampleSet: Soft
StackLeniency: 0.7
Mode: 0
LetterboxInBreaks: 0
WidescreenStoryboard: 1

[Editor]
DistanceSpacing: 0.9
BeatDivisor: 4
GridSize: 16
TimelineZoom: 2.1

[Metadata]
Title:Kono Yubi Tomare (TV Size)
TitleUnicode:コノユビトマレ (TV Size)
Artist:JUNNA
ArtistUnicode:JUNNA
Creator:Enerugii
Version:Alex's Insane
Source:賭ケグルイ××
Tags:kakegurui season 2 opening
BeatmapID:1896795
BeatmapSetID:907890

[Difficulty]
HPDrainRate:4
CircleSize:4
OverallDifficulty:7.7
ApproachRate:8.7
SliderMultiplier:2
SliderTickRate:1

[Events]
//Background and Video events
0,0,"alex bg.jpg",0,0
//Break Periods
2,40444,46209
//Storyboard Layer 0 (Background)
//Storyboard Layer 1 (Fail)
//Storyboard Layer 2 (Pass)
//Storyboard Layer 3 (Foreground)
//Storyboard Sound Samples

[TimingPoints]
520,413.793103448276,4,2,11,45,1,0
5278,-76.9230769230769,4,2,0,55,0,0
13761,-100,4,2,0,55,0,0
27002,-90.9090909090909,4,2,0,55,0,0
43560,461.538461538462,4,2,2,50,1,0
44483,419.58041958042,4,2,2,50,1,0
45312,410.958904109589,4,2,2,50,1,0
46133,363.636363636364,4,2,2,50,1,0
46854,413.793103448276,4,2,1,45,1,0
51819,480,4,2,1,45,1,0
51819,-71.4285714285714,4,2,0,40,0,0
52107,387.096774193548,4,2,1,60,1,0
52687,441.176470588235,4,2,1,45,1,0
52907,413.793103448276,4,2,1,45,1,0
52954,392.156862745098,4,2,1,60,1,0
53477,413.793103448276,4,2,1,60,1,0
53477,-71.4285714285714,4,2,1,60,0,0
60004,413.793103448276,4,2,1,70,1,0
60935,372.670807453416,4,2,1,70,1,0
61307,394.736842105263,4,2,1,70,1,0
61701,458.015267175573,4,2,1,80,1,1
61701,-71.4285714285714,4,2,0,80,0,1
62159,413.793103448276,4,2,1,80,1,1
62159,-71.4285714285714,4,2,0,80,0,1
63400,413.793103448276,4,2,1,80,1,1
63400,-71.4285714285714,4,2,0,80,0,1
74802,413.793103448276,4,2,1,80,1,1
74802,-71.4285714285714,4,2,0,80,0,1
87008,-200,4,2,0,80,0,0

[Colours]
Combo1 : 29,39,120
Combo2 : 252,215,74
Combo3 : 188,20,51

[HitObjects]
61,98,520,6,0,P|86:153|66:200,1,100
35,267,830,1,0,0:0:0:0:
35,267,933,2,0,L|141:257,1,100
224,277,1244,2,0,L|350:247,1,100
396,305,1554,2,0,L|391:379,1,50
484,289,1761,2,0,L|487:239,1,50
412,105,2071,1,0,0:0:0:0:
412,105,2175,6,0,B|357:91|362:126|282:96,1,100
233,157,2485,1,0,0:0:0:0:
233,157,2589,2,0,B|178:143|183:178|103:148,1,100
50,220,2899,2,0,P|75:259|98:329,1,100
156,362,3209,2,0,L|210:347,1,50
72,317,3416,2,0,L|23:330,1,50
208,235,3726,1,0,0:0:0:0:
208,235,3830,1,0,0:0:0:0:
256,192,3933,12,0,5278,0:0:0:0:
66,61,5485,6,0,P|90:102|96:145,1,64.9999970245363
198,132,5692,2,0,P|174:173|169:216,1,64.9999970245363
328,193,5899,2,0,L|231:192,1,64.9999970245363
198,310,6106,2,0,L|268:309,1,64.9999970245363
151,200,6313,5,0,0:0:0:0:
113,200,6416,1,0,0:0:0:0:
76,201,6519,1,0,0:0:0:0:
38,202,6623,1,0,0:0:0:0:
19,246,6726,5,0,0:0:0:0:
20,264,6829,1,0,0:0:0:0:
20,282,6932,1,0,0:0:0:0:
21,302,7036,1,0,0:0:0:0:
25,323,7140,6,0,P|47:271|123:258,1,129.999994049073
204,285,7451,1,0,0:0:0:0:
204,285,7554,2,0,P|247:280|276:264,1,64.9999970245363
242,144,7761,2,0,L|268:280,1,129.999994049073
316,82,8175,1,0,0:0:0:0:
167,88,8382,2,0,B|97:71|104:116|25:99,1,129.999994049073
0,197,8692,1,0,0:0:0:0:
34,210,8795,6,0,P|70:277|46:346,1,129.999994049073
157,322,9106,1,0,0:0:0:0:
157,322,9209,2,0,L|236:318,1,64.9999970245363
306,374,9416,1,0,0:0:0:0:
339,365,9520,1,0,0:0:0:0:
386,384,9623,2,0,L|379:237,1,129.999994049073
287,122,10037,2,0,L|293:251,1,129.999994049073
394,48,10451,5,0,0:0:0:0:
394,48,10554,2,0,P|434:30|479:31,1,64.9999970245363
512,109,10761,1,0,0:0:0:0:
490,139,10864,2,0,L|319:148,1,129.999994049073
285,218,11175,1,0,0:0:0:0:
285,218,11278,2,0,L|306:309,1,64.9999970245363
194,240,11485,2,0,L|173:148,1,64.9999970245363
162,75,11692,1,0,0:0:0:0:
183,59,11795,2,0,P|218:49|260:52,2,64.9999970245363
97,189,12106,6,0,L|147:367,1,129.999994049073
183,200,12520,2,0,P|220:181|273:181,1,64.9999970245363
367,198,12726,1,0,0:0:0:0:
401,215,12830,1,0,0:0:0:0:
437,216,12933,5,0,0:0:0:0:
473,173,13037,1,0,0:0:0:0:
481,121,13140,1,0,0:0:0:0:
452,76,13244,1,0,0:0:0:0:
404,49,13347,2,0,P|378:69|323:94,1,64.9999970245363
248,90,13554,1,0,0:0:0:0:
206,77,13657,1,0,0:0:0:0:
177,106,13761,6,0,L|205:245,1,100
242,274,14071,1,0,0:0:0:0:
262,286,14175,2,0,P|295:254|364:240,1,100
423,362,14588,2,0,P|375:348|339:314,1,100
411,160,15002,2,0,L|435:285,1,100
262,286,15416,6,0,L|153:286,1,100
82,320,15726,1,0,0:0:0:0:
85,348,15830,1,0,0:0:0:0:
13,244,16037,1,0,0:0:0:0:
160,202,16244,2,0,L|292:205,1,100
338,355,16657,1,0,0:0:0:0:
262,286,16864,1,0,0:0:0:0:
342,149,17071,6,0,L|344:286,1,100
431,289,17382,1,0,0:0:0:0:
431,289,17485,2,0,P|483:258|534:266,1,100
343,248,17899,2,0,P|291:217|240:225,1,100
177,345,18313,2,0,L|179:213,1,100
110,127,18726,6,0,L|121:72,1,50
211,42,18933,2,0,L|201:91,1,50
260,171,19140,2,0,P|302:143|371:147,1,100
478,209,19554,1,0,0:0:0:0:
478,209,19657,1,0,0:0:0:0:
478,209,19761,1,0,0:0:0:0:
447,36,19968,2,0,L|427:159,1,100
366,272,20382,6,0,B|316:257|323:296|240:275,1,100
185,238,20692,1,0,0:0:0:0:
185,238,20795,2,0,L|192:133,1,100
32,89,21209,2,0,L|27:152,1,50
110,158,21416,2,0,L|113:108,1,50
19,219,21623,2,0,L|12:318,1,100
74,381,21933,1,0,0:0:0:0:
74,381,22037,6,0,P|108:353|189:343,1,100
335,322,22451,2,0,P|286:311|247:280,1,100
197,212,22761,1,0,0:0:0:0:
197,212,22864,2,0,P|166:210|134:215,1,50
207,124,23071,2,0,P|238:122|270:127,1,50
327,224,23278,2,0,P|285:242|236:301,1,100
468,216,23692,6,0,L|473:80,1,100
327,224,24106,2,0,L|323:323,1,100
242,194,24520,2,0,P|194:180|146:199,1,100
150,353,24933,2,0,P|198:367|246:348,1,100
109,276,25347,6,0,L|-3:275,1,100
9,97,25761,2,0,L|109:98,1,100
263,178,26175,2,0,P|308:198|372:187,1,100
441,161,26485,1,0,0:0:0:0:
441,161,26588,2,0,L|431:243,1,50
374,294,26795,1,0,0:0:0:0:
344,297,26899,1,0,0:0:0:0:
315,308,27002,6,0,P|258:294|160:297,1,110.000003356934
37,249,27416,2,0,P|94:235|192:238,1,110.000003356934
276,168,27830,2,0,L|264:105,1,55.0000016784668
160,157,28037,2,0,L|170:211,1,55.0000016784668
298,247,28244,2,0,P|343:217|360:150,1,110.000003356934
245,6,28657,5,0,0:0:0:0:
276,168,28864,1,0,0:0:0:0:
380,34,29071,2,0,P|424:23|494:21,1,110.000003356934
235,92,29485,2,0,P|191:81|121:79,1,110.000003356934
37,244,29899,1,0,0:0:0:0:
37,146,30106,1,0,0:0:0:0:
37,146,30209,1,0,0:0:0:0:
37,146,30313,6,0,P|83:157|110:177,1,55.0000016784668
163,211,30520,2,0,P|209:200|236:180,1,55.0000016784668
243,49,30726,1,0,0:0:0:0:
237,213,30933,1,0,0:0:0:0:
360,114,31140,2,0,P|387:101|478:115,1,110.000003356934
419,285,31554,2,0,L|417:152,1,110.000003356934
337,126,31864,1,0,0:0:0:0:
322,118,31968,6,0,P|295:105|204:119,1,110.000003356934
153,244,32382,1,0,0:0:0:0:
262,193,32588,1,0,0:0:0:0:
106,162,32795,1,0,0:0:0:0:
73,182,32899,1,0,0:0:0:0:
53,214,33002,1,0,0:0:0:0:
49,252,33106,1,0,0:0:0:0:
63,288,33209,2,0,P|79:322|88:358,1,55.0000016784668
199,313,33416,2,0,P|232:297|268:288,1,55.0000016784668
416,263,33623,6,0,P|356:255|304:219,1,110.000003356934
253,111,34037,1,0,0:0:0:0:
171,210,34244,1,0,0:0:0:0:
148,199,34347,1,0,0:0:0:0:
122,188,34451,2,0,P|58:170|7:178,1,110.000003356934
189,96,34864,1,0,0:0:0:0:
198,255,35071,1,0,0:0:0:0:
214,242,35175,1,0,0:0:0:0:
238,229,35278,6,0,L|224:384,1,110.000003356934
122,188,35692,1,0,0:0:0:0:
289,156,35899,1,0,0:0:0:0:
312,167,36002,1,0,0:0:0:0:
338,178,36106,2,0,P|402:196|453:188,1,110.000003356934
305,78,36520,1,0,0:0:0:0:
238,229,36726,1,0,0:0:0:0:
206,250,36830,1,0,0:0:0:0:
173,265,36933,6,0,L|16:254,1,110.000003356934
0,108,37347,2,0,L|109:115,1,110.000003356934
215,41,37761,1,0,0:0:0:0:
214,67,37864,1,0,0:0:0:0:
214,93,37968,1,0,0:0:0:0:
414,78,38175,2,0,L|298:74,1,110.000003356934
242,158,38485,1,0,0:0:0:0:
259,192,38588,6,0,P|299:243|293:309,1,110.000003356934
110,276,39002,2,0,L|236:263,1,110.000003356934
393,368,39416,1,0,0:0:0:0:
412,349,39520,1,0,0:0:0:0:
436,323,39623,5,0,0:0:0:0:
459,285,39726,1,0,0:0:0:0:
474,242,39830,2,0,L|466:156,1,55.0000016784668
381,62,40037,1,0,0:0:0:0:
362,102,40140,1,0,0:0:0:0:
344,142,40244,1,0,0:0:0:0:
376,104,46854,6,0,P|320:153|301:232,1,150
213,318,47371,1,0,0:0:0:0:
199,309,47474,1,0,0:0:0:0:
187,299,47578,1,0,0:0:0:0:
172,288,47681,2,0,P|198:243|193:186,1,100
61,167,48095,1,0,0:0:0:0:
70,181,48198,1,0,0:0:0:0:
80,193,48302,1,0,0:0:0:0:
91,208,48405,1,0,0:0:0:0:
104,220,48509,6,0,P|149:194|206:199,1,100
272,165,48819,2,0,P|317:191|374:186,1,100
479,164,49233,1,0,0:0:0:0:
479,164,49336,2,0,P|458:216|473:286,1,100
376,365,49750,2,0,L|322:358,1,50
284,280,49957,2,0,L|338:273,1,50
212,215,50164,6,0,L|90:208,1,100
249,118,50578,1,0,0:0:0:0:
291,230,50785,2,0,L|281:295,1,50
392,223,50991,2,0,L|411:99,1,100
305,30,51405,2,0,P|266:21|235:26,1,50
186,96,51612,2,0,P|225:105|256:100,1,50
119,43,51819,6,0,L|148:200,1,93.3333304850261
52,140,52107,2,0,L|31:257,1,66.6666666666667
118,247,52365,2,0,L|141:363,1,66.6666666666667
246,369,52687,5,0,0:0:0:0:
272,336,52760,1,0,0:0:0:0:
220,245,52907,1,0,0:0:0:0:
396,260,53150,1,0,0:0:0:0:
402,230,53248,1,0,0:0:0:0:
407,193,53346,1,0,0:0:0:0:
392,110,53477,6,0,B|292:43|286:134|185:64,1,209.999993591309
154,176,53890,2,0,L|186:318,1,139.999995727539
260,364,54201,1,0,0:0:0:0:
96,317,54408,2,0,L|66:179,1,139.999995727539
135,46,54718,2,0,P|161:34|219:36,1,69.9999978637696
258,117,54925,2,0,P|232:129|174:127,1,69.9999978637696
321,41,55132,6,0,L|488:41,1,139.999995727539
512,136,55442,2,0,P|475:202|480:312,1,139.999995727539
365,281,55752,2,0,B|295:254|301:306|205:277,1,139.999995727539
46,229,56166,2,0,P|106:201|183:236,1,139.999995727539
267,365,56580,1,0,0:0:0:0:
320,141,56787,6,0,L|292:293,1,139.999995727539
249,114,57097,2,0,P|303:68|371:86,1,139.999995727539
231,199,57408,2,0,L|79:171,1,139.999995727539
198,315,57718,2,0,P|244:261|226:193,1,139.999995727539
144,381,58028,2,0,P|204:357|317:353,1,139.999995727539
439,224,58442,6,0,L|481:74,1,139.999995727539
382,140,58752,2,0,P|355:162|215:170,1,139.999995727539
107,49,59063,2,0,L|65:199,1,139.999995727539
164,133,59373,2,0,P|191:111|331:103,1,139.999995727539
130,250,59683,2,0,P|103:228|-37:220,1,139.999995727539
25,334,60004,1,0,0:0:0:0:
306,135,60935,5,0,0:0:0:0:
289,113,61028,1,0,0:0:0:0:
199,209,61214,5,0,0:0:0:0:
216,187,61307,1,0,0:0:0:0:
348,68,61504,5,0,0:0:0:0:
326,51,61603,1,0,0:0:0:0:
294,33,61701,6,0,B|192:27|246:54|121:39,1,139.999995727539
56,154,62159,2,0,P|104:197|113:278,1,139.999995727539
133,352,62469,1,0,0:0:0:0:
133,352,62572,2,0,P|171:335|220:331,1,69.9999978637696
266,263,62779,2,0,P|228:246|179:242,1,69.9999978637696
300,369,62986,2,0,L|450:365,1,139.999995727539
380,164,63400,6,0,P|349:226|376:296,1,139.999995727539
450,123,63813,2,0,P|409:93|367:86,1,69.9999978637696
293,118,64020,2,0,P|260:105|234:82,1,69.9999978637696
153,121,64227,2,0,L|315:117,1,139.999995727539
264,201,64537,1,0,0:0:0:0:
264,201,64641,2,0,L|124:204,1,139.999995727539
309,326,65055,6,0,B|383:295|384:345|447:320,1,139.999995727539
417,241,65365,1,0,0:0:0:0:
417,241,65468,2,0,P|399:190|400:150,1,69.9999978637696
336,102,65675,2,0,P|387:84|427:85,1,69.9999978637696
313,191,65882,2,0,L|154:195,1,139.999995727539
16,55,66296,2,0,P|85:79|98:168,1,139.999995727539
56,204,66606,1,0,0:0:0:0:
71,221,66709,6,0,L|70:300,1,69.9999978637696
153,342,66917,2,0,L|153:272,1,69.9999978637696
236,168,67124,1,0,0:0:0:0:
179,360,67331,1,0,0:0:0:0:
152,184,67537,2,0,P|165:130|195:96,1,69.9999978637696
258,164,67744,2,0,P|312:151|346:121,1,69.9999978637696
411,74,67951,1,0,0:0:0:0:
413,117,68055,1,0,0:0:0:0:
414,153,68158,1,0,0:0:0:0:
416,175,68262,1,0,0:0:0:0:
417,205,68365,6,0,P|353:198|291:255,1,139.999995727539
241,304,68675,1,0,0:0:0:0:
241,304,68779,2,0,P|177:297|115:354,1,139.999995727539
18,211,69193,2,0,L|41:141,1,69.9999978637696
128,151,69400,2,0,L|105:81,1,69.9999978637696
111,238,69606,1,0,0:0:0:0:
212,102,69813,1,0,0:0:0:0:
290,275,70020,6,0,P|344:236|457:223,1,139.999995727539
336,157,70331,2,0,P|282:118|169:105,1,139.999995727539
155,225,70641,2,0,P|194:171|207:58,1,139.999995727539
40,160,71055,2,0,L|46:310,1,139.999995727539
104,365,71365,1,0,0:0:0:0:
104,365,71468,2,0,P|134:349|194:342,1,69.9999978637696
253,294,71675,5,0,0:0:0:0:
222,274,71779,1,0,0:0:0:0:
252,250,71882,1,0,0:0:0:0:
225,231,71986,1,0,0:0:0:0:
350,158,72193,5,0,0:0:0:0:
319,178,72297,1,0,0:0:0:0:
349,202,72400,1,0,0:0:0:0:
322,221,72504,1,0,0:0:0:0:
346,248,72606,1,0,0:0:0:0:
372,272,72710,2,0,P|412:255|466:260,1,69.9999978637696
313,341,72917,2,0,P|251:305|135:312,1,139.999995727539
99,326,73227,1,0,0:0:0:0:
76,308,73331,6,0,B|106:219|106:219|164:167|164:167|210:42,1,279.999991455078
247,219,73951,1,0,0:0:0:0:
335,76,74158,1,0,0:0:0:0:
399,176,74365,1,0,0:0:0:0:
413,202,74468,1,0,0:0:0:0:
429,224,74572,1,0,0:0:0:0:
447,245,74675,1,0,0:0:0:0:
465,264,74802,5,0,0:0:0:0:
438,301,74905,1,0,0:0:0:0:
409,327,75008,6,0,B|343:301|347:349|241:313,1,139.999995727539
117,238,75422,2,0,B|192:265|188:217|254:243,1,139.999995727539
328,177,75733,1,0,0:0:0:0:
328,177,75836,2,0,P|295:133|286:96,1,69.9999978637696
378,102,76043,2,0,P|422:69|459:60,1,69.9999978637696
284,28,76250,2,0,L|122:24,1,139.999995727539
67,196,76664,6,0,P|94:124|60:65,1,139.999995727539
157,223,77078,2,0,L|167:299,1,69.9999978637696
91,354,77285,2,0,L|81:284,1,69.9999978637696
179,206,77491,2,0,L|330:206,1,139.999995727539
393,153,77802,1,0,0:0:0:0:
393,153,77905,2,0,P|411:86|363:20,1,139.999995727539
319,206,78319,6,0,L|319:355,1,139.999995727539
411,232,78733,1,0,0:0:0:0:
251,179,78940,2,0,P|211:166|165:166,1,69.9999978637696
123,89,79147,2,0,P|163:76|209:76,1,69.9999978637696
293,80,79354,2,0,P|333:93|379:93,1,69.9999978637696
465,59,79560,2,0,L|446:207,1,139.999995727539
399,278,79870,1,0,0:0:0:0:
380,295,79974,6,0,P|325:262|242:275,1,139.999995727539
101,354,80387,1,0,0:0:0:0:
249,365,80594,1,0,0:0:0:0:
129,254,80801,2,0,P|111:212|105:169,1,69.9999978637696
211,131,81008,2,0,P|193:173|187:216,1,69.9999978637696
298,188,81215,1,0,0:0:0:0:
341,186,81319,1,0,0:0:0:0:
377,185,81422,1,0,0:0:0:0:
399,183,81526,1,0,0:0:0:0:
425,182,81629,6,0,L|426:15,1,139.999995727539
298,188,82043,2,0,L|297:327,1,139.999995727539
204,174,82457,2,0,P|130:130|65:135,1,139.999995727539
8,221,82767,1,0,0:0:0:0:
5,248,82870,2,0,P|79:204|144:209,1,139.999995727539
291,294,83284,6,0,P|336:311|392:314,1,69.9999978637696
416,217,83491,2,0,P|371:234|315:237,1,69.9999978637696
256,131,83697,1,0,0:0:0:0:
131,239,83905,2,0,L|290:212,1,139.999995727539
376,119,84318,1,0,0:0:0:0:
357,314,84525,1,0,0:0:0:0:
181,230,84732,1,0,0:0:0:0:
151,223,84835,1,0,0:0:0:0:
115,230,84939,6,0,L|85:154,1,69.9999978637696
178,23,85146,1,0,0:0:0:0:
169,50,85249,1,0,0:0:0:0:
162,78,85353,2,0,P|209:63|268:70,1,69.9999978637696
350,140,85560,5,0,0:0:0:0:
374,116,85664,1,0,0:0:0:0:
397,137,85767,1,0,0:0:0:0:
421,112,85871,1,0,0:0:0:0:
450,141,85974,2,0,L|419:299,1,139.999995727539
328,364,86388,5,0,0:0:0:0:
309,338,86491,1,0,0:0:0:0:
285,361,86595,2,0,L|204:356,1,69.9999978637696
95,234,86905,1,0,0:0:0:0:
114,252,87008,6,0,B|171:252|192:189|192:189|289:258|373:160,1,300
