osu file format v14

[General]
AudioFilename: audio.mp3
AudioLeadIn: 0
PreviewTime: 198981
Countdown: 0
SampleSet: Soft
StackLeniency: 0.2
Mode: 0
LetterboxInBreaks: 0
WidescreenStoryboard: 0

[Editor]
Bookmarks: 5610,13886,27127,40369,46989,53609,60644,61850,73254,74495,87116,94997,100790,100996,107410,114031,127272,132238,133893,140514,143824,147548,157893,160376,183548,191440,223469,230089,241675,253264,254917,256571,292986
DistanceSpacing: 6
BeatDivisor: 4
GridSize: 4
TimelineZoom: 2.799999

[Metadata]
Title:Kono Yubi Tomare
TitleUnicode:コノユビトマレ
Artist:JUNNA
ArtistUnicode:JUNNA
Creator:Melwoine
Version:Akuma
Source:賭ケグルイ××
Tags:Kakeguri ×× op 2 full version
BeatmapID:1972382
BeatmapSetID:944443

[Difficulty]
HPDrainRate:5
CircleSize:4
OverallDifficulty:8.7
ApproachRate:9.5
SliderMultiplier:2
SliderTickRate:1

[Events]
//Background and Video events
0,0,"914830.jpg",0,0
//Break Periods
2,88557,94457
2,147437,157368
//Storyboard Layer 0 (Background)
//Storyboard Layer 1 (Fail)
//Storyboard Layer 2 (Pass)
//Storyboard Layer 3 (Foreground)
//Storyboard Sound Samples

[TimingPoints]
645,413.793103448276,4,2,0,50,1,0
7265,-83.3333333333333,4,2,0,50,0,0
13886,-100,4,2,0,50,0,0
27541,-90.9090909090909,4,2,0,50,0,0
43679,461.538461538462,4,2,0,50,1,0
44602,419.58041958042,4,2,0,50,1,0
45441,410.958904109589,4,2,0,50,1,0
46262,363.636363636364,4,2,0,50,1,0
46989,413.793103448276,4,2,0,50,1,0
46989,-142.857142857143,4,2,0,50,0,0
52110,413.793103448276,4,2,0,50,1,0
52542,413.793103448276,4,2,0,50,1,0
52788,413.793103448276,4,2,0,50,1,0
53608,413.793103448276,4,2,0,50,1,0
54021,-83.3333333333333,4,2,0,50,0,0
54642,-100,4,2,0,50,0,0
55263,-71.4285714285714,4,2,0,50,0,0
55883,-142.857142857143,4,2,0,50,0,0
56918,-125,4,2,0,50,0,0
57539,-62.5,4,2,0,50,0,0
58159,-55.5555555555556,4,2,0,50,0,0
58573,-62.5,4,2,0,50,0,0
60642,-100,4,2,0,50,0,0
61084,372.670807453416,4,2,0,50,1,0
61456,394.736842105263,4,2,0,50,1,0
61850,500,4,2,0,50,1,0
61850,-58.8235294117647,4,2,0,50,0,1
62308,413.793103448276,4,2,0,50,1,1
62308,-62.5,4,2,0,50,0,1
62514,-58.8235294117647,4,2,0,50,0,1
62928,-76.9230769230769,4,2,0,50,0,1
63135,-62.5,4,2,0,50,0,1
63549,413.793103448276,4,2,0,50,1,1
63549,-58.8235294117647,4,2,0,50,0,1
63962,-83.3333333333333,4,2,0,50,0,1
64169,-62.5,4,2,0,50,0,1
64376,-83.3333333333333,4,2,0,50,0,1
64790,-71.4285714285714,4,2,0,50,0,1
65204,-55.5555555555556,4,2,0,50,0,1
66238,-111.111111111111,4,2,0,50,0,1
66445,-66.6666666666667,4,2,0,50,0,1
66859,-55.5555555555556,4,2,0,50,0,1
67273,-62.5,4,2,0,50,0,1
68514,-76.9230769230769,4,2,0,50,0,1
70790,-58.8235294117647,4,2,0,50,0,1
71411,-250,4,2,0,50,0,1
72031,-55.5555555555556,4,2,0,50,0,1
72220,413.793103448276,4,2,0,50,1,1
72426,-55.5555555555556,4,2,0,50,0,1
73461,-166.666666666667,4,2,0,50,0,0
73875,-55.5555555555556,4,2,0,50,0,0
75116,-55.5555555555556,4,2,0,50,0,1
76151,-76.9230769230769,4,2,0,50,0,1
76461,-66.6666666666667,4,2,0,50,0,1
76771,-55.5555555555556,4,2,0,50,0,1
77185,-62.5,4,2,0,50,0,1
78426,-55.5555555555556,4,2,0,50,0,1
80495,-76.9230769230769,4,2,0,50,0,1
80702,-66.6666666666667,4,2,0,50,0,1
80909,-58.8235294117647,4,2,0,50,0,1
81116,-90.9090909090909,4,2,0,50,0,1
81323,-58.8235294117647,4,2,0,50,0,1
81737,-76.9230769230769,4,2,0,50,0,1
82151,-66.6666666666667,4,2,0,50,0,1
82357,-55.5555555555556,4,2,0,50,0,1
82978,-50,4,2,0,50,0,1
83392,-62.5,4,2,0,50,0,1
84116,-55.5555555555556,4,2,0,50,0,1
85047,-50,4,2,0,50,0,1
86702,-125,4,2,0,50,0,1
87116,-500,4,2,0,50,0,0
94997,413.793103448276,7,2,0,50,1,0
94997,-90.9090909090909,7,2,0,50,0,0
96238,-111.111111111111,7,2,0,50,0,0
99134,-83.3333333333333,7,2,0,50,0,0
100790,413.793103448276,4,2,0,50,1,0
100996,-71.4285714285714,4,2,0,50,0,0
102238,-76.9230769230769,4,2,0,50,0,0
102858,-111.111111111111,4,2,0,50,0,0
103686,-76.9230769230769,4,2,0,50,0,0
104307,-58.8235294117647,4,2,0,50,0,0
104927,-111.111111111111,4,2,0,50,0,0
105341,-62.5,4,2,0,50,0,0
105548,-125,4,2,0,50,0,0
106583,-52.6315789473684,4,2,0,50,0,0
106790,-62.5,4,2,0,50,0,0
106996,-76.9230769230769,4,2,0,50,0,0
107203,-100,4,2,0,50,0,0
114445,-142.857142857143,4,2,0,50,0,0
132238,-83.3333333333334,4,2,0,50,0,0
140514,-76.9230769230769,4,2,0,50,0,0
143824,-71.4285714285714,4,2,0,50,0,0
144652,-62.5,4,2,0,50,0,0
144858,-58.8235294117647,4,2,0,50,0,0
145065,-55.5555555555556,4,2,0,50,0,0
145272,-52.6315789473684,4,2,0,50,0,0
157893,-71.4285714285714,4,2,0,50,0,0
160376,-55.5555555555556,4,2,0,50,0,1
160790,-200,4,2,0,50,0,1
160996,-58.8235294117647,4,2,0,50,0,1
161617,-47.6190476190476,4,2,0,50,0,1
162445,-55.5555555555556,4,2,0,50,0,1
165341,-47.6190476190476,4,2,0,50,0,1
165755,-55.5555555555556,4,2,0,50,0,1
166996,-83.3333333333333,4,2,0,50,0,1
167410,-58.8235294117647,4,2,0,50,0,1
167824,-76.9230769230769,4,2,0,50,0,1
168652,-55.5555555555556,4,2,0,50,0,1
171962,-500,4,2,0,50,0,0
172376,-83.3333333333333,4,2,0,50,0,0
172893,-76.9230769230769,4,2,0,50,0,0
173203,-62.5,4,2,0,50,0,0
173617,-58.8235294117647,4,2,0,50,0,1
175686,-55.5555555555556,4,2,0,50,0,1
176927,-47.6190476190476,4,2,0,50,0,1
177341,-90.9090909090909,4,2,0,50,0,1
177548,-47.6190476190476,4,2,0,50,0,1
178686,-62.5,4,2,0,50,0,1
179410,-52.6315789473684,4,2,0,50,0,1
180238,-62.5,4,2,0,50,0,1
180858,-55.5555555555556,4,2,0,50,0,1
181272,-62.5,4,2,0,50,0,1
181479,-52.6315789473684,4,2,0,50,0,1
181893,-47.6190476190476,4,2,0,50,0,1
183341,-76.9230769230769,4,2,0,50,0,1
183548,-55.5555555555556,4,2,0,50,0,1
185203,-76.9230769230769,4,2,0,50,0,1
185617,400,4,2,0,50,1,0
185617,-1000,4,2,0,50,0,0
188817,352.941176470588,4,2,0,50,1,0
189169,377.358490566038,4,2,0,50,1,0
189923,422.535211267606,4,2,0,50,1,0
191440,379.746835443038,4,2,0,50,1,0
193338,392.156862745098,4,2,0,50,1,0
193730,370.37037037037,4,2,0,50,1,0
194841,413.793103448276,4,2,0,50,1,0
195254,400,4,2,0,50,1,0
195654,375,4,2,0,50,1,0
197904,413.793103448276,4,2,0,50,1,0
198317,379.746835443038,4,2,0,50,1,0
199076,413.793103448276,4,2,0,50,1,0
199489,363.636363636364,4,2,0,50,1,0
200216,387.096774193548,4,2,0,50,1,0
200603,375,4,2,0,50,1,0
202145,379.746835443038,4,2,0,50,1,0
202524,370.37037037037,4,2,0,50,1,0
203264,382.165605095541,4,2,0,50,1,0
204410,375,4,2,0,50,1,0
204785,413.793103448276,4,2,0,50,1,0
205198,375,4,2,0,50,1,0
205573,352.941176470588,4,2,0,50,1,0
205925,375,4,2,0,50,1,0
206300,400,4,2,0,50,1,0
206700,361.44578313253,4,2,0,50,1,0
207061,372.670807453416,4,2,0,50,1,0
207433,405.405405405405,4,2,0,50,1,0
207838,387.096774193548,4,2,0,50,1,0
208999,359.281437125748,4,2,0,50,1,0
209358,379.746835443038,4,2,0,50,1,0
211256,379.746835443038,4,2,0,50,1,0
211635,413.793103448276,4,2,0,50,1,0
212048,375,4,2,0,50,1,0
214298,419.58041958042,4,2,0,50,1,0
214717,363.636363636364,4,2,0,50,1,0
215807,413.793103448276,4,2,0,50,1,0
216220,375,4,2,0,50,1,0
216595,375,4,2,0,50,1,0
216970,413.793103448276,4,2,0,50,1,0
217383,375,4,2,0,50,1,0
218508,400,4,2,0,50,1,0
218908,375,4,2,0,50,1,0
220033,387.096774193548,4,2,0,50,1,0
220420,387.096774193548,4,2,0,50,1,0
222742,363.636363636364,4,2,0,50,1,0
223469,413.793103448276,4,2,0,50,1,0
242503,400,4,2,0,50,1,0
243288,394.736842105263,4,2,0,50,1,0
243386,394.736842105263,4,2,0,50,1,0
244175,422.535211267606,4,2,0,50,1,0
245020,359.281437125748,4,2,0,50,1,0
245199,392.156862745098,4,2,0,50,1,0
245591,425.531914893617,4,2,0,50,1,0
245910,425.531914893617,4,2,0,50,1,0
246421,437.956204379562,4,2,0,50,1,0
246640,472.44094488189,4,2,0,50,1,0
246876,387.096774193548,4,2,0,50,1,0
247263,413.793103448276,4,2,0,50,1,0
247469,387.096774193548,4,2,0,50,1,0
248243,361.44578313253,4,2,0,50,1,0
248604,389.61038961039,4,2,0,50,1,0
248993,434.782608695652,4,2,0,50,1,0
249427,394.736842105263,4,2,0,50,1,0
249624,434.782608695652,4,2,0,50,1,0
249940,359.281437125748,4,2,0,50,1,0
250299,359.281437125748,4,2,0,50,1,0
250774,422.535211267606,4,2,0,50,1,0
251196,379.746835443038,4,2,0,50,1,0
251385,425.531914893617,4,2,0,50,1,0
251597,451.127819548872,4,2,0,50,1,0
251806,461.538461538462,4,2,0,50,1,0
252048,363.636363636364,4,2,0,50,1,0
252267,379.746835443038,4,2,0,50,1,0
252452,400,4,2,0,50,1,0
252852,410.958904109589,4,2,0,50,1,0
253264,400,4,2,0,50,1,0
254917,413.793103448276,4,2,0,50,1,0
255951,441.176470588235,4,2,0,50,1,0
256571,413.793103448276,4,2,0,50,1,0
256571,-100,4,2,0,50,0,1
258639,-100,4,2,0,50,0,0
259881,-100,4,2,0,50,0,1
266502,419.58041958042,4,2,0,50,1,1
268180,-100,4,2,0,50,0,0
268599,413.793103448276,4,2,0,50,1,0
269840,400,4,2,0,50,1,0
269840,-100,4,2,0,50,0,1
270840,413.793103448276,4,2,0,50,1,1
271460,413.793103448276,4,2,0,50,1,1
286334,428.571428571429,4,2,0,50,1,0
286334,-100,4,2,0,50,0,0
288048,387.096774193548,4,2,0,50,1,0
288435,413.793103448276,4,2,0,50,1,0

[Colours]
Combo1 : 159,159,159
Combo2 : 255,0,0

[HitObjects]
35,248,5610,5,0,0:0:0:0:
69,266,5713,1,0,0:0:0:0:
81,303,5817,1,0,0:0:0:0:
140,336,5920,1,0,0:0:0:0:
171,370,6024,1,0,0:0:0:0:
154,327,6127,1,0,0:0:0:0:
186,258,6231,1,0,0:0:0:0:
177,217,6334,1,0,0:0:0:0:
112,156,6438,1,0,0:0:0:0:
185,195,6541,1,0,0:0:0:0:
243,213,6645,1,0,0:0:0:0:
284,177,6748,1,0,0:0:0:0:
341,226,6851,1,0,0:0:0:0:
373,295,6955,1,0,0:0:0:0:
317,242,7058,1,0,0:0:0:0:
342,177,7162,1,0,0:0:0:0:
322,89,7265,6,0,P|284:31|177:29,1,179.999994506836
130,99,7679,1,0,0:0:0:0:
396,14,7886,1,0,0:0:0:0:
416,26,7989,1,0,0:0:0:0:
436,39,8093,1,0,0:0:0:0:
454,53,8196,1,0,0:0:0:0:
467,68,8300,2,0,P|483:95|490:151,1,59.9999981689454
352,223,8507,2,0,P|346:311|282:393,1,179.999994506836
202,297,8920,6,0,B|165:252|184:207|195:207|204:207|225:165|183:100,1,179.999994506836
110,167,9334,2,0,L|37:179,1,59.9999981689454
236,51,9541,1,0,0:0:0:0:
259,47,9645,1,0,0:0:0:0:
282,43,9748,2,0,L|355:31,1,59.9999981689454
126,45,9955,2,0,P|93:40|53:57,1,59.9999981689454
281,179,10162,2,0,P|313:182|340:169,1,59.9999981689454
408,252,10369,1,0,0:0:0:0:
421,271,10472,1,0,0:0:0:0:
421,295,10576,6,0,P|411:324|370:361,2,59.9999981689454
498,225,10886,1,0,0:0:0:0:
512,210,10989,2,0,P|518:176|503:141,1,59.9999981689454
425,42,11196,1,0,0:0:0:0:
413,63,11300,1,0,0:0:0:0:
377,73,11403,1,0,0:0:0:0:
353,113,11507,1,0,0:0:0:0:
295,136,11610,2,0,L|235:177,1,59.9999981689454
445,43,11817,2,0,P|483:26|516:35,1,59.9999981689454
502,112,12024,1,0,0:0:0:0:
481,152,12127,1,0,0:0:0:0:
437,160,12231,6,0,P|392:195|371:280,1,119.999996337891
458,348,12541,1,0,0:0:0:0:
483,336,12645,2,0,P|489:303|471:260,1,59.9999981689454
310,315,12851,5,0,0:0:0:0:
314,349,12955,1,0,0:0:0:0:
336,358,13058,1,0,0:0:0:0:
304,359,13162,1,0,0:0:0:0:
277,347,13265,1,0,0:0:0:0:
244,356,13369,1,0,0:0:0:0:
216,332,13472,2,0,P|200:305|195:268,1,59.9999981689454
94,247,13679,1,0,0:0:0:0:
98,293,13782,1,0,0:0:0:0:
102,315,13886,6,0,P|101:343|81:379,1,50
21,197,14093,2,0,P|10:168|13:114,1,50
157,82,14300,2,0,P|160:109|137:150,1,50
30,47,14507,2,0,P|17:25|15:0,1,50
248,37,14713,2,0,P|262:63|265:107,1,50
259,176,14920,1,0,0:0:0:0:
249,200,15127,2,0,P|307:203|356:177,1,100
434,137,15438,1,0,0:0:0:0:
449,141,15541,6,0,P|458:168|453:216,1,50
350,76,15748,2,0,P|378:60|426:60,1,50
196,124,15955,2,0,P|173:125|148:113,1,50
225,265,16162,2,0,P|240:242|241:218,1,50
292,370,16369,2,0,P|344:315|345:227,1,150
188,243,16782,2,0,P|220:234|248:210,1,50
276,371,16989,2,0,P|289:340|289:303,1,50
105,304,17196,5,0,0:0:0:0:
116,314,17403,2,0,P|122:340|113:378,1,50
24,249,17610,2,0,P|16:221|27:185,1,50
178,118,17817,2,0,P|185:144|175:182,1,50
22,103,18024,2,0,P|89:51|161:38,1,150
191,132,18438,2,0,P|229:158|257:158,1,50
161,26,18645,2,0,P|123:0|95:0,1,50
270,46,18851,6,0,L|391:82,1,100
366,98,19265,1,0,0:0:0:0:
378,131,19472,1,0,0:0:0:0:
382,162,19576,1,0,0:0:0:0:
352,179,19679,1,0,0:0:0:0:
370,217,19782,1,0,0:0:0:0:
348,234,19886,1,0,0:0:0:0:
352,268,19989,1,0,0:0:0:0:
325,280,20093,2,0,P|357:354|454:400,1,150
485,285,20507,6,0,P|500:236|491:174,1,100
428,96,20817,1,0,0:0:0:0:
413,91,20920,2,0,P|417:115|409:157,1,50
252,238,21127,1,0,0:0:0:0:
286,235,21231,1,0,0:0:0:0:
313,227,21334,2,0,P|323:198|316:159,1,50
222,36,21541,1,0,0:0:0:0:
201,38,21748,2,0,L|162:215,1,150
80,234,22162,2,0,L|106:134,1,100
60,27,22472,1,0,0:0:0:0:
43,34,22576,2,0,P|33:59|38:84,1,50
71,217,22782,2,0,P|80:189|84:165,1,50
184,42,22989,6,0,P|191:89|174:141,1,100
317,175,23403,1,0,0:0:0:0:
336,169,23817,6,0,P|321:237|338:322,1,150
378,218,24231,2,0,P|331:268|315:357,1,150
387,284,24645,2,0,P|329:307|271:383,1,150
375,341,25058,2,0,P|320:374|227:382,1,150
132,348,25472,6,0,P|189:316|297:308,1,150
135,274,25886,2,0,P|200:269|301:307,1,150
168,211,26300,2,0,P|229:234|259:261,1,100
293,155,26713,6,0,P|292:125|269:84,1,50
171,43,26920,1,0,0:0:0:0:
86,50,27024,1,0,0:0:0:0:
52,141,27127,6,0,L|46:207,1,50
162,194,27334,2,0,L|168:128,1,50
15,303,27541,2,0,P|66:282|117:298,1,110.000003356934
160,360,27851,1,0,0:0:0:0:
178,367,27955,2,0,P|205:355|231:327,1,55.0000016784668
342,310,28162,2,0,P|314:321|289:350,1,55.0000016784668
447,348,28369,2,0,P|450:274|421:230,1,110.000003356934
353,198,28679,1,0,0:0:0:0:
359,213,28782,6,0,L|382:139,1,55.0000016784668
323,62,28989,2,0,L|300:136,1,55.0000016784668
491,163,29196,2,0,L|458:57,1,110.000003356934
300,31,29506,1,0,0:0:0:0:
312,47,29610,2,0,L|364:30,1,55.0000016784668
220,103,29817,2,0,L|167:86,1,55.0000016784668
284,202,30024,2,0,P|296:230|255:316,1,110.000003356934
150,288,30334,1,0,0:0:0:0:
132,274,30438,6,0,P|121:244|120:201,1,55.0000016784668
259,316,30645,1,0,0:0:0:0:
275,330,30748,1,0,0:0:0:0:
293,341,30851,2,0,P|320:349|355:339,1,55.0000016784668
277,190,31058,2,0,P|250:182|215:192,1,55.0000016784668
370,262,31265,2,0,P|390:242|399:207,1,55.0000016784668
441,96,31472,1,0,0:0:0:0:
450,116,31576,1,0,0:0:0:0:
459,135,31679,2,0,L|506:249,1,110.000003356934
493,370,31989,1,0,0:0:0:0:
488,384,32093,6,0,L|441:272,1,110.000003356934
348,193,32403,1,0,0:0:0:0:
339,179,32507,2,0,P|330:144|335:100,1,55.0000016784668
371,38,32713,2,0,P|350:13|315:1,1,55.0000016784668
243,42,32920,1,0,0:0:0:0:
229,79,33024,1,0,0:0:0:0:
210,107,33127,1,0,0:0:0:0:
187,125,33231,1,0,0:0:0:0:
150,138,33334,5,0,0:0:0:0:
178,173,33438,1,0,0:0:0:0:
192,210,33541,1,0,0:0:0:0:
180,258,33645,1,0,0:0:0:0:
140,292,33748,6,0,P|86:302|33:277,1,110.000003356934
21,158,34058,1,0,0:0:0:0:
36,169,34162,2,0,P|49:191|2:281,1,110.000003356934
130,281,34472,1,0,0:0:0:0:
140,292,34576,6,0,P|154:319|99:374,1,110.000003356934
227,356,34886,1,0,0:0:0:0:
237,365,34989,2,0,P|266:348|279:243,1,110.000003356934
209,191,35300,1,0,0:0:0:0:
218,199,35403,6,0,B|264:185|264:185|274:192|274:192|330:173,1,110.000003356934
346,90,35713,1,0,0:0:0:0:
364,96,35817,2,0,P|394:119|404:207,1,110.000003356934
455,345,36127,1,0,0:0:0:0:
468,361,36231,6,0,L|484:239,1,110.000003356934
285,263,36541,1,0,0:0:0:0:
293,281,36645,6,0,L|378:292,1,55.0000016784668
376,187,36851,1,0,0:0:0:0:
368,166,36955,1,0,0:0:0:0:
352,150,37058,6,0,L|233:122,1,110.000003356934
124,125,37369,1,0,0:0:0:0:
132,136,37472,2,0,L|250:110,1,110.000003356934
353,111,37782,1,0,0:0:0:0:
345,122,37886,2,0,L|230:97,1,110.000003356934
118,99,38196,1,0,0:0:0:0:
126,110,38300,2,0,L|233:86,1,110.000003356934
345,84,38610,1,0,0:0:0:0:
337,95,38713,2,0,L|229:71,1,110.000003356934
107,74,39024,1,0,0:0:0:0:
115,85,39127,2,0,L|222:61,1,110.000003356934
346,18,39438,5,0,0:0:0:0:
368,22,39541,1,0,0:0:0:0:
395,38,39645,1,0,0:0:0:0:
426,54,39748,1,0,0:0:0:0:
458,54,39851,1,0,0:0:0:0:
486,33,39955,1,0,0:0:0:0:
402,125,40162,1,0,0:0:0:0:
400,153,40265,1,0,0:0:0:0:
407,189,40369,5,0,0:0:0:0:
308,282,41196,5,0,0:0:0:0:
268,301,42024,5,0,0:0:0:0:
109,376,42851,5,0,0:0:0:0:
157,166,43679,5,0,0:0:0:0:
105,287,44602,5,0,0:0:0:0:
90,83,45441,5,0,0:0:0:0:
232,313,46262,5,0,0:0:0:0:
18,129,46989,6,0,P|42:170|40:212,1,69.9999978637696
36,218,47299,1,0,0:0:0:0:
36,245,47402,1,0,0:0:0:0:
79,333,47609,1,0,0:0:0:0:
174,255,47816,6,0,L|124:295,1,34.9999989318848
222,323,48023,1,0,0:0:0:0:
248,313,48126,1,0,0:0:0:0:
299,291,48230,2,0,L|271:268,3,34.9999989318848
273,189,48644,6,0,L|350:211,1,69.9999978637696
368,208,48954,1,0,0:0:0:0:
391,192,49057,2,0,P|396:169|390:147,1,34.9999989318848
436,273,49264,2,0,L|433:311,1,34.9999989318848
427,335,49471,5,0,0:0:0:0:
491,191,49678,1,0,0:0:0:0:
487,163,49782,1,0,0:0:0:0:
483,135,49885,2,0,L|478:93,1,34.9999989318848
396,43,50092,2,0,L|400:77,1,34.9999989318848
206,173,50299,2,0,L|296:178,1,69.9999978637696
298,193,50609,2,0,L|208:188,1,69.9999978637696
149,247,50920,1,0,0:0:0:0:
163,253,51023,1,0,0:0:0:0:
172,268,51126,2,0,P|201:293|250:298,1,69.9999978637696
332,283,51437,1,0,0:0:0:0:
351,302,51540,2,0,P|350:323|339:356,1,34.9999989318848
435,370,51747,2,0,P|434:349|423:316,1,34.9999989318848
244,132,51954,5,0,0:0:0:0:
402,177,52110,1,0,0:0:0:0:
368,90,52247,1,0,0:0:0:0:
417,160,52385,1,0,0:0:0:0:
353,79,52542,1,0,0:0:0:0:
262,128,52788,2,0,L|200:149,1,50
92,125,52994,1,0,0:0:0:0:
119,113,53098,1,0,0:0:0:0:
130,232,53305,5,0,0:0:0:0:
126,246,53408,1,0,0:0:0:0:
126,258,53512,1,0,0:0:0:0:
127,270,53609,6,0,P|150:310|226:333,1,100
292,257,53918,1,0,0:0:0:0:
191,196,54021,2,0,P|199:232|216:252,1,59.9999981689454
263,134,54228,1,0,0:0:0:0:
173,102,54332,2,0,P|139:113|110:145,1,59.9999981689454
261,150,54539,1,0,0:0:0:0:
336,98,54642,2,0,P|359:79|388:71,1,50
399,172,54849,2,0,P|395:201|402:235,1,50
491,191,55056,1,0,0:0:0:0:
497,179,55263,6,0,P|485:91|449:39,1,139.999995727539
342,114,55573,1,0,0:0:0:0:
350,105,55676,2,0,P|350:67|337:32,1,69.9999978637696
196,136,55883,2,0,P|228:155|265:161,1,69.9999978637696
212,0,56297,2,0,P|182:17|160:42,1,34.9999989318848
130,81,56504,1,0,0:0:0:0:
189,201,56711,1,0,0:0:0:0:
191,213,56918,6,0,P|200:241|227:264,1,40
280,148,57125,2,0,P|277:178|290:210,1,40
378,102,57332,2,0,P|362:127|361:162,1,40
225,250,57539,6,0,P|272:244|303:250,1,80
351,157,57745,2,0,P|389:190|402:216,1,80
508,192,57952,2,0,P|505:240|493:268,1,80
207,250,58159,2,0,P|171:277|155:320,1,89.9999972534181
359,140,58366,2,0,P|398:116|442:116,1,89.9999972534181
338,333,58573,6,0,P|413:380|486:368,1,160
359,270,58883,2,0,P|407:344|478:364,1,160
401,222,59194,2,0,P|413:309|469:357,1,160
423,43,59504,6,0,P|348:-4|275:8,1,160
402,106,59814,2,0,P|353:31|282:11,1,160
360,154,60125,2,0,P|347:66|291:18,1,160
198,155,60642,6,0,P|204:198|232:222,1,50
277,116,60849,1,0,0:0:0:0:
272,104,61084,6,0,P|234:80|198:86,1,50
7,103,61363,1,0,0:0:0:0:
50,39,61456,1,0,0:0:0:0:
183,211,61653,1,0,2:0:0:0:
192,181,61752,1,0,2:0:0:0:
199,155,61850,2,0,P|105:158|47:223,1,170.000003242493
54,297,62225,1,0,0:0:0:0:
75,294,62308,2,0,P|116:326|124:352,1,80
248,340,62514,5,0,0:0:0:0:
234,326,62618,2,0,P|235:281|260:244,1,85.0000016212464
422,325,62825,1,0,0:0:0:0:
417,349,62928,2,0,P|386:377|354:386,1,64.9999970245363
379,242,63135,6,0,B|411:187|376:134|368:134|360:134|335:73|390:14,1,240
472,129,63549,6,0,P|491:178|490:225,1,85.0000016212464
284,169,63755,2,0,P|265:120|266:73,1,85.0000016212464
485,121,63962,2,0,P|504:170|503:217,1,59.9999981689454
321,278,64169,6,0,P|348:239|393:224,1,80
512,301,64376,2,0,P|515:336|499:373,1,59.9999981689454
299,279,64583,1,0,0:0:0:0:
263,281,64686,1,0,0:0:0:0:
234,283,64790,2,0,P|221:318|224:363,1,69.9999978637696
273,198,64997,1,0,0:0:0:0:
279,182,65204,6,0,P|218:101|143:91,1,179.999994506836
45,124,65514,1,0,0:0:0:0:
109,190,65617,1,0,0:0:0:0:
141,99,65721,1,0,0:0:0:0:
36,135,65824,6,0,P|13:233|53:297,1,179.999994506836
204,189,66135,1,0,0:0:0:0:
120,195,66238,2,0,L|96:258,1,44.999998626709
219,185,66445,6,0,P|239:146|239:113,1,75.0000028610231
367,126,66652,1,0,0:0:0:0:
390,180,66755,1,0,0:0:0:0:
447,194,66859,6,0,P|492:143|431:34,1,179.999994506836
275,41,67169,1,0,0:0:0:0:
285,54,67273,2,0,P|336:58|380:30,1,80
153,0,67480,6,0,P|124:42|126:94,1,80
248,152,67686,2,0,L|203:58,1,80
52,29,67893,1,0,0:0:0:0:
44,40,68100,6,0,B|18:76|46:114|53:114|61:114|80:155|43:207,1,160
44,204,68411,1,0,0:0:0:0:
219,222,68514,6,0,P|203:181|150:145,1,64.9999970245363
125,229,68721,1,0,0:0:0:0:
233,236,68824,1,0,0:0:0:0:
259,150,68928,2,0,P|216:145|172:159,1,64.9999970245363
369,211,69135,2,0,P|391:247|397:293,1,64.9999970245363
458,176,69342,2,0,L|476:103,1,64.9999970245363
504,34,69549,1,0,0:0:0:0:
493,22,69755,6,0,P|442:27|413:51,1,64.9999970245363
405,118,69962,1,0,0:0:0:0:
467,186,70066,1,0,0:0:0:0:
392,103,70169,6,0,P|321:80|247:92,1,129.999994049073
199,166,70480,1,0,0:0:0:0:
291,148,70583,2,0,P|283:116|248:84,1,64.9999970245363
131,18,70790,6,0,P|140:125|183:162,1,170.000003242493
280,158,71100,1,0,0:0:0:0:
244,250,71204,2,0,P|255:290|286:318,1,85.0000016212464
387,260,71411,6,0,L|318:244,1,60
225,257,71824,1,0,0:0:0:0:
318,349,71928,1,0,0:0:0:0:
236,238,72031,2,0,P|198:225|144:238,1,89.9999972534181
126,353,72220,5,0,0:0:0:0:
140,223,72323,1,0,0:0:0:0:
0,280,72426,2,0,P|16:338|63:370,1,89.9999972534181
123,217,72633,1,0,0:0:0:0:
134,336,72737,1,0,0:0:0:0:
32,204,72840,2,0,P|58:151|112:133,1,89.9999972534181
171,145,73047,1,0,0:0:0:0:
46,219,73151,1,0,0:0:0:0:
114,67,73254,1,0,0:0:0:0:
127,66,73323,1,0,0:0:0:0:
140,64,73392,1,0,0:0:0:0:
149,63,73461,6,0,L|229:69,1,59.9999981689454
293,18,73875,6,0,P|313:57|290:121,1,89.9999972534181
256,163,74082,1,0,0:0:0:0:
243,168,74288,6,0,P|223:207|246:271,1,89.9999972534181
337,210,74495,1,0,0:0:0:0:
348,205,74564,1,0,0:0:0:0:
359,200,74633,1,0,0:0:0:0:
370,195,74702,1,0,0:0:0:0:
428,137,74806,5,0,0:0:0:0:
425,56,74909,1,0,0:0:0:0:
355,13,75013,1,0,0:0:0:0:
257,19,75116,6,0,P|215:47|198:99,1,89.9999972534181
434,47,75323,2,0,P|483:54|521:94,1,89.9999972534181
328,215,75530,6,0,P|318:165|342:116,1,89.9999972534181
512,299,75737,2,0,P|447:346|340:320,1,179.999994506836
421,254,76047,1,0,0:0:0:0:
429,249,76151,2,0,P|445:209|436:157,1,64.9999970245363
268,155,76357,1,0,0:0:0:0:
268,164,76461,2,0,P|294:197|344:216,1,75.0000028610231
165,56,76668,1,0,0:0:0:0:
141,53,76771,6,0,B|90:113|118:182|130:182|142:182|177:246|129:313,1,269.999991760254
53,244,77185,2,0,P|29:194|28:139,1,80
212,127,77392,2,0,P|236:177|237:232,1,80
41,250,77599,2,0,P|17:200|16:145,1,80
246,287,77806,2,0,P|297:267|319:225,1,80
30,258,78013,2,0,P|19:296|22:336,1,80
250,302,78220,2,0,P|301:282|323:240,1,80
134,282,78426,6,0,P|138:188|221:123,1,179.999994506836
289,166,78737,1,0,0:0:0:0:
224,227,78840,1,0,0:0:0:0:
203,140,78944,1,0,0:0:0:0:
306,166,79047,6,0,P|381:247|388:318,1,179.999994506836
288,278,79357,1,0,0:0:0:0:
324,167,79461,2,0,P|362:196|391:248,1,89.9999972534181
210,229,79668,2,0,P|188:188|195:132,1,89.9999972534181
280,49,79875,1,0,0:0:0:0:
360,50,79978,1,0,0:0:0:0:
422,101,80082,2,0,P|451:139|458:194,1,89.9999972534181
277,37,80288,2,0,P|229:39|182:69,1,89.9999972534181
130,182,80495,6,0,P|167:179|202:160,1,64.9999970245363
58,48,80702,2,0,P|42:81|41:121,1,75.0000028610231
260,218,80909,2,0,P|236:184|199:161,1,85.0000016212464
83,256,81116,2,0,P|112:270|150:266,1,55.0000016784668
273,207,81323,6,0,P|296:151|253:32,1,170.000003242493
126,129,81633,1,0,0:0:0:0:
110,132,81737,2,0,P|77:171|76:263,1,129.999994049073
197,322,82047,1,0,0:0:0:0:
203,305,82151,6,0,P|196:252|156:208,1,75.0000028610231
16,312,82357,2,0,P|56:330|108:323,1,89.9999972534181
378,313,82564,2,0,P|338:331|286:324,1,89.9999972534181
321,215,82771,2,0,P|361:196|405:201,1,89.9999972534181
477,267,82978,6,0,L|461:368,1,100
196,224,83185,2,0,L|212:123,1,100
383,77,83392,6,0,P|378:173|319:213,1,160
204,109,83702,1,0,0:0:0:0:
200,97,83806,2,0,P|160:83|102:103,1,80
132,263,84013,1,0,0:0:0:0:
206,216,84116,2,0,P|175:186|114:180,1,89.9999972534181
140,273,84323,1,0,0:0:0:0:
0,267,84426,2,0,P|4:224|46:180,1,89.9999972534181
149,284,84633,6,0,L|112:365,1,89.9999972534181
57,186,84840,1,0,0:0:0:0:
140,162,84944,1,0,0:0:0:0:
212,222,85047,6,0,P|257:246|310:243,1,100
342,113,85254,1,0,0:0:0:0:
314,255,85357,1,0,0:0:0:0:
433,192,85461,2,0,P|449:136|434:83,1,100
294,14,85668,2,0,P|313:69|355:103,1,100
467,27,85875,1,0,0:0:0:0:
341,129,85978,1,0,0:0:0:0:
464,120,86082,2,0,P|503:152|512:202,1,100
396,280,86288,1,0,0:0:0:0:
333,139,86392,1,0,0:0:0:0:
425,201,86495,1,0,0:0:0:0:
295,238,86599,1,0,0:0:0:0:
247,114,86702,6,0,P|252:65|267:36,1,80
284,38,87013,1,0,0:0:0:0:
297,39,87116,6,0,B|319:34|337:34|337:34|367:62|411:72,1,120
193,284,94997,6,0,P|221:330|217:411,1,110.000003356934
126,359,95307,2,0,P|71:360|4:316,1,110.000003356934
95,264,95617,2,0,P|120:215|192:179,1,110.000003356934
273,199,95928,1,0,0:0:0:0:
273,199,96031,1,0,0:0:0:0:
273,199,96134,1,0,0:0:0:0:
273,199,96238,6,0,B|302:218|302:218|333:292,1,89.9999972534181
405,323,96548,2,0,B|406:288|406:288|455:224,1,89.9999972534181
448,147,96859,2,0,B|417:162|417:162|337:152,1,89.9999972534181
376,81,97169,1,0,0:0:0:0:
344,150,97272,1,0,0:0:0:0:
331,141,97479,2,0,P|289:118|232:110,1,89.9999972534181
146,39,97790,1,0,0:0:0:0:
132,54,97893,6,0,L|220:33,1,89.9999972534181
80,121,98203,2,0,L|168:139,1,89.9999972534181
32,184,98514,2,0,L|104:237,1,89.9999972534181
188,222,98824,1,0,0:0:0:0:
196,221,98928,1,0,0:0:0:0:
203,220,99031,1,0,0:0:0:0:
211,219,99134,6,0,P|251:175|239:89,1,119.999996337891
177,141,99445,1,0,0:0:0:0:
163,140,99548,2,0,P|125:102|123:78,1,59.9999981689454
138,13,99755,1,0,0:0:0:0:
147,2,99858,2,0,P|200:-2|220:11,1,59.9999981689454
288,54,100065,1,0,0:0:0:0:
309,53,100169,1,0,0:0:0:0:
324,52,100376,5,0,0:0:0:0:
393,100,100583,1,0,0:0:0:0:
395,137,100686,1,0,0:0:0:0:
377,161,100790,2,0,B|370:171|370:171|365:186,2,25
427,237,100996,6,0,P|442:270|441:305,1,69.9999978637696
274,254,101203,2,0,P|310:257|339:275,1,69.9999978637696
275,344,101410,1,0,0:0:0:0:
199,325,101514,1,0,0:0:0:0:
188,318,102238,6,0,B|145:285|154:228|164:228|175:228|190:182|158:131,1,194.999991073609
88,194,102652,1,0,0:0:0:0:
77,203,102858,6,0,P|64:233|68:281,1,44.999998626709
246,256,103065,2,0,P|258:225|255:178,1,44.999998626709
191,330,103272,6,0,P|243:351|290:338,1,89.9999972534181
380,248,103583,1,0,0:0:0:0:
390,238,103686,2,0,L|396:170,1,64.9999970245363
497,313,103893,1,0,0:0:0:0:
491,328,103996,1,0,0:0:0:0:
484,342,104100,2,0,P|459:363|430:376,1,64.9999970245363
500,298,104307,6,0,P|497:258|467:215,1,85.0000016212464
385,170,104514,1,0,0:0:0:0:
373,160,104721,6,0,P|375:120|406:77,1,85.0000016212464
488,32,104927,2,0,P|498:50|496:87,1,44.999998626709
393,70,105134,1,0,0:0:0:0:
386,59,105341,6,0,P|350:55|300:69,1,80
222,191,105548,2,0,P|247:196|270:191,1,40
243,119,105755,5,0,0:0:0:0:
235,105,105824,1,0,0:0:0:0:
226,93,105893,1,0,0:0:0:0:
216,81,105962,2,0,L|206:44,2,26.6666666666667
145,149,106169,2,0,L|135:186,2,26.6666666666667
64,97,106376,1,0,0:0:0:0:
49,94,106583,6,0,P|43:141|61:184,1,94.9999974632264
32,167,106790,2,0,P|45:204|74:231,1,80
106,272,106996,6,0,P|75:260|51:238,1,64.9999970245363
144,297,107203,2,0,P|119:298|94:292,1,50
186,214,107410,5,0,0:0:0:0:
205,211,107514,1,0,0:0:0:0:
223,219,107617,1,0,0:0:0:0:
238,231,107721,1,0,0:0:0:0:
257,233,107824,1,0,0:0:0:0:
270,218,107927,1,0,0:0:0:0:
268,197,108031,1,0,0:0:0:0:
248,193,108134,1,0,0:0:0:0:
234,208,108238,1,0,0:0:0:0:
235,227,108341,1,0,0:0:0:0:
242,245,108445,1,0,0:0:0:0:
241,264,108548,1,0,0:0:0:0:
232,282,108652,1,0,0:0:0:0:
219,297,108755,1,0,0:0:0:0:
202,308,108858,1,0,0:0:0:0:
149,312,108962,1,0,0:0:0:0:
106,334,109065,5,0,0:0:0:0:
124,298,109169,1,0,0:0:0:0:
126,258,109272,1,0,0:0:0:0:
120,218,109376,1,0,0:0:0:0:
100,183,109479,1,0,0:0:0:0:
99,142,109583,1,0,0:0:0:0:
114,105,109686,1,0,0:0:0:0:
145,79,109790,1,0,0:0:0:0:
182,66,109893,1,0,0:0:0:0:
220,74,109996,1,0,0:0:0:0:
249,100,110100,1,0,0:0:0:0:
258,138,110203,1,0,0:0:0:0:
231,168,110307,1,0,0:0:0:0:
192,158,110410,1,0,0:0:0:0:
183,118,110514,1,0,0:0:0:0:
211,89,110617,1,0,0:0:0:0:
249,100,110721,6,0,P|278:119|287:152,1,50
287,235,110927,1,0,0:0:0:0:
287,251,111238,1,0,0:0:0:0:
286,268,111548,1,0,0:0:0:0:
184,171,111755,1,0,0:0:0:0:
108,298,112169,1,0,0:0:0:0:
116,331,112272,1,0,0:0:0:0:
142,353,112376,6,0,P|170:364|203:362,1,50
292,366,112583,1,0,0:0:0:0:
309,354,112686,1,0,0:0:0:0:
329,339,112996,5,0,0:0:0:0:
362,316,113307,5,0,0:0:0:0:
416,278,113617,5,0,0:0:0:0:
263,232,113824,1,0,0:0:0:0:
229,240,113927,1,0,0:0:0:0:
194,248,114031,5,0,0:0:0:0:
286,138,114341,1,0,0:0:0:0:
303,136,114445,2,0,P|327:139|380:170,1,69.9999978637696
502,204,114858,2,0,L|470:183,1,34.9999989318848
507,327,115065,2,0,L|486:294,1,34.9999989318848
413,384,115272,2,0,L|397:250,1,104.999996795654
330,233,115686,2,0,P|320:254|319:290,1,34.9999989318848
225,300,115893,2,0,P|234:321|236:357,1,34.9999989318848
331,351,116100,2,0,P|321:372|320:408,1,34.9999989318848
152,343,116307,2,0,P|141:300|150:262,1,69.9999978637696
178,206,116617,1,0,0:0:0:0:
191,193,116721,1,0,0:0:0:0:
204,179,116927,5,0,0:0:0:0:
133,136,117134,1,0,0:0:0:0:
115,138,117238,1,0,0:0:0:0:
41,184,117341,6,0,P|33:200|31:221,1,34.9999989318848
22,319,117548,1,0,0:0:0:0:
38,359,117652,1,0,0:0:0:0:
80,384,117755,2,0,L|118:373,1,34.9999989318848
174,334,117962,6,0,L|79:361,1,69.9999978637696
236,384,118376,2,0,L|274:373,1,34.9999989318848
224,230,118583,2,0,L|211:264,1,34.9999989318848
354,380,118790,2,0,P|354:362|346:337,1,34.9999989318848
259,167,118996,6,0,L|234:232,1,69.9999978637696
332,258,119307,1,0,0:0:0:0:
346,254,119410,2,0,P|344:228|334:208,1,34.9999989318848
435,171,119617,2,0,P|429:185|428:210,1,34.9999989318848
507,199,119824,1,0,0:0:0:0:
512,185,119927,1,0,0:0:0:0:
512,170,120031,1,0,0:0:0:0:
316,68,120238,1,0,0:0:0:0:
305,71,120652,6,0,P|295:85|289:126,1,34.9999989318848
284,186,120858,1,0,0:0:0:0:
303,192,120962,1,0,0:0:0:0:
294,216,121065,1,0,0:0:0:0:
309,220,121169,1,0,0:0:0:0:
296,238,121272,1,0,0:0:0:0:
307,253,121376,1,0,0:0:0:0:
292,267,121479,6,0,P|288:308|299:364,1,69.9999978637696
381,297,121790,1,0,0:0:0:0:
372,319,121893,1,0,0:0:0:0:
399,307,121996,1,0,0:0:0:0:
397,323,122100,1,0,0:0:0:0:
412,316,122203,1,0,0:0:0:0:
422,332,122307,6,0,P|455:344|495:339,1,69.9999978637696
468,267,122617,1,0,0:0:0:0:
481,247,122721,1,0,0:0:0:0:
461,243,122824,1,0,0:0:0:0:
479,224,122927,1,0,0:0:0:0:
444,219,123031,1,0,0:0:0:0:
470,199,123134,2,0,P|475:152|473:115,1,69.9999978637696
369,136,123548,1,0,0:0:0:0:
342,135,123652,1,0,0:0:0:0:
342,167,123755,1,0,0:0:0:0:
304,164,123858,1,0,0:0:0:0:
300,203,123962,6,0,L|197:274,1,104.999996795654
303,253,124376,2,0,L|179:273,1,104.999996795654
290,303,124790,2,0,L|169:269,1,104.999996795654
259,346,125203,2,0,L|163:264,1,104.999996795654
169,382,125617,6,0,P|157:323|169:282,1,104.999996795654
130,359,126031,2,0,P|144:300|172:268,1,104.999996795654
104,320,126445,2,0,P|141:272|180:255,1,104.999996795654
271,280,126858,1,0,0:0:0:0:
287,302,126962,1,0,0:0:0:0:
305,322,127065,1,0,0:0:0:0:
322,344,127169,1,0,0:0:0:0:
339,365,127272,5,0,0:0:0:0:
406,275,127686,1,0,0:0:0:0:
374,167,128100,1,0,0:0:0:0:
357,367,128514,1,0,0:0:0:0:
424,277,128928,1,0,0:0:0:0:
392,169,129342,1,0,0:0:0:0:
120,93,129755,5,0,0:0:0:0:
88,201,130169,1,0,0:0:0:0:
366,43,130583,5,0,0:0:0:0:
291,126,130996,1,0,0:0:0:0:
216,209,131410,1,0,0:0:0:0:
141,292,131824,1,0,0:0:0:0:
358,234,132238,6,0,P|381:253|396:285,1,59.9999981689454
303,310,132445,1,0,0:0:0:0:
386,363,132548,1,0,0:0:0:0:
142,268,132755,1,0,0:0:0:0:
42,331,132858,1,0,0:0:0:0:
122,75,133065,1,0,0:0:0:0:
267,120,133169,2,0,P|309:146|338:192,1,59.9999981689454
231,224,133376,1,0,0:0:0:0:
343,243,133479,1,0,0:0:0:0:
359,244,133893,6,0,P|397:231|419:208,1,59.9999981689454
469,95,134100,1,0,0:0:0:0:
469,95,134169,1,0,0:0:0:0:
469,95,134238,1,0,0:0:0:0:
469,95,134307,2,0,L|403:97,1,59.9999981689454
270,63,134514,1,0,0:0:0:0:
285,61,134617,1,0,0:0:0:0:
301,60,134721,2,0,P|322:82|330:128,1,59.9999981689454
210,113,134927,1,0,0:0:0:0:
196,122,135134,2,0,P|154:202|182:303,1,179.999994506836
283,349,135548,6,0,P|300:281|273:226,1,119.999996337891
161,221,135858,1,0,0:0:0:0:
143,218,135962,2,0,P|151:176|172:143,1,59.9999981689454
299,142,136169,1,0,0:0:0:0:
294,117,136272,1,0,0:0:0:0:
278,79,136376,2,0,L|200:56,1,59.9999981689454
102,111,136583,1,0,0:0:0:0:
120,104,136790,6,0,P|128:70|115:31,1,59.9999981689454
15,72,136996,1,0,0:0:0:0:
24,88,137203,2,0,L|31:158,1,59.9999981689454
154,317,137410,6,0,P|159:292|154:252,1,59.9999981689454
37,347,137617,1,0,0:0:0:0:
229,254,137824,6,0,P|235:223|230:187,1,59.9999981689454
85,289,138031,1,0,0:0:0:0:
319,261,138238,6,0,P|341:230|354:188,1,59.9999981689454
143,225,138445,1,0,0:0:0:0:
418,310,138652,6,0,P|457:288|492:249,1,59.9999981689454
244,181,138859,1,0,0:0:0:0:
441,88,139065,2,0,P|453:116|455:146,1,59.9999981689454
236,122,139272,5,0,0:0:0:0:
220,102,139376,1,0,0:0:0:0:
214,79,139479,1,0,0:0:0:0:
232,138,139583,5,0,0:0:0:0:
203,124,139687,1,0,0:0:0:0:
185,102,139790,1,0,0:0:0:0:
229,159,139893,5,0,0:0:0:0:
190,158,139997,1,0,0:0:0:0:
159,143,140100,1,0,0:0:0:0:
228,184,140203,5,0,0:0:0:0:
175,205,140307,1,0,0:0:0:0:
126,205,140410,1,0,0:0:0:0:
81,185,140514,6,0,P|40:143|31:62,1,129.999994049073
233,68,140824,1,0,0:0:0:0:
250,70,140927,2,0,P|259:99|249:148,1,64.9999970245363
229,329,141134,2,0,P|220:300|230:251,1,64.9999970245363
363,206,141341,1,0,0:0:0:0:
381,212,141445,1,0,0:0:0:0:
399,217,141548,2,0,P|412:250|402:299,1,64.9999970245363
343,85,141755,2,0,P|330:52|340:3,1,64.9999970245363
465,48,141962,1,0,0:0:0:0:
481,53,142169,6,0,L|502:205,1,129.999994049073
379,354,142479,1,0,0:0:0:0:
394,349,142583,2,0,P|415:318|413:275,1,64.9999970245363
280,272,142790,2,0,B|245:257|213:273|214:282|180:301|135:274,1,129.999994049073
101,193,143100,1,0,0:0:0:0:
116,176,143203,2,0,P|153:178|186:205,1,64.9999970245363
269,353,143410,1,0,0:0:0:0:
35,334,143617,1,0,0:0:0:0:
54,332,143824,6,0,P|89:266|88:187,1,139.999995727539
16,270,144134,2,0,P|75:224|108:152,1,139.999995727539
4,196,144445,2,0,P|56:192|94:166,1,69.9999978637696
241,134,144652,6,0,P|204:96|160:84,1,80
348,148,144858,2,0,P|340:97|311:61,1,85.0000016212464
434,243,145065,2,0,P|458:191|454:140,1,89.9999972534181
438,384,145272,2,0,P|492:353|521:305,1,94.9999974632264
274,128,145479,6,0,P|191:170|154:287,1,189.999994926453
362,144,145790,2,0,P|273:115|164:171,1,189.999994926453
416,217,146100,2,0,P|373:134|256:97,1,189.999994926453
417,302,146410,2,0,P|430:209|355:112,1,189.999994926453
359,364,146721,2,0,P|433:308|449:186,1,189.999994926453
276,369,147031,2,0,P|368:382|465:307,1,189.999994926453
27,42,157893,6,0,L|-2:91,1,34.9999989318848
35,68,157996,1,0,0:0:0:0:
55,145,158100,1,0,0:0:0:0:
90,173,158203,1,0,0:0:0:0:
84,248,158307,2,0,L|59:287,1,34.9999989318848
84,264,158410,1,0,0:0:0:0:
141,324,158514,2,0,P|179:329|210:321,1,69.9999978637696
203,228,158721,2,0,L|170:203,1,34.9999989318848
212,217,158824,1,0,0:0:0:0:
202,140,158927,2,0,L|243:120,1,34.9999989318848
187,123,159031,2,0,L|148:113,1,34.9999989318848
194,83,159134,1,0,0:0:0:0:
220,46,159238,1,0,0:0:0:0:
288,23,159341,1,0,0:0:0:0:
355,32,159445,1,0,0:0:0:0:
376,42,159548,1,0,0:0:0:0:
391,119,159652,2,0,L|362:142,1,34.9999989318848
415,129,159755,1,0,0:0:0:0:
480,186,159858,1,0,0:0:0:0:
396,209,159962,1,0,0:0:0:0:
347,297,160065,1,0,0:0:0:0:
250,336,160169,2,0,P|241:302|244:268,1,69.9999978637696
402,220,160376,6,0,P|444:269|452:316,1,89.9999972534181
243,349,160583,2,0,P|231:304|235:260,1,89.9999972534181
447,310,160790,6,0,L|461:345,1,25
274,154,160996,6,0,P|265:64|206:-14,1,170.000003242493
161,108,161307,1,0,0:0:0:0:
148,203,161410,2,0,P|111:235|53:242,1,85.0000016212464
235,0,161617,6,0,B|325:35|325:35|379:125|379:125|521:167,1,314.999990386963
511,148,162031,2,0,L|401:115,1,104.999996795654
235,252,162238,1,0,0:0:0:0:
315,231,162341,1,0,0:0:0:0:
396,209,162445,2,0,P|451:217|492:257,1,89.9999972534181
168,117,162652,2,0,P|114:101|60:119,1,89.9999972534181
319,248,162858,1,0,0:0:0:0:
294,335,162962,1,0,0:0:0:0:
315,231,163065,1,0,0:0:0:0:
208,266,163169,2,0,P|183:303|181:347,1,89.9999972534181
406,194,163376,1,0,0:0:0:0:
472,284,163479,2,0,P|441:320|397:335,1,89.9999972534181
331,121,163686,6,0,P|252:72|163:111,1,179.999994506836
248,190,163996,1,0,0:0:0:0:
332,105,164100,2,0,P|260:60|180:96,1,89.9999972534181
134,201,164307,6,0,P|136:303|184:383,1,179.999994506836
374,384,164617,1,0,0:0:0:0:
384,364,164721,2,0,P|384:319|360:277,1,89.9999972534181
50,317,164927,2,0,P|92:295|136:293,1,89.9999972534181
420,200,165134,5,0,0:0:0:0:
494,256,165238,1,0,0:0:0:0:
480,346,165341,6,0,B|445:383|385:375|384:362|384:350|318:334|267:377,1,209.999993591309
270,383,165652,1,0,0:0:0:0:
330,246,165755,6,0,P|332:202|313:150,1,89.9999972534181
165,322,165962,2,0,P|208:312|253:280,1,89.9999972534181
109,122,166169,2,0,P|76:156|68:213,1,89.9999972534181
221,195,166376,1,0,0:0:0:0:
230,166,166479,1,0,0:0:0:0:
231,129,166583,2,0,P|223:88|191:43,1,89.9999972534181
264,297,166790,2,0,P|295:269|318:219,1,89.9999972534181
483,97,166996,6,0,B|438:149|378:114|391:69|337:83|304:95,1,179.999994506836
305,78,167410,2,0,P|356:70|403:89,1,85.0000016212464
146,118,167617,2,0,P|172:73|217:49,1,85.0000016212464
35,17,167824,2,0,P|12:69|7:162,1,129.999994049073
31,236,168134,1,0,0:0:0:0:
51,229,168238,1,0,0:0:0:0:
84,230,168341,1,0,0:0:0:0:
130,247,168445,1,0,0:0:0:0:
210,279,168548,1,0,0:0:0:0:
288,340,168652,6,0,P|381:368|470:326,1,179.999994506836
405,164,168962,1,0,0:0:0:0:
382,160,169065,2,0,P|352:194|345:262,1,89.9999972534181
472,350,169272,2,0,P|506:243|481:160,1,179.999994506836
269,184,169583,1,0,0:0:0:0:
265,207,169686,2,0,P|299:237|367:244,1,89.9999972534181
498,164,169893,2,0,B|471:100|471:100|264:37,1,269.999991760254
145,129,170307,5,0,0:0:0:0:
264,48,170410,2,0,L|373:81,1,89.9999972534181
265,207,170617,1,0,0:0:0:0:
392,157,170721,2,0,B|416:166|416:166|458:270,1,89.9999972534181
242,129,170927,5,0,0:0:0:0:
166,232,171031,1,0,0:0:0:0:
277,221,171134,1,0,0:0:0:0:
219,136,171238,1,0,0:0:0:0:
234,303,171341,1,0,0:0:0:0:
425,332,171445,2,0,B|459:278|459:278|409:144,1,179.999994506836
340,23,171755,1,0,0:0:0:0:
335,32,171824,1,0,0:0:0:0:
331,42,171893,1,0,0:0:0:0:
326,53,171962,6,0,L|310:86,1,30
172,156,172376,6,0,B|115:184|77:170|77:160|77:149|30:136|-7:157,1,179.999994506836
31,234,172790,1,0,0:0:0:0:
46,244,172893,6,0,P|54:280|51:324,1,64.9999970245363
23,384,173100,1,0,0:0:0:0:
125,330,173203,1,0,0:0:0:0:
253,368,173307,1,0,0:0:0:0:
376,266,173410,2,0,P|365:209|337:180,1,80
182,50,173617,6,0,P|106:86|62:175,1,170.000003242493
265,235,173927,1,0,0:0:0:0:
272,247,174031,2,0,P|306:214|317:149,1,85.0000016212464
285,25,174238,6,0,P|271:107|307:183,1,170.000003242493
444,260,174548,1,0,0:0:0:0:
455,267,174652,2,0,P|471:222|455:159,1,85.0000016212464
370,56,174858,6,0,P|392:136|456:190,1,170.000003242493
369,338,175169,1,0,0:0:0:0:
374,352,175272,2,0,P|422:362|470:353,1,85.0000016212464
215,187,175479,2,0,P|187:231|173:273,1,85.0000016212464
35,384,175686,6,0,P|29:331|34:288,1,89.9999972534181
247,96,175893,2,0,P|230:145|207:183,1,89.9999972534181
7,190,176100,2,0,P|5:136|15:77,1,89.9999972534181
141,16,176307,1,0,0:0:0:0:
154,25,176410,2,0,P|158:69|156:114,1,89.9999972534181
38,283,176617,2,0,P|27:326|24:371,1,89.9999972534181
237,330,176824,1,0,0:0:0:0:
258,318,176927,6,0,B|296:267|265:209|253:208|240:207|221:157|258:107,1,209.999993591309
376,88,177238,1,0,0:0:0:0:
390,104,177341,2,0,P|395:130|385:173,1,55.0000016784668
154,201,177548,6,0,P|146:162|161:97,1,104.999996795654
376,169,177755,1,0,0:0:0:0:
429,233,177858,1,0,0:0:0:0:
378,287,177962,1,0,0:0:0:0:
417,324,178065,1,0,0:0:0:0:
403,348,178169,6,0,B|310:407|203:250|317:125,1,314.999990386963
464,70,178583,1,0,0:0:0:0:
512,141,178686,2,0,P|519:177|502:253,1,80
288,125,178893,1,0,0:0:0:0:
220,79,178996,2,0,P|210:39|230:-33,1,80
167,305,179203,2,0,P|179:348|157:417,1,80
261,237,179410,6,0,P|238:204|181:179,1,94.9999974632264
37,214,179617,2,0,P|30:162|50:116,1,94.9999974632264
164,321,179824,2,0,P|95:379|-22:357,1,189.999994926453
153,208,180134,1,0,0:0:0:0:
169,195,180238,6,0,P|183:96|97:32,1,160
5,91,180548,1,0,0:0:0:0:
1,113,180652,2,0,P|37:135|90:144,1,80
315,70,180858,2,0,P|347:100|374:155,1,89.9999972534181
139,61,181065,1,0,0:0:0:0:
209,22,181169,1,0,0:0:0:0:
233,108,181272,2,0,P|240:149|219:209,1,80
86,132,181479,2,0,P|49:115|5:69,1,94.9999974632264
365,154,181686,2,0,P|401:170|445:216,1,94.9999974632264
146,307,181893,6,0,P|264:313|351:266,1,209.999993591309
99,252,182203,2,0,P|203:307|302:301,1,209.999993591309
88,182,182514,2,0,P|159:276|251:312,1,209.999993591309
279,90,182824,1,0,0:0:0:0:
299,97,182927,2,0,P|308:149|270:217,1,104.999996795654
161,110,183134,1,0,0:0:0:0:
150,74,183238,1,0,0:0:0:0:
156,52,183341,2,0,P|175:16|205:-2,1,64.9999970245363
386,102,183548,6,0,L|472:126,1,89.9999972534181
382,221,183755,1,0,0:0:0:0:
494,141,183858,1,0,0:0:0:0:
500,288,183962,2,0,L|473:380,1,89.9999972534181
390,210,184169,1,0,0:0:0:0:
486,298,184272,1,0,0:0:0:0:
309,325,184376,2,0,L|198:331,1,89.9999972534181
255,187,184583,1,0,0:0:0:0:
125,323,184686,1,0,0:0:0:0:
313,304,184790,1,0,0:0:0:0:
248,212,184893,1,0,0:0:0:0:
216,351,184996,1,0,0:0:0:0:
373,372,185100,1,0,0:0:0:0:
418,246,185203,6,0,P|417:208|391:156,1,64.9999970245363
342,0,185410,2,0,P|357:29|379:54,1,64.9999970245363
480,144,185617,6,0,P|484:109|484:85,1,60
