osu file format v14

[General]
AudioFilename: audio.mp3
AudioLeadIn: 0
PreviewTime: 253211
Countdown: 0
SampleSet: Soft
StackLeniency: 0.3
Mode: 0
LetterboxInBreaks: 0
WidescreenStoryboard: 1

[Editor]
Bookmarks: 645,7265,13886,27127,40369,46989,53609,61850,88376,94997,107410,114031,127272,140514,147134,160376,186817,199076,211256,223469,230089,243288,256572,286334
DistanceSpacing: 0.6
BeatDivisor: 4
GridSize: 8
TimelineZoom: 3.390001

[Metadata]
Title:Kono Yubi Tomare
TitleUnicode:コノユビトマレ
Artist:JUNNA
ArtistUnicode:JUNNA
Creator:Atalanta
Version:Insane
Source:賭ケグルイ××
Tags:Kakegurui×× xx Season 2 Full Version OP Opening Japanese Anime Compulsive Gambler
BeatmapID:1981208
BeatmapSetID:942476

[Difficulty]
HPDrainRate:4
CircleSize:3.6
OverallDifficulty:8.2
ApproachRate:9
SliderMultiplier:1.6
SliderTickRate:1

[Events]
//Background and Video events
0,0,"Jabami Yumepog.jpg",0,0
//Break Periods
2,88576,94397
2,148996,157293
2,187017,190840
2,226979,228248
//Storyboard Layer 0 (Background)
//Storyboard Layer 1 (Fail)
//Storyboard Layer 2 (Pass)
//Storyboard Layer 3 (Foreground)
//Storyboard Layer 4 (Overlay)
//Storyboard Sound Samples

[TimingPoints]
645,413.793103448276,4,2,11,25,1,0
645,-166.666666666667,4,2,11,25,0,0
3955,-166.666666666667,4,2,11,45,0,0
5610,-100,4,2,3,50,0,0
6438,-83.3333333333333,4,2,3,60,0,0
7265,-50,4,2,1,70,0,0
13886,-66.6666666666667,4,2,2,60,0,0
27127,-58.8235294117647,4,2,2,60,0,0
40369,-58.8235294117647,4,2,2,50,0,0
43679,461.538461538462,4,2,2,50,1,0
43679,-100,4,2,2,50,0,0
44602,419.58041958042,4,2,2,50,1,0
44602,-100,4,2,2,50,0,0
45441,410.958904109589,4,2,2,50,1,0
45441,-100,4,2,2,50,0,0
46262,363.636363636364,4,2,2,50,1,0
46262,-100,4,2,2,50,0,0
46989,413.793103448276,4,2,11,45,1,0
46989,-100,4,2,11,45,0,0
51954,495.867768595041,4,2,1,60,1,0
51954,-66.6666666666667,4,2,1,60,0,0
52254,389.61038961039,4,2,1,60,1,0
52550,535.714285714286,4,2,1,60,1,0
52550,-66.6666666666667,4,2,1,60,0,0
52817,365.853658536585,4,2,1,60,1,0
52817,-66.6666666666667,4,2,1,60,0,0
53596,425.531914893617,4,2,1,60,1,0
53596,-58.8235294117647,4,2,1,60,0,0
54023,413.793103448276,4,2,1,60,1,0
54023,-58.8235294117647,4,2,1,60,0,0
56920,-100,4,2,1,40,0,0
57126,-100,4,2,1,45,0,0
57333,-100,4,2,1,50,0,0
57540,-83.3333333333333,4,2,1,55,0,0
57747,-83.3333333333333,4,2,1,60,0,0
57954,-83.3333333333333,4,2,1,65,0,0
58161,-71.4285714285714,4,2,1,70,0,0
58368,-71.4285714285714,4,2,1,75,0,0
58575,-62.5,4,2,1,70,0,0
61084,372.670807453416,4,2,1,70,1,0
61456,394.736842105263,4,2,1,70,1,0
61850,458.015267175573,4,2,1,80,1,1
61850,-45.4545454545455,4,2,1,80,0,1
62308,413.793103448276,4,2,1,80,1,1
62308,-45.4545454545455,4,2,1,80,0,1
63549,413.793103448276,4,2,1,80,1,1
63549,-45.4545454545455,4,2,1,80,0,1
73480,-66.6666666666667,4,2,1,70,0,0
75135,-45.4545454545455,4,2,1,80,0,1
87135,-1000,4,2,1,60,0,0
94997,413.793103448276,7,2,1,60,1,0
94997,-66.6666666666667,7,2,1,60,0,0
100790,413.793103448276,4,2,2,70,1,0
100790,-50,4,2,2,70,0,0
102031,-50,4,2,2,40,0,0
102238,-66.6666666666667,4,2,2,60,0,0
105755,512.820512820513,4,2,2,60,1,0
105755,-66.6666666666667,4,2,2,60,0,0
106908,413.793103448276,4,2,2,60,1,0
107410,413.793103448276,4,2,11,50,1,0
107410,-66.6666666666667,4,2,11,50,0,0
114031,-58.8235294117647,4,2,2,60,0,0
132237,375,4,2,2,60,1,0
132237,-58.8235294117647,4,2,2,60,0,0
132750,375,4,2,2,60,1,0
132750,-58.8235294117647,4,2,2,60,0,0
133065,413.793103448276,4,2,2,60,1,0
133065,-58.8235294117647,4,2,2,60,0,0
133893,413.793103448276,4,2,1,60,1,0
133893,-58.8235294117647,4,2,1,60,0,0
138858,437.956204379562,4,2,1,60,1,0
138858,-58.8235294117647,4,2,1,60,0,0
139733,480,4,2,1,60,1,0
139733,-58.8235294117647,4,2,1,60,0,0
140514,413.793103448276,4,2,1,60,1,0
140514,-58.8235294117647,4,2,1,60,0,0
143824,-100,4,2,1,40,0,0
144031,-100,4,2,1,45,0,0
144238,-100,4,2,1,50,0,0
144445,-83.3333333333333,4,2,1,55,0,0
144652,-83.3333333333333,4,2,1,60,0,0
144858,-83.3333333333333,4,2,1,65,0,0
145065,-71.4285714285714,4,2,1,70,0,0
145272,-71.4285714285714,4,2,1,75,0,0
145479,-62.5,4,2,1,70,0,0
157893,-100,4,2,1,60,0,0
160376,-45.4545454545455,4,2,1,80,0,1
171962,-66.6666666666667,4,2,1,70,0,0
173617,-45.4545454545455,4,2,1,80,0,1
185617,400,4,2,1,60,1,0
185617,-1000,4,2,1,60,0,0
186817,400,4,2,1,60,1,0
188817,352.941176470588,4,2,1,60,1,0
189169,377.358490566038,4,2,1,60,1,0
189923,422.535211267606,4,2,1,60,1,0
191440,379.746835443038,4,2,1,60,1,0
192958,-76.9230769230769,4,2,1,60,0,0
193338,392.156862745098,4,2,1,60,1,0
193338,-76.9230769230769,4,2,1,60,0,0
193730,370.37037037037,4,2,1,60,1,0
193730,-76.9230769230769,4,2,1,60,0,0
194470,408.163265306122,4,2,1,60,1,0
194470,-76.9230769230769,4,2,1,60,0,0
194841,413.793103448276,4,2,1,60,1,0
194841,-76.9230769230769,4,2,1,60,0,0
195254,400,4,2,1,60,1,0
195254,-76.9230769230769,4,2,1,60,0,0
195520,375,4,2,1,60,1,0
195645,375,4,2,1,60,1,0
195645,-76.9230769230769,4,2,1,60,0,0
196801,375,4,2,1,60,1,0
196801,-76.9230769230769,4,2,1,60,0,0
197157,375,4,2,1,60,1,0
197157,-76.9230769230769,4,2,1,60,0,0
197904,413.793103448276,4,2,1,60,1,0
197904,-76.9230769230769,4,2,1,60,0,0
198317,379.746835443038,4,2,1,60,1,0
198317,-76.9230769230769,4,2,1,60,0,0
199076,413.793103448276,4,2,1,60,1,0
199076,-76.9230769230769,4,2,1,60,0,0
199489,363.636363636364,4,2,1,60,1,0
199489,-76.9230769230769,4,2,1,60,0,0
200216,387.096774193548,4,2,1,60,1,0
200216,-76.9230769230769,4,2,1,60,0,0
200603,375,4,2,1,60,1,0
200603,-76.9230769230769,4,2,1,60,0,0
202145,379.746835443038,4,2,1,60,1,0
202145,-76.9230769230769,4,2,1,60,0,0
202524,370.37037037037,4,2,1,60,1,0
202524,-76.9230769230769,4,2,1,60,0,0
203264,382.165605095541,4,2,1,60,1,0
203264,-76.9230769230769,4,2,1,60,0,0
204410,375,4,2,1,60,1,0
204410,-76.9230769230769,4,2,1,60,0,0
204785,413.793103448276,4,2,1,60,1,0
204785,-76.9230769230769,4,2,1,60,0,0
205198,375,4,2,1,60,1,0
205198,-76.9230769230769,4,2,1,60,0,0
205573,352.941176470588,4,2,1,60,1,0
205573,-76.9230769230769,4,2,1,60,0,0
205925,375,4,2,1,60,1,0
205925,-76.9230769230769,4,2,1,60,0,0
206300,400,4,2,1,60,1,0
206300,-76.9230769230769,4,2,1,60,0,0
206700,361.44578313253,4,2,1,60,1,0
206700,-76.9230769230769,4,2,1,60,0,0
207061,372.670807453416,4,2,1,60,1,0
207061,-76.9230769230769,4,2,1,60,0,0
207433,405.405405405405,4,2,1,60,1,0
207433,-76.9230769230769,4,2,1,60,0,0
207838,387.096774193548,4,2,1,60,1,0
207838,-76.9230769230769,4,2,1,60,0,0
208999,359.281437125748,4,2,1,60,1,0
208999,-76.9230769230769,4,2,1,60,0,0
209358,379.746835443038,4,2,1,60,1,0
209358,-76.9230769230769,4,2,1,60,0,0
211256,379.746835443038,4,2,1,60,1,0
211256,-76.9230769230769,4,2,1,60,0,0
211635,413.793103448276,4,2,1,60,1,0
211635,-76.9230769230769,4,2,1,60,0,0
212048,375,4,2,1,60,1,0
212048,-76.9230769230769,4,2,1,60,0,0
214298,419.58041958042,4,2,1,60,1,0
214298,-76.9230769230769,4,2,1,60,0,0
214717,363.636363636364,4,2,1,60,1,0
214717,-76.9230769230769,4,2,1,60,0,0
215856,379.746835443038,4,2,1,60,1,0
215856,-76.9230769230769,4,2,1,60,0,0
216220,375,4,2,1,60,1,0
216220,-76.9230769230769,4,2,1,60,0,0
216595,375,4,2,1,60,1,0
216595,-76.9230769230769,4,2,1,60,0,0
216980,413.793103448276,4,2,1,60,1,0
216980,-76.9230769230769,4,2,1,60,0,0
217383,375,4,2,1,60,1,0
217383,-76.9230769230769,4,2,1,60,0,0
218508,400,4,2,1,60,1,0
218508,-76.9230769230769,4,2,1,60,0,0
218908,375,4,2,1,60,1,0
218908,-76.9230769230769,4,2,1,60,0,0
220033,387.096774193548,4,2,1,60,1,0
220033,-76.9230769230769,4,2,1,60,0,0
220420,387.096774193548,4,2,1,60,1,0
220420,-76.9230769230769,4,2,1,60,0,0
221194,375,4,2,1,60,1,0
221194,-76.9230769230769,4,2,1,60,0,0
222355,375,4,2,1,60,1,0
222355,-76.9230769230769,4,2,1,60,0,0
222742,363.636363636364,4,2,1,60,1,0
222742,-76.9230769230769,4,2,1,60,0,0
223469,413.793103448276,4,2,1,60,1,0
228848,-66.6666666666667,4,2,1,60,0,0
230089,-66.6666666666667,4,2,1,60,0,0
235055,-58.8235294117647,4,2,1,70,0,0
236710,-66.6666666666667,4,2,1,60,0,0
241675,-58.8235294117647,4,2,1,70,0,0
242503,400,4,2,1,71,1,1
242503,-66.6666666666667,4,2,1,71,0,1
243288,394.736842105263,4,2,1,71,1,1
243288,-45.4545454545455,4,2,1,71,0,1
243386,394.736842105263,4,2,1,71,1,0
243386,-45.4545454545455,4,2,1,71,0,0
243565,394.736842105263,4,2,1,71,1,0
243565,-45.4545454545455,4,2,1,71,0,0
244175,422.535211267606,4,2,1,71,1,1
244175,-45.4545454545455,4,2,1,71,0,1
244587,422.535211267606,4,2,1,71,1,1
244587,-45.4545454545455,4,2,1,71,0,1
245020,359.281437125748,4,2,1,71,1,1
245020,-45.4545454545455,4,2,1,71,0,1
245199,392.156862745098,4,2,1,71,1,0
245199,-45.4545454545455,4,2,1,71,0,0
245591,425.531914893617,4,2,1,71,1,1
245591,-45.4545454545455,4,2,1,71,0,1
245910,425.531914893617,4,2,1,71,1,0
245910,-45.4545454545455,4,2,1,71,0,0
246421,437.956204379562,4,2,1,71,1,1
246421,-45.4545454545455,4,2,1,71,0,1
246640,472.44094488189,4,2,1,71,1,0
246640,-45.4545454545455,4,2,1,71,0,0
246876,387.096774193548,4,2,1,71,1,1
246876,-45.4545454545455,4,2,1,71,0,1
247263,413.793103448276,4,2,1,71,1,0
247263,-45.4545454545455,4,2,1,71,0,0
247469,387.096774193548,4,2,1,71,1,1
247469,-45.4545454545455,4,2,1,71,0,1
248243,361.44578313253,4,2,1,71,1,1
248243,-45.4545454545455,4,2,1,71,0,1
248604,389.61038961039,4,2,1,71,1,1
248604,-45.4545454545455,4,2,1,71,0,1
248993,434.782608695652,4,2,1,71,1,1
248993,-45.4545454545455,4,2,1,71,0,1
249427,394.736842105263,4,2,1,71,1,1
249427,-45.4545454545455,4,2,1,71,0,1
249624,434.782608695652,4,2,1,71,1,1
249624,-45.4545454545455,4,2,1,71,0,1
249940,359.281437125748,4,2,1,71,1,1
249940,-45.4545454545455,4,2,1,71,0,1
250299,359.281437125748,4,2,1,71,1,1
250299,-45.4545454545455,4,2,1,71,0,1
250774,422.535211267606,4,2,1,71,1,0
250774,-45.4545454545455,4,2,1,71,0,0
251196,379.746835443038,4,2,1,71,1,1
251196,-45.4545454545455,4,2,1,71,0,1
251385,425.531914893617,4,2,1,71,1,0
251385,-45.4545454545455,4,2,1,71,0,0
251597,451.127819548872,4,2,1,71,1,1
251597,-45.4545454545455,4,2,1,71,0,1
251806,461.538461538462,4,2,1,71,1,1
251806,-45.4545454545455,4,2,1,71,0,1
252048,363.636363636364,4,2,1,71,1,0
252048,-45.4545454545455,4,2,1,71,0,0
252267,379.746835443038,4,2,1,71,1,1
252267,-45.4545454545455,4,2,1,71,0,1
252452,400,4,2,1,71,1,0
252452,-45.4545454545455,4,2,1,71,0,0
252852,410.958904109589,4,2,1,71,1,1
252852,-45.4545454545455,4,2,1,71,0,1
253264,400,4,2,2,40,1,0
253264,-1000,4,2,2,40,0,0
254917,413.793103448276,4,2,1,80,1,1
254917,-45.4545454545455,4,2,1,80,0,1
255951,441.176470588235,4,2,1,65,1,0
255951,-166.666666666667,4,2,1,65,0,0
256571,413.793103448276,4,2,1,80,1,1
256571,-45.4545454545455,4,2,1,80,0,1
259467,-45.4545454545455,4,2,1,80,0,0
259502,-45.4545454545455,4,2,2,80,0,0
259881,-45.4545454545455,4,2,1,80,0,1
266502,419.58041958042,4,2,1,80,1,1
266502,-45.4545454545455,4,2,1,80,0,1
268180,-100,4,2,1,70,0,0
268599,413.793103448276,4,2,1,70,1,0
268599,-66.6666666666667,4,2,1,70,0,0
269840,400,4,2,1,80,1,1
269840,-45.4545454545455,4,2,1,80,0,1
270840,413.793103448276,4,2,1,80,1,1
270840,-45.4545454545455,4,2,1,80,0,1
271460,413.793103448276,4,2,1,80,1,1
271460,-45.4545454545455,4,2,1,80,0,1
281391,-45.4545454545455,4,2,1,70,0,0
281804,-66.6666666666667,4,2,1,70,0,0
283046,-50,4,2,1,80,0,1
284701,-50,4,2,1,70,0,0
285115,-66.6666666666667,4,2,1,70,0,0
286334,428.571428571429,4,2,1,60,1,0
286334,-50,4,2,1,60,0,0
288048,387.096774193548,4,2,1,60,1,0
288048,-50,4,2,1,60,0,0
288435,413.793103448276,4,2,1,60,1,0
288435,-50,4,2,1,60,0,0
289676,413.793103448276,4,2,1,60,1,0
289676,-50,4,2,1,60,0,0
292572,-50,4,2,1,70,0,0
292779,-50,4,2,1,80,0,0

[Colours]
Combo1 : 163,50,50
Combo2 : 192,192,192
Combo3 : 128,128,128
Combo4 : 255,128,128

[HitObjects]
71,244,645,5,0,3:2:0:0:
136,351,851,1,2,0:2:0:0:
136,351,1058,2,0,L|206:337,1,71.9999978027344,2|0,0:2|0:2,0:0:0:0:
230,354,1472,2,0,L|277:359,1,47.9999985351563,2|0,0:2|0:2,0:0:0:0:
393,269,1886,1,2,0:2:0:0:
378,284,1989,2,0,P|369:306|365:329,1,47.9999985351563,2|0,1:2|0:2,0:0:0:0:
426,380,2300,5,0,0:2:0:0:
512,292,2507,1,2,0:2:0:0:
512,292,2713,2,0,L|500:220,1,71.9999978027344,2|0,0:2|0:2,0:0:0:0:
470,202,3127,2,0,L|478:154,1,47.9999985351563,2|0,0:2|0:2,0:0:0:0:
492,46,3541,1,2,0:2:0:0:
477,61,3644,2,0,P|454:69|431:73,1,47.9999985351563,2|0,1:2|0:2,0:0:0:0:
381,13,3955,37,2,1:2:0:0:
295,110,4162,1,2,0:2:0:0:
295,110,4369,2,0,P|259:102|223:103,1,71.9999978027344,2|0,0:2|0:2,0:0:0:0:
196,124,4782,2,0,P|175:134|151:138,1,47.9999985351563,2|0,0:2|0:2,0:0:0:0:
48,48,5196,1,2,0:2:0:0:
63,63,5300,2,0,P|71:85|75:109,1,47.9999985351563,2|0,1:2|0:2,0:0:0:0:
25,179,5610,22,0,P|17:204|11:230,1,53.3333333333333,2|0,1:2|0:2,0:0:0:0:
113,273,5817,2,0,P|105:247|99:221,1,53.3333333333333,2|0,0:2|0:2,0:0:0:0:
218,248,6024,6,0,P|225:273|231:299,1,53.3333333333333,2|0,1:2|0:2,0:0:0:0:
130,342,6231,2,0,P|137:316|143:290,1,53.3333333333333,2|0,0:2|0:2,0:0:0:0:
262,173,6438,38,0,L|293:180,2,31.9999990234375,2|0|2,1:2|0:2|0:2,0:0:0:0:
316,269,6645,2,0,L|347:261,2,31.9999990234375,2|0|2,1:2|0:2|0:2,0:0:0:0:
388,180,6851,6,0,L|419:187,2,31.9999990234375,2|0|2,1:2|0:2|0:2,0:0:0:0:
442,276,7058,2,0,L|473:268,2,31.9999990234375,2|0|0,1:2|0:0|0:2,0:0:0:0:
376,369,7265,38,0,P|357:291|362:211,1,160,4|0,1:2|0:2,0:0:0:0:
377,194,7576,1,2,0:2:0:0:
388,180,7679,2,0,P|393:140|393:100,1,80,8|0,0:2|0:2,0:0:0:0:
258,130,7886,2,0,P|196:81|117:76,1,160,2|2,1:2|0:2,0:0:0:0:
96,91,8196,1,2,0:2:0:0:
85,115,8300,2,0,L|90:194,1,80,2|0,1:2|0:2,0:0:0:0:
188,218,8507,2,0,L|177:377,1,160,8|2,0:2|0:2,0:0:0:0:
442,276,8920,5,2,1:2:0:0:
298,125,9127,2,0,P|283:162|277:201,1,80,2|0,0:1|1:2,0:0:0:0:
363,326,9334,2,0,P|293:291|217:309,1,160,10|2,0:1|0:2,0:0:0:0:
48,200,9748,1,2,0:2:0:0:
63,205,9852,1,0,0:2:0:0:
73,217,9955,2,0,P|87:254|93:293,1,80,2|0,1:1|0:2,0:0:0:0:
175,183,10162,2,0,P|142:113|172:41,1,160,10|2,0:1|0:2,0:0:0:0:
248,16,10472,1,2,0:2:0:0:
256,32,10576,37,2,1:1:0:0:
400,80,10782,2,0,L|408:0,1,80,2|0,0:2|1:2,0:0:0:0:
464,160,10989,2,0,B|432:192|432:192|319:168,1,160,10|0,0:1|1:2,0:0:0:0:
304,176,11300,1,0,0:2:0:0:
296,192,11403,2,0,L|304:272,1,80,2|2,1:2|0:2,0:0:0:0:
416,368,11610,2,0,P|382:346|342:345,1,80,2|0,1:1|0:2,0:0:0:0:
184,240,11817,2,0,P|224:320|192:384,1,160,10|2,0:1|0:2,0:0:0:0:
0,376,12231,5,2,1:2:0:0:
80,280,12438,2,0,P|87:240|84:201,1,80,2|0,0:1|0:2,0:0:0:0:
0,64,12645,2,0,P|64:108|143:105,1,160,10|2,0:1|0:2,0:0:0:0:
196,49,12955,1,10,0:2:0:0:
212,31,13058,1,0,1:2:0:0:
230,15,13162,2,0,B|269:5|269:5|307:16,1,80,8|0,0:2|1:2,0:0:0:0:
432,6,13369,1,8,0:2:0:0:
409,22,13472,2,0,P|394:59|386:98,1,80,8|0,0:2|0:2,0:0:0:0:
488,152,13679,1,8,0:2:0:0:
505,173,13782,1,8,0:2:0:0:
503,201,13886,6,0,B|423:169|423:241|329:194,1,180.000006866455,4|0,1:2|1:2,0:0:0:0:
304,176,14300,1,10,0:2:0:0:
464,288,14507,1,2,1:2:0:0:
460,303,14610,1,8,1:2:0:0:
456,318,14713,1,0,0:0:0:0:
360,368,14920,1,0,1:2:0:0:
240,248,15127,2,0,P|266:300|249:355,1,120.000004577637,10|10,0:2|0:2,0:0:0:0:
176,368,15438,1,8,0:2:0:0:
160,360,15541,21,0,1:2:0:0:
16,384,15748,1,2,0:2:0:0:
1,237,15955,2,0,P|52:265|112:264,1,120.000004577637,10|2,0:2|1:2,0:0:0:0:
118,248,16265,1,8,0:2:0:0:
123,233,16369,2,0,L|115:173,1,60.0000022888184,0|8,0:0|0:2,0:0:0:0:
24,98,16576,1,0,1:2:0:0:
150,29,16782,2,0,L|135:148,1,120.000004577637,10|10,0:2|0:2,0:0:0:0:
210,169,17093,1,8,0:2:0:0:
221,155,17196,21,0,1:2:0:0:
339,198,17403,1,2,0:2:0:0:
320,44,17610,2,0,P|307:70|301:100,1,60.0000022888184,10|0,0:2|0:2,0:0:0:0:
441,224,17817,2,0,P|438:164|405:115,1,120.000004577637,2|2,1:2|0:2,0:0:0:0:
394,115,18127,1,8,0:2:0:0:
385,126,18231,1,0,1:2:0:0:
259,244,18438,2,0,P|235:299|228:358,1,120.000004577637,10|8,0:2|0:2,0:0:0:0:
308,367,18748,1,8,0:2:0:0:
318,356,18851,22,0,L|377:364,1,60.0000022888184,2|0,1:2|0:2,0:0:0:0:
421,254,19058,2,0,L|361:262,1,60.0000022888184,2|0,0:2|1:2,0:0:0:0:
240,215,19265,2,0,P|188:185|129:176,1,120.000004577637,10|0,0:2|1:2,0:0:0:0:
116,184,19576,1,8,0:2:0:0:
105,194,19679,2,0,P|93:221|86:250,1,60.0000022888184,0|8,1:2|0:2,0:0:0:0:
126,347,19886,1,0,1:2:0:0:
0,232,20093,2,0,P|20:176|21:117,1,120.000004577637,8|8,0:2|0:2,0:0:0:0:
85,67,20403,1,8,0:2:0:0:
89,50,20507,21,2,1:2:0:0:
282,51,20713,1,0,0:2:0:0:
283,75,20817,1,0,1:2:0:0:
275,99,20920,2,0,P|218:115|163:93,1,120.000004577637,8|0,0:2|0:2,0:0:0:0:
359,5,21334,2,0,P|367:33|369:63,1,60.0000022888184,2|0,1:2|0:2,0:0:0:0:
425,134,21541,2,0,P|416:162|414:192,1,60.0000022888184,0|0,1:2|0:2,0:0:0:0:
290,207,21748,2,0,P|312:262|314:321,1,120.000004577637,8|0,0:2|0:0,0:0:0:0:
248,362,22058,1,0,0:2:0:0:
232,356,22162,21,2,1:2:0:0:
78,297,22369,1,0,0:2:0:0:
85,279,22472,1,0,1:2:0:0:
98,267,22576,2,0,P|153:283|203:252,1,120.000004577637,8|0,0:2|0:2,0:0:0:0:
24,201,22989,2,0,P|9:227|2:256,1,60.0000022888184,2|0,1:2|0:2,0:0:0:0:
142,179,23196,2,0,P|134:149|120:123,1,60.0000022888184,0|0,1:2|0:2,0:0:0:0:
0,15,23403,2,0,P|56:35|115:37,1,120.000004577637,8|0,0:2|0:0,0:0:0:0:
195,0,23713,1,8,0:2:0:0:
199,18,23817,22,0,L|173:135,1,120.000004577637,2|0,1:2|0:2,0:0:0:0:
258,181,24127,1,0,1:2:0:0:
273,196,24231,2,0,L|298:313,1,120.000004577637,10|0,0:2|1:2,0:0:0:0:
440,264,24645,1,0,0:0:0:0:
424,259,24748,1,8,0:2:0:0:
409,255,24851,1,0,1:2:0:0:
336,128,25058,2,0,P|387:157|447:158,1,120.000004577637,10|0,0:2|0:2,0:0:0:0:
392,48,25369,1,0,1:2:0:0:
368,36,25472,22,0,P|308:37|256:66,1,120.000004577637,10|0,0:2|1:2,0:0:0:0:
204,144,25782,1,0,1:2:0:0:
184,152,25886,2,0,P|124:150|72:121,1,120.000004577637,10|0,0:2|1:2,0:0:0:0:
152,0,26300,1,2,0:2:0:0:
157,16,26403,1,8,0:2:0:0:
161,31,26506,1,0,1:2:0:0:
40,116,26713,1,8,0:2:0:0:
112,244,26920,1,8,0:2:0:0:
116,284,27024,1,8,0:2:0:0:
92,316,27127,6,0,P|156:294|223:292,1,136.000002593994,4|0,1:2|0:2,0:0:0:0:
236,304,27438,1,0,1:2:0:0:
247,315,27541,1,10,0:2:0:0:
336,198,27748,1,0,1:2:0:0:
445,309,27955,2,0,P|451:342|452:376,1,68.0000012969971,2|0,0:2|1:2,0:0:0:0:
343,293,28162,2,0,P|343:259|350:225,1,68.0000012969971,2|0,1:2|0:2,0:0:0:0:
502,183,28369,2,0,P|436:185|399:131,1,136.000002593994,10|0,0:2|0:2,0:0:0:0:
438,65,28679,1,0,1:2:0:0:
454,63,28782,5,2,1:2:0:0:
294,15,28989,1,2,0:2:0:0:
276,28,29093,1,0,1:2:0:0:
258,40,29196,2,0,L|246:109,1,68.0000012969971,10|0,0:2|0:2,0:0:0:0:
277,188,29403,1,0,1:2:0:0:
159,91,29610,2,0,P|126:84|92:81,1,68.0000012969971,2|0,0:2|1:2,0:0:0:0:
27,205,29817,2,0,P|60:201|94:194,1,68.0000012969971,0|0,1:2|0:2,0:0:0:0:
167,291,30024,2,0,P|231:272|296:290,1,136.000002593994,8|0,0:2|0:2,0:0:0:0:
356,346,30334,1,0,1:2:0:0:
370,333,30438,38,0,L|383:266,1,68.0000012969971,0|0,1:2|0:2,0:0:0:0:
504,218,30645,2,0,L|490:151,1,68.0000012969971,0|0,1:2|1:2,0:0:0:0:
398,56,30851,1,10,0:2:0:0:
299,174,31058,1,2,1:2:0:0:
318,184,31162,1,0,0:0:0:0:
343,185,31265,2,0,P|376:177|410:177,1,68.0000012969971,2|8,0:2|0:2,0:0:0:0:
298,58,31472,2,0,P|264:50|230:50,1,68.0000012969971,0|0,1:2|0:2,0:0:0:0:
181,161,31679,2,0,P|120:191|53:193,1,136.000002593994,10|0,0:2|0:2,0:0:0:0:
9,132,31989,1,2,0:2:0:0:
13,118,32093,5,0,1:2:0:0:
104,19,32300,1,0,1:2:0:0:
109,35,32403,1,2,1:2:0:0:
113,50,32506,1,8,0:2:0:0:
181,161,32713,1,2,1:2:0:0:
176,177,32816,1,0,1:2:0:0:
172,192,32920,2,0,L|180:259,1,68.0000012969971,0|8,1:2|0:2,0:0:0:0:
15,340,33127,2,0,L|23:272,1,68.0000012969971,0|0,1:2|1:2,0:0:0:0:
145,374,33334,2,0,P|203:341|270:335,1,136.000002593994,8|0,0:2|1:2,0:0:0:0:
341,368,33645,1,0,1:2:0:0:
352,349,33748,37,2,1:2:0:0:
468,275,33955,1,0,0:2:0:0:
463,259,34058,1,0,1:2:0:0:
459,243,34162,2,0,P|484:181|486:113,1,136.000002593994,8|0,0:2|0:2,0:0:0:0:
295,237,34576,2,0,P|327:247|361:252,1,68.0000012969971,2|0,1:2|1:2,0:0:0:0:
394,118,34782,2,0,P|360:122|327:133,1,68.0000012969971,0|0,1:2|0:2,0:0:0:0:
256,32,34989,2,0,P|190:18|126:40,1,136.000002593994,8|0,0:2|0:0,0:0:0:0:
77,104,35300,1,0,0:2:0:0:
82,121,35403,5,2,1:2:0:0:
192,216,35610,1,0,0:2:0:0:
184,234,35713,1,0,1:2:0:0:
170,250,35817,2,0,P|107:224|39:221,1,136.000002593994,8|0,0:2|0:2,0:0:0:0:
239,346,36231,2,0,P|251:314|256:280,1,68.0000012969971,2|0,1:2|0:2,0:0:0:0:
95,315,36438,2,0,P|99:348|112:380,1,68.0000012969971,0|0,1:2|0:2,0:0:0:0:
192,215,36645,2,0,P|203:149|203:81,1,136.000002593994,8|0,0:2|1:2,0:0:0:0:
129,34,36955,1,0,1:2:0:0:
121,51,37058,38,0,P|185:70|252:63,1,136.000002593994,2|0,1:2|0:2,0:0:0:0:
332,14,37369,1,0,1:2:0:0:
347,2,37472,2,0,P|414:-5|478:14,1,136.000002593994,10|0,0:2|1:2,0:0:0:0:
324,140,37886,1,2,0:2:0:0:
328,124,37989,1,8,0:2:0:0:
332,109,38093,1,0,0:0:0:0:
484,104,38300,2,0,L|501:238,1,136.000002593994,10|0,0:2|0:0,0:0:0:0:
448,312,38610,1,0,0:2:0:0:
432,332,38713,6,0,P|377:293|310:291,1,136.000002593994,2|0,1:2|0:2,0:0:0:0:
232,344,39024,1,0,1:2:0:0:
212,356,39127,2,0,P|144:354|90:315,1,136.000002593994,10|0,0:2|1:2,0:0:0:0:
76,300,39438,1,8,0:2:0:0:
64,284,39541,2,0,L|74:216,1,68.0000012969971,8|0,0:2|0:0,0:0:0:0:
168,144,39748,1,0,1:2:0:0:
172,112,39851,1,8,0:2:0:0:
159,87,39955,2,0,P|127:73|94:70,1,68.0000012969971,8|0,0:2|0:2,0:0:0:0:
305,4,40162,1,8,0:2:0:0:
287,44,40265,1,8,0:2:0:0:
291,87,40369,5,4,1:2:0:0:
291,87,41196,1,2,0:2:0:0:
291,87,42024,1,2,0:2:0:0:
291,87,42851,1,2,0:2:0:0:
436,212,43679,37,2,0:2:0:0:
436,212,44602,1,2,0:2:0:0:
436,212,45441,1,2,0:2:0:0:
436,212,46262,1,2,0:2:0:0:
436,212,46989,6,0,P|379:191|320:198,1,120,0|2,3:2|0:2,0:0:0:0:
228,300,47609,2,0,L|222:339,1,40,2|2,0:2|0:2,0:0:0:0:
304,372,47816,2,0,P|340:356|380:353,1,80,2|0,0:2|0:2,0:0:0:0:
436,212,48230,1,2,0:2:0:0:
409,197,48333,1,2,0:2:0:0:
380,191,48436,1,2,0:2:0:0:
350,192,48540,1,2,0:2:0:0:
320,198,48644,38,0,P|348:145|348:86,1,120,2|2,0:2|0:2,0:0:0:0:
208,108,49264,2,0,L|246:117,1,40,2|2,0:2|0:2,0:0:0:0:
224,16,49471,2,0,L|145:30,1,80,2|0,0:2|0:2,0:0:0:0:
48,96,49885,1,2,0:2:0:0:
45,125,49988,1,2,0:2:0:0:
51,155,50091,1,2,0:2:0:0:
65,181,50195,1,2,0:2:0:0:
86,203,50299,6,0,P|48:248|28:304,1,120,2|2,1:2|0:2,0:0:0:0:
160,352,50920,2,0,L|156:312,1,40,2|2,0:2|0:2,0:0:0:0:
232,248,51126,2,0,P|269:261|309:267,1,80,2|0,0:2|0:2,0:0:0:0:
494,314,51540,1,2,0:2:0:0:
487,284,51643,1,2,0:2:0:0:
487,253,51746,1,2,0:2:0:0:
496,226,51850,1,2,0:2:0:0:
512,200,51954,6,0,B|480:176|480:176|440:174,1,80.0000030517579,8|0,0:2|1:2,0:0:0:0:
368,60,52254,2,0,B|328:55|328:55|292:73,1,80.0000030517579,8|0,0:2|1:2,0:0:0:0:
240,224,52550,2,0,B|200:200|200:200|127:213,1,120.000004577637,8|0,0:2|1:2,0:0:0:0:
24,272,52908,1,8,0:2:0:0:
12,288,52999,2,0,L|2:347,1,60.0000022888184,8|8,0:2|0:2,0:0:0:0:
217,362,53182,5,0,1:2:0:0:
233,330,53274,1,0,1:2:0:0:
243,295,53365,1,10,0:2:0:0:
246,259,53457,1,8,0:2:0:0:
239,223,53596,38,0,P|224:158|228:90,1,136.000002593994,4|0,1:2|0:2,0:0:0:0:
280,32,53915,1,2,1:2:0:0:
292,28,54023,1,8,0:2:0:0:
360,140,54230,1,2,1:2:0:0:
386,161,54333,1,8,0:2:0:0:
417,174,54436,1,0,1:2:0:0:
451,176,54540,1,10,0:2:0:0:
484,169,54643,1,0,1:2:0:0:
456,16,54851,2,0,P|441:46|436:80,1,68.0000012969971,8|0,0:2|0:0,0:0:0:0:
484,169,55057,1,2,1:2:0:0:
391,323,55264,38,0,P|337:284|270:273,1,136.000002593994,2|0,1:2|0:2,0:0:0:0:
200,304,55575,1,2,1:2:0:0:
196,320,55678,1,8,0:2:0:0:
32,376,55885,2,0,L|24:308,1,68.0000012969971,2|0,1:2|0:0,0:0:0:0:
80,232,56092,1,0,0:2:0:0:
84,208,56195,1,8,0:2:0:0:
88,184,56299,1,2,1:2:0:0:
0,80,56506,2,0,B|96:40|96:120|197:74,1,204.000003890991,8|0,0:2|0:2,0:0:0:0:
264,32,56920,38,0,P|283:37|303:37,1,40,10|0,1:2|0:2,0:0:0:0:
318,113,57126,2,0,P|337:107|354:97,1,40,8|0,1:2|0:2,0:0:0:0:
405,156,57333,2,0,P|419:141|429:124,1,40,8|0,1:2|0:2,0:0:0:0:
230,154,57540,6,0,P|211:172|189:185,1,47.9999985351563,10|0,1:2|0:2,0:0:0:0:
220,279,57747,2,0,P|197:284|173:286,1,47.9999985351563,8|0,1:2|0:2,0:0:0:0:
151,384,57953,2,0,P|125:377|103:364,1,47.9999985351563,8|0,1:2|0:2,0:0:0:0:
108,187,58161,6,0,P|112:159|121:132,1,55.9999982910157,10|0,0:2|0:2,0:0:0:0:
294,242,58368,2,0,P|312:220|332:201,1,55.9999982910157,8|0,1:2|0:2,0:0:0:0:
216,0,58575,6,0,B|177:93|257:93|218:185,5,192,4|0|0|0|0|0,1:2|1:2|1:2|1:2|1:2|1:2,0:0:0:0:
218,184,61084,5,0,1:2:0:0:
208,200,61177,1,8,0:2:0:0:
352,280,61363,5,8,0:2:0:0:
351,298,61456,1,8,0:2:0:0:
480,144,61653,37,8,0:2:0:0:
488,104,61752,1,8,0:2:0:0:
471,63,61850,22,0,P|387:40|300:49,1,176.000005371094,4|0,1:2|0:2,0:0:0:0:
234,97,62193,1,2,1:2:0:0:
217,114,62308,2,0,P|205:155|207:199,1,88.000002685547,8|0,0:2|0:2,0:0:0:0:
124,81,62514,1,2,1:2:0:0:
108,56,62618,1,8,0:2:0:0:
110,26,62721,6,0,P|148:5|192:0,1,88.000002685547,0|2,0:2|1:2,0:0:0:0:
104,184,62929,2,0,P|65:163|21:158,1,88.000002685547,8|0,0:2|0:2,0:0:0:0:
78,325,63135,2,0,P|148:361|178:288,1,176.000005371094,8|2,0:2|0:2,0:0:0:0:
290,209,63445,1,2,0:2:0:0:
308,212,63549,38,0,L|342:384,1,176.000005371094,2|2,1:2|0:2,0:0:0:0:
418,384,63859,1,0,1:2:0:0:
427,366,63962,1,10,0:2:0:0:
512,254,64169,1,2,1:2:0:0:
455,115,64376,5,2,0:2:0:0:
439,127,64480,1,0,1:2:0:0:
427,142,64583,2,0,P|415:184|413:228,1,88.000002685547,0|2,1:2|0:2,0:0:0:0:
306,188,64790,2,0,P|243:127|158:111,1,176.000005371094,8|2,0:2|0:2,0:0:0:0:
79,17,65100,1,2,0:2:0:0:
65,37,65204,38,0,B|25:125|105:125|67:206,1,176.000005371094,4|0,1:2|0:2,0:0:0:0:
110,275,65514,1,2,1:2:0:0:
89,295,65617,2,0,P|74:336|77:380,1,88.000002685547,8|0,0:2|0:2,0:0:0:0:
219,301,65824,6,0,P|302:324|384:296,1,176.000005371094,2|0,1:2|0:2,0:0:0:0:
432,232,66135,1,2,1:2:0:0:
439,213,66238,2,0,L|427:125,1,88.000002685547,8|0,0:2|0:2,0:0:0:0:
311,78,66445,2,0,L|299:165,1,88.000002685547,8|0,0:2|0:2,0:0:0:0:
111,158,66652,1,2,0:2:0:0:
105,137,66755,1,2,0:2:0:0:
107,117,66859,38,0,P|189:127|211:208,1,176.000005371094,2|2,1:2|0:2,0:0:0:0:
149,255,67170,1,0,1:2:0:0:
126,248,67273,1,10,0:2:0:0:
22,371,67480,1,2,1:2:0:0:
197,337,67686,6,0,P|272:294|358:300,1,176.000005371094,2|0,1:2|1:2,0:0:0:0:
424,345,67997,1,2,0:2:0:0:
419,371,68100,1,10,0:2:0:0:
415,180,68307,1,8,0:2:0:0:
439,172,68411,1,8,0:2:0:0:
463,180,68514,38,0,P|464:268|423:345,1,176.000005371094,4|0,1:2|1:2,0:0:0:0:
358,300,68824,1,0,0:0:0:0:
352,280,68928,1,10,0:2:0:0:
264,168,69135,1,2,1:2:0:0:
392,80,69342,1,2,1:2:0:0:
384,64,69446,1,8,0:2:0:0:
367,56,69549,2,0,P|349:96|342:139,1,88.000002685547,0|2,0:2|1:2,0:0:0:0:
192,120,69755,2,0,P|127:177|41:178,1,176.000005371094,8|2,0:2|0:2,0:0:0:0:
296,368,70169,6,0,P|231:310|145:309,1,176.000005371094,2|0,1:2|0:2,0:0:0:0:
80,352,70480,1,2,1:2:0:0:
72,368,70583,1,8,0:2:0:0:
240,271,70790,2,0,P|264:187|272:100,1,176.000005371094,2|0,1:2|0:2,0:0:0:0:
224,40,71100,1,2,1:2:0:0:
208,32,71204,1,2,1:2:0:0:
392,80,71411,2,0,P|416:164|424:251,1,176.000005371094,8|8,0:2|0:2,0:0:0:0:
348,277,71721,1,0,0:0:0:0:
337,293,71824,38,0,P|324:334|323:378,1,88.000002685547,6|2,1:2|0:2,0:0:0:0:
169,326,72031,2,0,P|156:284|155:240,1,88.000002685547,2|2,0:2|0:2,0:0:0:0:
312,136,72238,1,8,0:2:0:0:
320,160,72342,1,2,0:2:0:0:
310,186,72445,2,0,B|268:205|268:205|228:190,1,88.000002685547,12|2,1:2|0:2,0:0:0:0:
104,96,72652,6,0,B|144:81|144:81|185:100,1,88.000002685547,2|0,1:2|0:0,0:0:0:0:
93,292,72859,1,2,1:2:0:0:
60,289,72962,1,8,0:2:0:0:
43,267,73066,2,0,L|57:181,1,88.000002685547,8|8,0:2|0:2,0:0:0:0:
248,288,73273,2,0,L|261:374,1,88.000002685547,8|0,0:2|0:0,0:0:0:0:
432,320,73480,1,8,1:2:0:0:
431,320,73893,6,0,P|455:233|457:143,1,180.000006866455,4|0,1:2|0:2,0:0:0:0:
399,88,74307,2,0,L|340:73,1,60.0000022888184,0|0,1:2|0:2,0:0:0:0:
233,119,74514,2,0,L|193:125,2,40.000001525879,8|8|8,0:2|0:2|0:2,0:0:0:0:
177,47,74721,2,0,L|137:40,2,40.000001525879,8|8|8,0:2|0:2|0:2,0:0:0:0:
111,123,74928,2,0,L|104:163,2,40.000001525879,8|0|8,1:2|0:2|0:2,0:0:0:0:
32,80,75135,22,0,P|62:161|54:248,1,176.000005371094,4|0,1:2|0:2,0:0:0:0:
16,352,75445,1,2,1:2:0:0:
32,351,75549,2,0,P|70:330|113:328,1,88.000002685547,8|0,0:2|0:2,0:0:0:0:
232,256,75755,1,2,1:2:0:0:
248,272,75859,1,8,0:2:0:0:
256,296,75962,6,0,L|242:382,1,88.000002685547,0|2,0:2|1:2,0:0:0:0:
400,384,76169,2,0,L|386:297,1,88.000002685547,8|0,0:2|0:2,0:0:0:0:
511,184,76376,2,0,P|434:219|356:184,1,176.000005371094,8|0,0:2|0:2,0:0:0:0:
320,112,76686,1,2,0:2:0:0:
328,96,76789,37,2,1:2:0:0:
432,0,76997,1,2,0:2:0:0:
448,16,77100,1,0,1:2:0:0:
456,39,77204,2,0,P|449:83|432:123,1,88.000002685547,10|0,0:2|0:2,0:0:0:0:
356,184,77411,1,2,1:2:0:0:
256,48,77617,5,2,0:2:0:0:
224,40,77721,1,2,1:2:0:0:
192,32,77824,2,0,L|107:55,1,88.000002685547,2|2,0:2|0:2,0:0:0:0:
16,144,78031,2,0,L|100:167,1,88.000002685547,10|0,0:2|0:2,0:0:0:0:
224,144,78238,1,2,1:2:0:0:
55,256,78445,38,0,P|15:326|76:381,1,176.000005371094,2|0,1:2|0:2,0:0:0:0:
144,336,78755,1,2,1:2:0:0:
160,319,78859,2,0,P|203:311|247:313,1,88.000002685547,10|0,0:2|0:2,0:0:0:0:
312,215,79066,6,0,P|364:147|361:61,1,176.000005371094,2|0,1:2|0:0,0:0:0:0:
296,16,79376,1,2,1:2:0:0:
272,24,79480,1,8,0:2:0:0:
456,104,79686,2,0,P|502:176|490:262,1,176.000005371094,8|2,0:2|0:2,0:0:0:0:
416,288,79997,1,2,0:2:0:0:
392,280,80100,37,2,1:2:0:0:
304,384,80307,1,2,0:2:0:0:
232,264,80514,1,10,0:2:0:0:
224,248,80617,1,0,0:2:0:0:
232,231,80721,2,0,P|273:216|317:212,1,88.000002685547,2|0,1:2|0:2,0:0:0:0:
208,360,80928,6,0,P|136:310|50:290,1,176.000005371094,2|2,1:2|0:2,0:0:0:0:
0,352,81238,1,2,1:2:0:0:
8,376,81342,1,10,0:2:0:0:
112,208,81549,1,8,0:2:0:0:
120,176,81652,1,8,0:2:0:0:
111,143,81755,38,0,P|88:61|147:1,1,176.000005371094,4|0,1:2|0:2,0:0:0:0:
216,32,82066,1,0,1:2:0:0:
216,56,82169,1,8,0:2:0:0:
368,0,82376,2,0,P|381:41|385:85,1,88.000002685547,2|0,1:2|0:2,0:0:0:0:
272,128,82583,6,0,P|353:102|425:148,1,176.000005371094,2|0,1:2|0:2,0:0:0:0:
464,216,82893,1,2,1:2:0:0:
464,240,82997,2,0,L|442:325,1,88.000002685547,10|0,0:2|0:2,0:0:0:0:
293,213,83204,2,0,L|271:127,1,88.000002685547,2|0,0:2|0:2,0:0:0:0:
208,312,83411,38,0,P|278:263|360:287,1,176.000005371094,2|0,1:2|0:2,0:0:0:0:
367,368,83721,1,2,1:2:0:0:
359,384,83824,1,8,0:2:0:0:
177,211,84031,6,0,L|147:384,1,176.000005371094,2|0,1:2|0:2,0:0:0:0:
74,368,84342,1,8,0:2:0:0:
66,349,84445,1,0,1:2:0:0:
0,215,84652,1,8,0:2:0:0:
160,72,84859,1,8,0:2:0:0:
128,80,84962,1,8,0:2:0:0:
96,88,85066,38,0,B|80:128|80:128|96:176,1,88.000002685547,4|2,1:2|0:2,0:0:0:0:
256,160,85273,1,2,0:2:0:0:
264,144,85376,1,10,0:2:0:0:
272,128,85480,2,0,B|288:88|288:88|272:40,1,88.000002685547,10|2,0:2|0:2,0:0:0:0:
439,128,85686,2,0,P|402:150|359:161,1,88.000002685547,4|2,1:2|0:2,0:0:0:0:
232,256,85893,6,0,P|274:267|312:289,1,88.000002685547,10|10,0:2|0:2,0:0:0:0:
456,264,86100,2,0,P|433:301|422:344,1,88.000002685547,2|0,1:2|0:0,0:0:0:0:
230,367,86307,37,10,0:2:0:0:
188,379,86410,1,8,0:2:0:0:
144,383,86513,1,8,0:2:0:0:
100,376,86617,1,8,0:2:0:0:
60,359,86720,5,12,1:2:0:0:
60,359,86928,38,0,L|52:271,1,88.000002685547,2|2,0:2|0:2,0:0:0:0:
139,184,87135,22,0,L|147:136,1,48,4|0,1:2|1:2,0:0:0:0:
140,66,94997,6,0,P|188:100|247:110,1,120.000004577637,4|0,1:2|0:2,0:0:0:0:
248,111,95307,2,0,P|296:76|355:66,1,120.000004577637,8|0,0:2|0:2,0:0:0:0:
355,66,95617,2,0,P|403:100|462:110,1,120.000004577637,2|0,1:2|0:2,0:0:0:0:
475,98,95928,1,8,0:2:0:0:
487,86,96031,2,0,L|496:26,1,60.0000022888184,0|0,1:2|0:2,0:0:0:0:
365,181,96238,38,0,L|373:300,1,120.000004577637,2|0,1:2|0:2,0:0:0:0:
455,264,96548,2,0,L|446:383,1,120.000004577637,8|0,0:2|0:2,0:0:0:0:
293,347,96859,2,0,P|316:296|372:299,1,120.000004577637,10|0,0:2|0:2,0:0:0:0:
210,349,97169,1,8,0:2:0:0:
194,374,97272,2,0,L|136:357,1,60.0000022888184,0|0,1:2|0:2,0:0:0:0:
0,384,97479,2,0,P|44:307|33:219,1,180.000006866455,2|2,1:2|1:2,0:0:0:0:
105,171,97893,6,0,P|72:123|72:64,1,120.000004577637,0|2,1:2|1:2,0:0:0:0:
72,64,98203,2,0,P|120:30|179:30,1,120.000004577637,8|0,0:2|0:2,0:0:0:0:
179,30,98514,2,0,P|212:78|212:137,1,120.000004577637,2|0,1:2|0:2,0:0:0:0:
198,149,98824,1,8,0:2:0:0:
184,160,98928,2,0,P|173:188|169:217,1,60.0000022888184,0|0,1:2|0:2,0:0:0:0:
307,133,99134,38,0,P|363:151|422:146,1,120.000004577637,2|0,1:2|0:2,0:0:0:0:
488,77,99445,1,0,1:2:0:0:
505,87,99548,2,0,L|498:146,1,60.0000022888184,8|0,0:2|0:2,0:0:0:0:
430,228,99755,1,8,0:2:0:0:
413,238,99858,2,0,L|426:357,1,120.000004577637,0|0,1:2|0:2,0:0:0:0:
344,381,100169,2,0,P|318:366|288:360,1,60.0000022888184,2|0,1:2|0:2,0:0:0:0:
207,313,100376,2,0,P|167:357|112:380,1,120.000004577637,8|2,0:2|0:2,0:0:0:0:
33,333,100686,1,2,0:2:0:0:
47,304,100790,22,0,L|37:251,2,53.3333333333333,0|0|0,1:2|1:2|1:2,0:0:0:0:
88,250,100996,2,0,L|97:170,1,80,8|0,1:2|0:2,0:0:0:0:
272,96,101203,2,0,L|262:16,1,80,8|0,1:2|0:2,0:0:0:0:
188,168,101410,1,8,1:2:0:0:
194,197,101514,1,8,1:2:0:0:
194,197,102031,21,2,0:2:0:0:
194,196,102238,22,0,P|262:141|350:148,1,180.000006866455,4|0,1:2|0:2,0:0:0:0:
366,171,102652,1,2,1:2:0:0:
482,21,102858,2,0,P|450:70|448:130,1,120.000004577637,10|2,0:2|0:2,0:0:0:0:
465,140,103169,1,0,1:2:0:0:
480,150,103272,2,0,P|484:179|482:209,1,60.0000022888184,10|0,0:2|0:0,0:0:0:0:
363,230,103479,2,0,P|361:200|366:171,1,60.0000022888184,0|2,0:2|1:2,0:0:0:0:
487,339,103686,2,0,P|435:311|377:324,1,120.000004577637,8|2,0:2|1:2,0:0:0:0:
194,196,104100,21,0,1:2:0:0:
268,303,104307,2,0,P|273:333|273:363,1,60.0000022888184,2|0,0:2|1:2,0:0:0:0:
158,337,104514,2,0,P|102:356|50:331,1,120.000004577637,8|2,0:2|1:2,0:0:0:0:
43,312,104824,1,0,0:2:0:0:
38,296,104927,2,0,L|52:237,1,60.0000022888184,2|8,0:2|0:2,0:0:0:0:
5,149,105134,1,0,0:0:0:0:
147,34,105341,1,10,0:2:0:0:
56,15,105548,2,0,P|55:44|60:74,1,60.0000022888184,2|0,0:2|0:0,0:0:0:0:
209,100,105755,22,0,P|260:70|319:58,1,120.000004577637,0|2,1:2|1:2,0:0:0:0:
409,95,106075,1,0,0:0:0:0:
393,110,106139,2,0,P|382:139|378:168,1,60.0000022888184,10|8,0:2|0:2,0:0:0:0:
488,187,106396,2,0,P|492:216|503:244,1,60.0000022888184,4|0,1:2|0:0,0:0:0:0:
351,347,106652,6,0,L|409:333,1,60.0000022888184,2|0,0:2|0:2,0:0:0:0:
248,232,106908,2,0,L|300:241,1,53.3333333333333,2|2,0:2|0:2,0:0:0:0:
235,341,107183,5,2,0:2:0:0:
234,340,107410,5,2,0:2:0:0:
218,325,107513,1,0,0:2:0:0:
200,312,107616,1,0,0:2:0:0:
180,302,107720,1,0,0:2:0:0:
158,295,107823,1,0,0:2:0:0:
136,292,107927,1,0,0:2:0:0:
114,292,108030,1,0,0:2:0:0:
91,295,108134,1,2,0:2:0:0:
70,302,108238,1,2,0:2:0:0:
85,286,108341,1,0,0:2:0:0:
98,268,108444,1,0,0:2:0:0:
108,248,108548,1,0,0:2:0:0:
115,226,108651,1,0,0:2:0:0:
118,204,108755,1,0,0:2:0:0:
118,182,108858,1,0,0:2:0:0:
115,159,108962,1,2,0:2:0:0:
105,138,109066,1,0,0:2:0:0:
77,131,109169,1,0,0:2:0:0:
55,111,109272,1,2,0:2:0:0:
45,83,109376,1,2,0:2:0:0:
48,53,109479,1,0,0:2:0:0:
65,29,109583,1,2,0:2:0:0:
91,15,109686,1,2,0:2:0:0:
121,14,109790,1,0,0:2:0:0:
148,27,109892,1,2,0:2:0:0:
168,18,109996,1,2,0:2:0:0:
189,12,110099,1,2,0:2:0:0:
211,9,110204,1,0,0:2:0:0:
234,10,110306,1,0,0:2:0:0:
256,15,110410,1,2,0:2:0:0:
277,22,110513,1,0,0:2:0:0:
297,33,110616,1,2,0:2:0:0:
315,47,110720,1,2,0:2:0:0:
262,152,110927,1,2,0:2:0:0:
262,152,111031,1,2,0:2:0:0:
350,183,111238,1,2,0:2:0:0:
350,183,111342,1,2,0:2:0:0:
432,151,111548,1,2,0:2:0:0:
498,212,111755,1,0,1:2:0:0:
497,212,112169,1,2,0:2:0:0:
474,230,112272,1,2,0:2:0:0:
446,239,112375,1,10,0:2:0:0:
416,239,112479,1,0,1:2:0:0:
388,230,112582,1,0,1:2:0:0:
364,211,112686,1,2,1:2:0:0:
348,186,112790,1,0,1:2:0:0:
334,146,112893,1,0,1:2:0:0:
300,121,112996,1,2,1:2:0:0:
258,120,113100,1,0,1:2:0:0:
223,144,113203,1,0,1:2:0:0:
209,184,113307,1,8,0:2:0:0:
220,225,113410,1,0,0:2:0:0:
253,251,113514,1,0,0:2:0:0:
295,248,113617,1,8,0:2:0:0:
157,372,113824,38,0,P|141:346|134:317,1,60.0000022888184,2|2,0:2|0:2,0:0:0:0:
38,281,114031,38,0,P|66:220|67:153,1,136.000002593994,4|0,1:2|0:2,0:0:0:0:
54,138,114341,1,0,1:2:0:0:
40,125,114445,2,0,P|27:93|20:60,1,68.0000012969971,10|0,0:2|0:2,0:0:0:0:
154,75,114652,2,0,P|203:30|269:34,1,136.000002593994,0|2,1:2|0:2,0:0:0:0:
403,11,115065,1,2,1:2:0:0:
383,29,115169,1,0,0:2:0:0:
371,49,115272,2,0,P|361:81|361:115,1,68.0000012969971,10|0,0:2|0:0,0:0:0:0:
458,161,115479,1,0,0:2:0:0:
362,255,115686,6,0,L|294:247,1,68.0000012969971,2|0,1:2|1:2,0:0:0:0:
195,152,115893,2,0,L|263:144,1,68.0000012969971,2|0,0:2|1:2,0:0:0:0:
242,322,116100,2,0,P|186:286|119:281,1,136.000002593994,10|0,0:2|1:2,0:0:0:0:
103,293,116410,1,0,0:0:0:0:
89,306,116514,2,0,P|78:338|75:372,1,68.0000012969971,2|0,0:2|1:2,0:0:0:0:
162,381,116721,1,0,1:2:0:0:
16,258,116927,2,0,P|4:191|19:125,1,136.000002593994,8|0,0:2|0:2,0:0:0:0:
83,75,117238,1,0,1:2:0:0:
99,80,117341,37,0,1:2:0:0:
228,13,117548,1,0,1:2:0:0:
217,31,117652,1,0,1:2:0:0:
213,53,117755,2,0,P|232:117|212:181,1,136.000002593994,10|2,0:2|1:2,0:0:0:0:
136,207,118065,1,0,0:2:0:0:
114,195,118169,1,2,0:2:0:0:
268,113,118376,2,0,L|335:107,1,68.0000012969971,0|0,1:2|0:2,0:0:0:0:
365,230,118583,2,0,L|499:249,1,136.000002593994,10|0,0:2|0:2,0:0:0:0:
505,324,118893,1,2,0:2:0:0:
494,346,118996,5,0,1:2:0:0:
280,264,119203,1,0,1:2:0:0:
288,288,119307,1,2,1:2:0:0:
296,312,119410,2,0,L|288:379,1,68.0000012969971,8|0,0:2|0:2,0:0:0:0:
136,384,119617,1,2,1:2:0:0:
136,368,119721,1,0,1:2:0:0:
143,352,119824,2,0,P|173:336|205:328,1,68.0000012969971,0|8,1:2|0:2,0:0:0:0:
288,379,120031,1,0,1:2:0:0:
128,256,120238,2,0,P|132:188|152:123,1,136.000002593994,8|0,0:2|1:2,0:0:0:0:
224,88,120548,1,0,1:2:0:0:
240,96,120652,37,2,1:2:0:0:
365,230,120858,1,0,0:0:0:0:
389,230,120962,1,0,1:2:0:0:
413,222,121065,2,0,P|433:157|437:89,1,136.000002593994,8|0,0:2|0:2,0:0:0:0:
296,16,121479,2,0,P|321:38|352:49,1,68.0000012969971,2|0,1:2|1:2,0:0:0:0:
296,176,121686,2,0,P|264:187|239:209,1,68.0000012969971,0|0,1:2|0:2,0:0:0:0:
176,80,121893,2,0,P|116:110|49:102,1,136.000002593994,8|0,0:2|0:2,0:0:0:0:
0,40,122203,1,0,0:2:0:0:
8,16,122307,5,2,1:2:0:0:
120,144,122514,1,0,0:2:0:0:
128,168,122617,1,0,1:2:0:0:
136,192,122721,2,0,L|96:344,1,136.000002593994,8|0,0:2|0:2,0:0:0:0:
256,368,123134,2,0,P|223:357|190:351,1,68.0000012969971,2|0,1:2|0:2,0:0:0:0:
304,272,123341,2,0,P|336:282|369:288,1,68.0000012969971,0|0,1:2|0:2,0:0:0:0:
495,383,123548,2,0,P|465:324|473:257,1,136.000002593994,8|0,0:2|1:2,0:0:0:0:
472,176,123858,1,0,1:2:0:0:
488,167,123962,38,0,P|510:103|509:35,1,136.000002593994,2|0,1:2|0:2,0:0:0:0:
440,0,124272,1,0,1:2:0:0:
424,8,124376,1,10,0:2:0:0:
328,136,124583,2,0,L|261:122,1,68.0000012969971,0|0,1:2|0:0,0:0:0:0:
168,48,124790,1,2,0:2:0:0:
176,32,124893,1,8,0:2:0:0:
184,16,124996,2,0,L|250:2,1,68.0000012969971,0|0,0:2|0:2,0:0:0:0:
168,144,125203,2,0,P|186:208|161:270,1,136.000002593994,10|0,0:2|0:2,0:0:0:0:
120,344,125514,1,0,0:2:0:0:
104,335,125617,6,0,P|163:303|229:314,1,136.000002593994,2|0,1:2|0:2,0:0:0:0:
314,315,125927,1,0,1:2:0:0:
322,339,126031,2,0,P|381:370|447:359,1,136.000002593994,10|0,0:2|1:2,0:0:0:0:
432,192,126445,1,8,0:2:0:0:
408,208,126548,1,0,1:0:0:0:
392,231,126652,2,0,P|384:264|386:297,1,68.0000012969971,8|0,0:2|0:0,0:0:0:0:
240,192,126858,2,0,P|247:158|245:125,1,68.0000012969971,8|0,1:2|0:2,0:0:0:0:
352,8,127065,1,8,0:2:0:0:
368,48,127169,1,8,0:2:0:0:
360,88,127272,5,4,1:2:0:0:
288,56,127686,1,0,1:2:0:0:
209,64,128100,1,2,1:2:0:0:
144,110,128514,1,0,1:2:0:0:
16,248,128927,37,2,1:2:0:0:
88,216,129341,1,0,1:2:0:0:
167,224,129755,1,2,1:2:0:0:
232,270,130169,1,0,1:2:0:0:
445,101,130583,5,2,1:2:0:0:
383,171,130996,1,0,1:2:0:0:
389,263,131410,1,2,1:2:0:0:
460,326,131824,1,0,1:2:0:0:
245,335,132238,6,0,P|232:303|231:269,1,68.0000012969971,8|0,1:2|0:2,0:0:0:0:
310,176,132424,1,8,0:2:0:0:
317,208,132518,1,8,1:2:0:0:
160,108,132750,1,8,0:2:0:0:
153,140,132843,1,8,1:2:0:0:
11,228,133065,5,0,1:2:0:0:
56,208,133168,1,8,0:2:0:0:
103,225,133271,1,0,1:2:0:0:
125,270,133375,1,0,1:2:0:0:
110,318,133479,6,0,P|97:349|87:382,1,68.0000012969971,10|0,0:2|0:0,0:0:0:0:
231,269,133686,2,0,P|222:236|218:202,1,68.0000012969971,2|0,0:2|0:0,0:0:0:0:
418,322,133892,22,0,P|362:349|333:295,1,136.000002593994,4|0,1:2|0:2,0:0:0:0:
393,243,134203,1,2,1:2:0:0:
407,229,134307,2,0,P|411:195|413:161,1,68.0000012969971,8|0,0:2|0:2,0:0:0:0:
360,89,134514,1,2,1:2:0:0:
512,0,134721,1,0,0:2:0:0:
495,18,134824,1,8,0:2:0:0:
468,23,134927,2,0,P|436:10|402:4,1,68.0000012969971,2|0,1:2|0:2,0:0:0:0:
271,58,135134,1,8,0:2:0:0:
315,216,135341,2,0,P|283:228|249:234,1,68.0000012969971,2|0,0:2|0:2,0:0:0:0:
193,140,135548,38,0,P|134:105|68:95,1,136.000002593994,2|2,1:2|0:2,0:0:0:0:
18,153,135858,1,0,1:2:0:0:
5,177,135962,2,0,L|17:243,1,68.0000012969971,8|0,0:2|0:2,0:0:0:0:
84,319,136169,1,2,1:2:0:0:
249,233,136376,1,0,0:2:0:0:
214,233,136479,1,8,0:2:0:0:
193,265,136583,2,0,L|180:331,1,68.0000012969971,2|0,1:2|0:2,0:0:0:0:
339,315,136790,2,0,P|394:351|460:342,1,136.000002593994,8|2,0:2|0:2,0:0:0:0:
499,274,137100,1,2,0:2:0:0:
488,258,137203,5,2,1:2:0:0:
366,167,137410,2,0,P|374:99|396:35,1,136.000002593994,2|8,1:2|0:2,0:0:0:0:
247,182,137824,2,0,P|201:135|214:70,1,136.000002593994,2|8,1:2|0:2,0:0:0:0:
197,299,138238,2,0,P|141:325|111:271,1,136.000002593994,2|8,1:2|0:2,0:0:0:0:
317,344,138652,1,2,1:2:0:0:
365,166,138858,6,0,B|362:213|362:213|369:257,1,90.6666683959961,12|0,0:2|1:2,0:0:0:0:
210,160,139149,2,0,B|217:116|217:116|213:69,1,90.6666683959961,8|0,0:2|1:2,0:0:0:0:
59,198,139441,2,0,L|16:182,3,45.3333341979981,8|0|0|0,0:2|1:2|1:2|0:2,0:0:0:0:
68,285,139733,38,0,L|110:269,1,45.3333341979981,8|0,0:2|1:2,0:0:0:0:
128,375,139893,2,0,P|142:357|153:337,1,45.3333341979981,2|2,1:2|1:2,0:0:0:0:
238,358,140053,2,0,P|241:335|240:312,1,45.3333341979981,2|2,1:2|1:2,0:0:0:0:
325,289,140213,2,0,P|316:267|305:248,3,45.3333341979981,10|2|2|0,0:2|1:2|1:2|0:0,0:0:0:0:
412,378,140514,38,0,P|407:310|430:247,1,136.000002593994,4|0,1:2|0:2,0:0:0:0:
489,194,140824,1,2,1:2:0:0:
511,205,140927,1,8,0:2:0:0:
442,75,141134,1,2,1:2:0:0:
423,103,141237,1,8,0:2:0:0:
396,123,141340,1,0,1:2:0:0:
364,134,141444,1,10,0:2:0:0:
330,134,141547,1,0,0:0:0:0:
257,0,141755,2,0,P|269:31|274:64,1,68.0000012969971,8|0,0:2|0:2,0:0:0:0:
249,170,141962,1,2,1:2:0:0:
118,53,142169,22,0,P|54:43|18:96,1,136.000002593994,2|0,1:2|0:2,0:0:0:0:
68,158,142479,1,2,1:2:0:0:
90,154,142583,1,8,0:2:0:0:
208,248,142790,2,0,L|140:238,1,68.0000012969971,2|0,1:2|0:2,0:0:0:0:
72,296,142996,1,0,0:2:0:0:
54,298,143100,1,8,0:2:0:0:
36,300,143203,1,2,1:2:0:0:
192,384,143410,2,0,P|267:319|364:336,1,204.000003890991,8|0,0:2|0:2,0:0:0:0:
424,280,143824,6,0,P|408:267|392:256,1,40,10|0,1:2|0:2,0:0:0:0:
416,176,144031,2,0,P|396:172|376:171,1,40,8|0,1:2|0:2,0:0:0:0:
357,89,144238,2,0,P|338:95|320:104,1,40,8|0,1:2|0:2,0:0:0:0:
163,230,144445,6,0,P|181:214|201:201,1,47.9999985351563,10|0,1:2|0:2,0:0:0:0:
171,104,144652,2,0,P|194:100|218:98,1,47.9999985351563,8|0,1:2|0:2,0:0:0:0:
242,0,144859,2,0,P|264:8|286:18,1,47.9999985351563,8|0,1:2|0:2,0:0:0:0:
288,184,145065,6,0,P|294:211|294:239,1,55.9999982910157,10|0,0:2|0:2,0:0:0:0:
88,165,145272,2,0,P|79:191|66:216,1,55.9999982910157,8|0,1:2|0:2,0:0:0:0:
224,328,145479,6,0,B|153:340|153:340|109:323|109:323|37:336,5,192,4|0|0|0|0|0,1:2|1:2|1:2|1:2|1:2|1:2,0:0:0:0:
37,335,157893,6,0,L|18:328,2,20,8|8|8,0:2|0:2|0:2,0:0:0:0:
109,295,158100,2,0,L|115:255,1,40,8|8,0:2|0:2,0:0:0:0:
181,215,158307,2,0,L|174:196,2,20,2|2|8,0:2|0:2|0:2,0:0:0:0:
253,247,158514,2,0,L|259:286,1,40,8|8,0:2|0:2,0:0:0:0:
317,191,158721,6,0,L|321:171,2,20,8|8|8,0:2|0:2|0:2,0:0:0:0:
376,246,158927,2,0,L|380:266,2,20,2|2|2,0:2|0:2|0:2,0:0:0:0:
446,202,159134,2,0,L|436:157,1,40,8|8,0:2|0:2,0:0:0:0:
376,111,159341,2,0,L|384:71,1,40,8|8,0:2|0:2,0:0:0:0:
454,33,159548,38,0,L|474:28,2,20,2|2|8,0:2|0:2|0:2,0:0:0:0:
344,5,159755,2,0,L|324:0,2,20,2|2|2,0:2|0:2|0:2,0:0:0:0:
295,78,159962,2,0,L|255:86,1,40,8|8,1:2|0:2,0:0:0:0:
174,196,160169,2,0,L|134:187,1,40,8|0,0:2|1:2,0:0:0:0:
17,9,160376,22,0,P|64:79|40:161,1,176.000005371094,4|0,1:2|0:2,0:0:0:0:
66,245,160686,1,2,1:2:0:0:
41,258,160790,2,0,P|26:299|24:343,1,88.000002685547,8|0,0:2|0:2,0:0:0:0:
192,377,160996,1,2,1:2:0:0:
207,364,161100,1,8,0:2:0:0:
205,342,161203,6,0,L|119:320,1,88.000002685547,0|2,0:2|1:2,0:0:0:0:
174,196,161410,2,0,L|259:174,1,88.000002685547,8|0,0:2|0:2,0:0:0:0:
308,357,161617,2,0,P|306:273|375:226,1,176.000005371094,8|2,0:2|0:2,0:0:0:0:
451,249,161927,1,2,0:2:0:0:
446,270,162031,37,2,1:2:0:0:
354,136,162238,1,2,0:2:0:0:
487,32,162445,2,0,P|505:71|510:115,1,88.000002685547,10|0,0:2|0:2,0:0:0:0:
354,136,162652,2,0,P|371:96|376:53,1,88.000002685547,2|0,1:2|0:2,0:0:0:0:
182,111,162858,5,2,0:2:0:0:
173,132,162962,1,8,0:2:0:0:
176,155,163065,2,0,P|214:174|258:173,1,88.000002685547,0|2,1:2|0:2,0:0:0:0:
251,40,163272,1,8,0:2:0:0:
73,98,163479,2,0,L|81:185,1,88.000002685547,2|2,0:2|0:2,0:0:0:0:
12,310,163686,38,0,P|89:273|174:290,1,176.000005371094,4|0,1:2|0:2,0:0:0:0:
229,349,163996,1,2,1:2:0:0:
219,373,164100,1,8,0:2:0:0:
387,255,164307,1,2,1:2:0:0:
371,239,164410,1,8,0:2:0:0:
354,222,164514,6,0,P|345:178|353:135,1,88.000002685547,0|2,0:2|1:2,0:0:0:0:
440,80,164721,1,8,0:2:0:0:
504,224,164927,1,8,0:2:0:0:
392,352,165134,2,0,L|308:324,1,88.000002685547,2|2,0:2|0:2,0:0:0:0:
240,168,165341,38,0,P|256:208|250:251,1,88.000002685547,2|2,1:2|0:2,0:0:0:0:
96,320,165548,2,0,P|90:276|106:236,1,88.000002685547,2|0,0:2|1:2,0:0:0:0:
8,128,165755,2,0,P|92:135|151:74,1,176.000005371094,10|2,0:2|1:2,0:0:0:0:
112,8,166065,1,2,0:2:0:0:
88,0,166169,5,2,1:2:0:0:
256,72,166376,1,0,1:2:0:0:
280,64,166479,1,2,0:2:0:0:
304,56,166583,2,0,L|390:70,1,88.000002685547,10|0,0:2|0:2,0:0:0:0:
464,248,166790,1,8,0:2:0:0:
488,232,166893,1,8,0:2:0:0:
488,208,166996,38,0,P|411:168|329:192,1,176.000005371094,4|0,1:2|0:2,0:0:0:0:
304,264,167307,1,0,1:2:0:0:
312,288,167410,1,10,0:2:0:0:
176,224,167617,2,0,L|157:310,1,88.000002685547,2|0,1:2|0:2,0:0:0:0:
56,384,167824,5,2,1:2:0:0:
40,368,167927,1,8,0:2:0:0:
24,352,168031,2,0,L|5:265,1,88.000002685547,0|2,0:2|1:2,0:0:0:0:
72,168,168238,1,8,0:2:0:0:
16,16,168445,1,2,0:2:0:0:
0,40,168548,1,2,0:2:0:0:
0,72,168652,38,0,P|86:88|173:79,1,176.000005371094,2|0,1:2|0:2,0:0:0:0:
232,32,168962,1,2,1:2:0:0:
224,16,169065,1,8,0:2:0:0:
352,184,169272,6,0,P|335:99|371:20,1,176.000005371094,2|0,1:2|0:2,0:0:0:0:
448,8,169583,1,2,1:2:0:0:
456,32,169686,1,2,1:2:0:0:
304,96,169893,2,0,P|267:174|284:259,1,176.000005371094,8|8,0:2|0:2,0:0:0:0:
420,208,170203,1,0,0:2:0:0:
435,191,170307,38,0,P|394:175|351:183,1,88.000002685547,6|2,1:2|0:2,0:0:0:0:
193,211,170514,1,2,0:2:0:0:
193,235,170617,1,2,0:2:0:0:
201,251,170721,2,0,P|241:266|284:258,1,88.000002685547,8|2,0:2|0:2,0:0:0:0:
416,360,170927,1,12,1:2:0:0:
400,368,171031,1,2,0:2:0:0:
384,360,171134,6,0,L|369:273,1,88.000002685547,2|0,1:2|1:2,0:0:0:0:
201,251,171341,2,0,L|186:337,1,88.000002685547,2|8,1:2|0:2,0:0:0:0:
24,376,171548,2,0,P|6:290|30:206,1,176.000005371094,8|8,0:2|0:2,0:0:0:0:
104,176,171858,1,0,0:0:0:0:
128,192,171962,1,8,1:2:0:0:
128,191,172376,6,0,P|157:111|97:50,1,180.000006866455,4|0,1:2|0:2,0:0:0:0:
24,72,172790,2,0,L|8:129,1,60.0000022888184,0|8,1:2|0:2,0:0:0:0:
191,98,172996,1,0,1:2:0:0:
184,72,173100,2,0,L|168:14,1,60.0000022888184,8|0,0:2|0:2,0:0:0:0:
344,77,173307,1,8,0:2:0:0:
337,103,173411,2,0,L|321:160,1,60.0000022888184,0|0,1:2|0:2,0:0:0:0:
448,264,173617,22,0,B|368:232|368:296|276:267,1,176.000005371094,4|0,1:2|0:2,0:0:0:0:
193,222,173927,1,2,1:2:0:0:
184,205,174031,2,0,P|146:182|103:175,1,88.000002685547,8|0,0:2|0:2,0:0:0:0:
32,351,174238,6,0,P|103:304|185:328,1,176.000005371094,2|0,1:2|0:2,0:0:0:0:
256,384,174548,1,2,1:2:0:0:
272,367,174652,2,0,P|279:324|272:281,1,88.000002685547,8|0,0:2|0:2,0:0:0:0:
359,223,174858,2,0,P|321:148|365:76,1,176.000005371094,8|0,0:2|0:2,0:0:0:0:
168,0,175272,37,2,1:2:0:0:
196,32,175375,1,2,0:2:0:0:
206,75,175478,1,2,0:2:0:0:
193,116,175582,1,2,1:2:0:0:
162,147,175685,1,10,0:2:0:0:
16,71,175893,2,0,P|58:63|101:71,1,88.000002685547,2|0,1:2|0:2,0:0:0:0:
86,252,176100,5,2,0:2:0:0:
70,250,176203,1,2,1:2:0:0:
58,243,176307,2,0,B|49:201|49:201|69:160,1,88.000002685547,2|2,0:2|0:2,0:0:0:0:
219,207,176514,2,0,B|238:248|238:248|230:289,1,88.000002685547,10|0,0:2|0:2,0:0:0:0:
130,384,176720,2,0,L|149:298,1,88.000002685547,2|8,1:2|0:0,0:0:0:0:
301,364,176927,38,0,P|361:302|446:293,1,176.000005371094,2|0,1:2|0:2,0:0:0:0:
480,364,177238,1,2,1:2:0:0:
476,382,177341,1,10,0:2:0:0:
345,270,177548,2,0,P|337:228|340:184,1,88.000002685547,2|10,1:2|0:2,0:0:0:0:
474,80,177755,5,0,0:0:0:0:
488,97,177858,1,2,1:2:0:0:
497,119,177962,2,0,P|500:162|491:205,1,88.000002685547,8|0,0:2|0:2,0:0:0:0:
374,81,178169,2,0,P|299:39|215:54,1,176.000005371094,8|2,0:2|0:2,0:0:0:0:
24,16,178583,37,2,1:2:0:0:
32,40,178686,1,2,0:2:0:0:
40,64,178790,2,0,L|12:147,1,88.000002685547,2|2,0:2|1:2,0:0:0:0:
136,168,178996,2,0,L|163:251,1,88.000002685547,10|2,0:2|0:2,0:0:0:0:
48,344,179203,1,2,1:2:0:0:
247,372,179410,5,2,1:2:0:0:
268,352,179514,1,2,1:2:0:0:
270,319,179617,2,0,P|262:276|267:233,1,88.000002685547,0|2,0:0|1:2,0:0:0:0:
440,160,179824,2,0,P|356:173|293:116,1,176.000005371094,10|8,0:2|0:2,0:0:0:0:
312,40,180134,1,8,0:2:0:0:
336,48,180238,37,4,1:2:0:0:
200,168,180445,1,0,0:2:0:0:
176,176,180548,1,0,1:2:0:0:
152,184,180652,1,8,0:2:0:0:
104,0,180858,2,0,P|120:40|121:84,1,88.000002685547,2|0,1:2|0:2,0:0:0:0:
48,192,181065,6,0,P|23:275|48:358,1,176.000005371094,2|0,1:2|0:2,0:0:0:0:
128,368,181376,1,2,1:2:0:0:
152,360,181479,1,10,0:2:0:0:
267,233,181686,1,2,0:2:0:0:
291,241,181790,1,0,0:2:0:0:
315,247,181893,38,0,P|398:223|482:244,1,176.000005371094,2|0,1:2|0:0,0:0:0:0:
512,320,182203,1,2,1:2:0:0:
504,344,182307,1,8,0:2:0:0:
400,200,182514,6,0,B|360:113|432:113|393:30,1,176.000005371094,2|0,1:2|0:2,0:0:0:0:
301,52,182824,1,8,0:2:0:0:
303,78,182927,2,0,P|266:99|222:98,1,88.000002685547,0|0,1:2|0:2,0:0:0:0:
84,29,183134,2,0,P|121:50|141:89,1,88.000002685547,8|0,0:2|0:2,0:0:0:0:
151,245,183341,2,0,P|151:201|174:164,1,88.000002685547,8|8,0:2|0:2,0:0:0:0:
27,97,183548,38,0,L|36:184,1,88.000002685547,4|2,1:2|0:2,0:0:0:0:
0,350,183755,1,2,0:2:0:0:
15,332,183858,1,10,0:2:0:0:
38,320,183962,2,0,P|81:314|121:331,1,88.000002685547,10|2,0:2|0:2,0:0:0:0:
233,270,184169,5,4,1:2:0:0:
258,307,184272,1,2,0:2:0:0:
294,331,184375,1,10,0:2:0:0:
337,339,184479,1,10,0:2:0:0:
380,328,184583,2,0,P|390:286|391:242,1,88.000002685547,2|0,1:2|0:0,0:0:0:0:
222,184,184790,2,0,P|222:227|233:270,1,88.000002685547,2|8,1:2|0:2,0:0:0:0:
343,116,184996,1,8,0:2:0:0:
358,78,185100,1,8,0:2:0:0:
347,35,185203,37,12,1:2:0:0:
347,35,185410,6,0,L|261:20,1,88.000002685547,2|2,0:2|0:2,0:0:0:0:
177,93,185617,6,0,L|130:100,1,48,4|0,1:2|1:2,0:0:0:0:
425,204,191440,6,0,L|430:178,1,26.6666666666667,8|8,0:2|0:2,0:0:0:0:
392,174,191566,2,0,L|385:121,1,53.3333333333333,8|2,0:2|0:2,0:0:0:0:
245,101,191819,2,0,L|239:75,1,26.6666666666667,8|8,0:2|0:2,0:0:0:0:
278,71,191945,2,0,L|284:18,1,53.3333333333333,8|2,0:2|0:2,0:0:0:0:
148,107,192199,38,0,P|125:92|99:86,1,53.3333333333333,8|0,0:2|1:2,0:0:0:0:
14,179,192452,1,0,1:2:0:0:
14,179,192579,1,2,1:2:0:0:
58,286,192705,1,0,1:2:0:0:
58,286,192832,1,0,1:2:0:0:
166,229,192958,38,0,P|184:295|181:364,1,138.666660319011,4|0,1:2|0:2,0:0:0:0:
292,349,193338,2,0,P|288:280|306:213,1,138.666660319011,0|0,1:2|0:2,0:0:0:0:
459,295,193730,2,0,P|427:310|394:318,2,69.3333301595054,8|0|2,0:2|0:2|0:2,0:0:0:0:
452,158,194100,2,0,P|432:186|407:210,2,69.3333301595054,8|0|2,0:2|0:2|0:2,0:0:0:0:
333,119,194470,22,0,P|307:57|242:41,1,138.666660319011,0|0,1:2|0:2,0:0:0:0:
133,144,194841,2,0,P|68:165|3:144,1,138.666660319011,0|0,1:2|0:2,0:0:0:0:
64,16,195254,2,0,P|71:49|69:84,2,69.3333301595054,8|0|2,0:2|0:2|1:2,0:0:0:0:
162,82,195645,2,0,P|151:115|132:144,2,69.3333301595054,8|0|2,0:2|0:2|1:2,0:0:0:0:
239,189,196020,22,0,P|203:247|210:315,1,138.666660319011,0|0,1:2|1:2,0:0:0:0:
109,363,196395,2,0,P|77:352|43:350,2,69.3333301595054,8|0|2,0:2|0:2|1:2,0:0:0:0:
64,248,196801,2,0,P|29:253|0:269,2,69.3333301595054,8|0|2,0:2|0:2|1:2,0:0:0:0:
132,143,197157,22,0,L|269:161,1,138.666660319011,8|0,0:2|0:2,0:0:0:0:
361,267,197532,2,0,P|424:240|493:241,1,138.666660319011,0|0,1:2|1:2,0:0:0:0:
443,344,197904,2,0,P|476:351|504:371,2,69.3333301595054,8|0|0,0:2|0:0|0:2,0:0:0:0:
305,355,198317,21,10,0:2:0:0:
256,263,198443,1,8,0:2:0:0:
361,267,198570,1,8,0:2:0:0:
275,345,198696,21,10,0:2:0:0:
278,241,198822,1,8,0:2:0:0:
367,297,198949,1,8,0:2:0:0:
188,318,199076,22,0,P|173:250|188:183,1,138.666660319011,4|0,1:2|0:2,0:0:0:0:
47,118,199489,2,0,P|61:185|47:252,1,138.666660319011,2|2,1:2|1:2,0:0:0:0:
96,363,199852,2,0,P|64:349|30:347,2,69.3333301595054,10|0|0,0:2|0:0|0:2,0:0:0:0:
188,318,200216,2,0,P|167:290|138:271,2,69.3333301595054,8|0|2,0:2|0:2|1:2,0:0:0:0:
278,241,200603,22,0,P|290:172|285:103,1,138.666660319011,2|2,1:2|1:2,0:0:0:0:
388,4,200978,2,0,P|383:73|395:141,1,138.666660319011,2|2,1:2|1:2,0:0:0:0:
446,236,201353,2,0,P|477:222|512:222,2,69.3333301595054,8|0|2,0:2|0:2|1:2,0:0:0:0:
410,319,201728,2,0,P|444:323|474:340,2,69.3333301595054,10|2|0,0:2|1:2|1:2,0:0:0:0:
278,241,202145,22,0,P|266:273|259:307,1,69.3333301595054,2|0,1:2|0:0,0:0:0:0:
156,383,202398,1,2,1:2:0:0:
156,383,202524,2,0,P|140:316|142:247,1,138.666660319011,2|2,1:2|1:2,0:0:0:0:
60,178,202894,2,0,P|72:146|77:112,2,69.3333301595054,10|0|0,0:2|1:2|1:2,0:0:0:0:
171,112,203264,2,0,P|165:77|153:45,2,69.3333301595054,8|0|0,0:2|0:0|0:2,0:0:0:0:
270,154,203646,22,0,P|330:121|398:125,1,138.666660319011,2|0,1:2|1:2,0:0:0:0:
452,264,204028,2,0,P|391:231|323:235,1,138.666660319011,2|0,1:2|1:2,0:0:0:0:
347,382,204410,2,0,P|364:352|371:318,2,69.3333301595054,8|0|2,2:2|0:0|0:2,0:0:0:0:
251,331,204785,2,0,P|251:296|240:263,2,69.3333301595054,8|0|2,0:2|0:2|1:2,0:0:0:0:
154,369,205198,22,0,L|86:355,1,69.3333301595054,2|0,1:2|0:2,0:0:0:0:
12,254,205448,1,2,1:2:0:0:
12,254,205573,2,0,L|147:226,1,138.666660319011,10|2,0:2|1:2,0:0:0:0:
98,80,205925,2,0,P|83:112|76:146,2,69.3333301595054,10|0|0,0:2|0:0|0:2,0:0:0:0:
222,92,206300,2,0,P|193:112|170:137,2,69.3333301595054,8|0|0,0:2|0:0|0:2,0:0:0:0:
245,211,206700,22,0,P|314:221|383:218,1,138.666660319011,0|0,1:2|0:2,0:0:0:0:
462,118,207061,2,0,P|392:115|324:124,1,138.666660319011,8|2,0:2|1:2,0:0:0:0:
445,281,207433,2,0,P|462:250|469:216,2,69.3333301595054,8|0|2,0:2|0:2|1:2,0:0:0:0:
357,304,207838,2,0,P|367:336|368:371,2,69.3333301595054,8|2|2,0:2|0:2|1:2,0:0:0:0:
204,342,208225,22,0,L|272:355,1,69.3333301595054,2|0,1:2|0:0,0:0:0:0:
293,222,208483,1,2,1:2:0:0:
293,222,208612,2,0,L|224:235,1,69.3333301595054,10|0,0:2|0:2,0:0:0:0:
106,332,208870,1,2,1:2:0:0:
106,332,208999,2,0,P|120:264|102:198,1,138.666660319011,8|2,1:2|1:2,0:0:0:0:
187,136,209358,2,0,P|172:68|190:2,1,138.666660319011,8|0,0:2|1:2,0:0:0:0:
286,123,209737,21,8,0:2:0:0:
286,123,209864,2,0,P|292:88|308:57,1,69.3333301595054,0|0,1:2|1:2,0:0:0:0:
385,152,210117,1,8,0:2:0:0:
385,152,210244,2,0,L|425:140,3,34.6666650797527,0|0|0|0,1:2|1:2|1:2|1:2,0:0:0:0:
476,240,210497,2,0,L|436:228,5,34.6666650797527,2|0|0|0|0|0,1:2|1:2|1:2|1:2|1:2|1:2,0:0:0:0:
404,309,210876,2,0,P|373:323|339:326,2,69.3333301595054,8|0|0,0:2|1:2|1:2,0:0:0:0:
270,262,211256,21,4,1:2:0:0:
270,262,211382,2,0,P|256:294|250:328,1,69.3333301595054,2|0,1:2|0:2,0:0:0:0:
167,378,211635,1,2,1:2:0:0:
166,377,211772,2,0,P|161:343|147:311,1,69.3333301595054,0|0,0:0|1:2,0:0:0:0:
1,353,212048,2,0,L|70:365,2,69.3333301595054,10|0|0,0:2|0:0|0:2,0:0:0:0:
15,238,212423,2,0,L|68:282,2,69.3333301595054,8|2|0,0:2|1:2|0:2,0:0:0:0:
122,201,212798,22,0,P|109:134|139:73,1,138.666660319011,2|0,1:2|0:2,0:0:0:0:
252,135,213173,2,0,P|282:195|269:262,1,138.666660319011,8|0,0:2|0:2,0:0:0:0:
377,366,213548,2,0,P|371:331|380:298,2,69.3333301595054,10|0|2,0:2|0:2|1:2,0:0:0:0:
476,334,213923,2,0,P|488:301|512:277,2,69.3333301595054,8|0|0,0:2|0:0|0:2,0:0:0:0:
397,202,214298,22,0,P|463:201|502:146,1,138.666660319011,2|0,1:2|0:2,0:0:0:0:
432,48,214717,1,2,1:2:0:0:
432,48,214838,2,0,P|422:81|421:115,1,69.3333301595054,2|0,1:2|0:0,0:0:0:0:
323,103,215080,2,0,P|307:72|298:38,2,69.3333301595054,10|0|0,0:2|1:2|1:2,0:0:0:0:
231,140,215444,2,0,P|201:121|177:96,2,69.3333301595054,10|2|0,0:2|1:2|0:2,0:0:0:0:
101,166,215856,22,0,P|88:98|103:31,1,138.666660319011,2|0,1:2|0:2,0:0:0:0:
231,140,216220,2,0,P|246:207|233:274,1,138.666660319011,2|2,1:2|1:2,0:0:0:0:
103,343,216595,2,0,P|105:308|113:274,2,69.3333301595054,10|0|0,0:2|0:0|0:2,0:0:0:0:
207,384,216980,2,0,P|268:352|336:338,1,138.666660319011,8|0,0:2|0:2,0:0:0:0:
476,265,217383,22,0,P|414:233|346:219,1,138.666660319011,4|0,1:2|0:2,0:0:0:0:
346,117,217758,1,0,1:2:0:0:
346,117,217883,1,0,1:2:0:0:
346,117,218008,1,0,1:2:0:0:
345,117,218133,2,0,P|357:84|360:50,2,69.3333301595054,8|0|2,0:2|0:2|1:2,0:0:0:0:
473,71,218508,2,0,P|467:36|453:5,2,69.3333301595054,8|0|0,0:2|0:0|0:2,0:0:0:0:
511,210,218908,22,0,P|447:185|381:203,1,138.666660319011,2|0,1:2|0:2,0:0:0:0:
258,145,219283,2,0,P|194:169|128:151,1,138.666660319011,2|0,1:2|0:2,0:0:0:0:
177,8,219658,2,0,P|190:39|190:74,2,69.3333301595054,8|2|0,0:2|1:2|0:2,0:0:0:0:
74,42,220033,2,0,P|69:76|52:105,2,69.3333301595054,8|0|0,0:2|0:0|0:2,0:0:0:0:
3,199,220420,22,0,P|70:206|106:263,1,138.666660319011,2|2,1:2|1:2,0:0:0:0:
260,228,220807,2,0,P|213:276|210:344,1,138.666660319011,8|0,0:2|0:2,0:0:0:0:
312,321,221194,21,10,0:2:0:0:
312,321,221319,1,0,1:2:0:0:
312,321,221444,1,0,1:2:0:0:
370,240,221569,21,10,0:2:0:0:
370,240,221694,1,0,1:2:0:0:
370,240,221819,1,0,1:2:0:0:
323,146,221944,22,0,P|311:113|306:79,2,69.3333301595054,10|0|0,0:2|1:2|1:2,0:0:0:0:
462,216,222355,2,0,P|472:183|478:148,2,69.3333301595054,10|0|8,0:2|1:2|0:2,0:0:0:0:
259,273,222742,38,0,P|226:281|199:303,1,69.3333301595054,10|0,0:2|0:2,0:0:0:0:
323,146,222984,2,0,P|348:170|380:185,1,69.3333301595054,8|0,0:2|0:2,0:0:0:0:
183,154,223226,2,0,P|190:121|187:87,1,69.3333301595054,8|0,0:2|0:2,0:0:0:0:
256,192,223469,5,4,1:2:0:0:
256,192,223572,12,0,226779,0:2:0:0:
60,143,228848,38,0,L|53:103,2,40.000001525879,8|8|8,0:2|0:2|0:2,0:0:0:0:
93,145,229055,2,0,L|85:221,1,60.0000022888184,8|8,0:2|0:2,0:0:0:0:
193,276,229262,1,0,1:2:0:0:
207,265,229365,1,8,0:2:0:0:
214,248,229469,2,0,L|207:188,1,60.0000022888184,8|0,0:2|1:2,0:0:0:0:
325,169,229675,2,0,L|331:109,1,60.0000022888184,8|2,0:2|0:2,0:0:0:0:
444,238,229882,2,0,L|483:231,2,40.000001525879,2|2|2,0:2|0:2|0:2,0:0:0:0:
436,280,230089,22,0,P|379:264|320:269,1,120.000004577637,4|2,1:2|0:2,0:0:0:0:
300,283,230400,1,2,1:2:0:0:
286,297,230503,2,0,L|278:356,1,60.0000022888184,8|0,0:2|0:0,0:0:0:0:
160,376,230710,1,2,0:2:0:0:
64,304,230917,1,2,1:2:0:0:
64,280,231020,1,0,0:2:0:0:
72,264,231124,2,0,P|100:255|130:253,1,60.0000022888184,2|0,0:2|1:2,0:0:0:0:
192,120,231331,2,0,P|220:171|219:230,1,120.000004577637,8|2,0:2|0:2,0:0:0:0:
344,8,231744,38,0,P|315:59|316:118,1,120.000004577637,2|2,1:2|0:2,0:0:0:0:
329,129,232055,1,2,1:2:0:0:
345,137,232158,2,0,L|462:113,1,120.000004577637,8|2,0:2|0:2,0:0:0:0:
363,270,232572,1,2,1:2:0:0:
339,274,232675,1,0,0:2:0:0:
319,271,232779,2,0,P|301:246|295:217,1,60.0000022888184,2|0,0:2|1:2,0:0:0:0:
454,233,232986,1,8,0:2:0:0:
462,277,233089,1,2,0:2:0:0:
450,320,233192,1,2,1:2:0:0:
420,353,233296,1,2,1:2:0:0:
377,369,233400,6,0,P|319:357|259:359,1,120.000004577637,2|2,1:2|0:2,0:0:0:0:
244,373,233710,1,2,1:2:0:0:
230,384,233813,2,0,L|225:324,1,60.0000022888184,8|0,0:2|0:0,0:0:0:0:
120,384,234020,1,2,0:2:0:0:
72,280,234227,1,2,0:2:0:0:
82,253,234331,1,0,0:2:0:0:
99,244,234434,2,0,P|128:247|156:259,1,60.0000022888184,2|0,0:2|1:2,0:0:0:0:
0,109,234641,2,0,P|54:133|113:142,1,120.000004577637,8|2,0:2|0:2,0:0:0:0:
240,0,235055,38,0,B|218:34|218:34|220:69|220:69|208:120|208:120|211:127,1,136.000002593994,2|2,1:2|0:2,0:0:0:0:
304,136,235365,1,2,1:2:0:0:
312,120,235469,2,0,B|336:104|336:104|442:119,1,136.000002593994,8|2,0:2|0:2,0:0:0:0:
360,200,235779,1,2,1:2:0:0:
344,224,235882,2,0,L|276:229,1,68.0000012969971,2|0,1:2|0:0,0:0:0:0:
376,328,236089,2,0,L|443:333,1,68.0000012969971,0|2,0:2|1:2,0:0:0:0:
287,383,236296,2,0,P|230:306|134:323,1,204.000003890991,8|2,0:2|0:2,0:0:0:0:
80,383,236710,6,0,P|97:327|90:268,1,120.000004577637,4|2,1:2|0:2,0:0:0:0:
72,256,237020,1,2,1:2:0:0:
56,248,237124,2,0,P|49:218|47:188,1,60.0000022888184,8|0,0:2|0:0,0:0:0:0:
88,104,237331,1,2,0:2:0:0:
240,168,237537,1,2,1:2:0:0:
224,192,237641,1,0,0:2:0:0:
200,200,237744,2,0,L|128:184,1,60.0000022888184,2|0,0:2|1:2,0:0:0:0:
168,47,237951,2,0,P|226:33|286:32,1,120.000004577637,8|2,0:2|0:2,0:0:0:0:
440,184,238365,38,0,P|380:182|321:168,1,120.000004577637,2|2,1:2|0:2,0:0:0:0:
304,160,238675,1,2,1:2:0:0:
293,152,238779,2,0,L|285:32,1,120.000004577637,8|2,0:2|0:2,0:0:0:0:
496,24,239193,1,2,1:2:0:0:
504,40,239296,1,0,0:2:0:0:
512,56,239400,2,0,L|506:115,1,60.0000022888184,2|0,0:2|1:2,0:0:0:0:
440,184,239606,1,8,0:2:0:0:
474,212,239709,1,2,0:2:0:0:
491,253,239812,1,2,1:2:0:0:
487,298,239916,1,2,1:2:0:0:
462,335,240020,6,0,P|406:315|347:305,1,120.000004577637,2|2,1:2|0:2,0:0:0:0:
329,313,240331,1,2,1:2:0:0:
313,321,240434,2,0,L|307:380,1,60.0000022888184,8|0,0:2|0:0,0:0:0:0:
205,278,240641,1,2,0:2:0:0:
259,151,240848,1,2,1:2:0:0:
283,148,240951,1,0,0:2:0:0:
309,158,241055,2,0,P|325:182|330:212,1,60.0000022888184,2|0,0:2|1:2,0:0:0:0:
177,196,241262,2,0,P|127:225|68:219,1,120.000004577637,8|2,0:2|0:2,0:0:0:0:
82,7,241675,38,0,B|110:43|110:43|102:72|102:72|113:131,1,136.000002593994,4|2,1:2|0:2,0:0:0:0:
193,88,241986,1,2,1:2:0:0:
210,67,242089,2,0,L|217:0,1,68.0000012969971,8|0,0:2|0:2,0:0:0:0:
31,139,242296,2,0,L|21:94,2,45.3333341979981,8|8|8,0:2|0:2|0:2,0:0:0:0:
12,166,242503,6,0,L|2:239,1,60.0000022888184,8|0,1:2|0:2,0:2:0:0:
0,358,242703,1,8,1:2:0:0:
29,326,242803,1,8,0:2:0:0:
67,302,242903,1,8,1:2:0:0:
109,290,243003,1,8,0:2:0:0:
153,290,243103,1,8,1:2:0:0:
195,300,243203,1,8,0:2:0:0:
234,322,243288,6,0,B|270:345|270:345|301:325|301:325|352:358|352:358|403:341,1,176.000005371094,6|0,1:2|0:2,0:0:0:0:
472,296,243565,2,0,B|479:258|479:258|488:240|488:240|476:213,1,88.000002685547,2|0,0:2|1:2,0:0:0:0:
336,232,243762,2,0,B|329:194|329:194|320:176|320:176|331:149,1,88.000002685547,8|8,0:2|0:2,0:0:0:0:
464,48,243959,1,10,0:2:0:0:
488,64,244058,1,2,1:2:0:0:
480,88,244175,6,0,B|448:112|448:112|401:100,1,88.000002685547,2|0,1:2|0:2,0:0:0:0:
308,12,244386,2,0,B|220:1,1,88.000002685547,2|0,1:2|0:2,0:0:0:0:
240,96,244587,1,2,1:2:0:0:
240,128,244692,1,2,0:2:0:0:
240,160,244798,2,0,B|208:176|208:176|184:168|184:168|157:165,1,88.000002685547,8|0,0:2|0:0,0:0:0:0:
16,80,245020,1,2,1:2:0:0:
48,48,245109,1,0,0:2:0:0:
40,96,245199,6,0,L|46:183,1,88.000002685547,2|2,1:2|1:2,0:0:0:0:
112,248,245395,6,0,B|104:280|104:280|96:296|96:296|105:335,1,88.000002685547,8|0,0:2|0:0,0:0:0:0:
320,328,245591,1,8,0:2:0:0:
304,288,245697,1,2,1:2:0:0:
272,304,245803,1,2,1:2:0:0:
248,280,245910,1,8,0:2:0:0:
224,296,246016,6,0,L|184:400,1,88.000002685547,2|2,1:2|1:2,0:0:0:0:
384,360,246229,1,2,1:2:0:0:
400,336,246335,1,0,1:2:0:0:
384,288,246421,2,0,B|368:248|368:248|376:216|376:216|376:204,1,88.000002685547,8|0,0:2|0:0,0:0:0:0:
512,144,246640,6,0,B|462:154|462:154|429:136,1,88.000002685547,8|0,1:2|0:0,0:0:0:0:
320,40,246876,6,0,B|369:29|369:29|402:47,1,88.000002685547,2|0,1:2|0:0,0:0:0:0:
296,152,247069,1,2,1:2:0:0:
264,176,247166,1,0,0:0:0:0:
248,168,247263,2,0,B|232:128|232:128|232:112|232:112|236:83,1,88.000002685547,8|0,0:2|0:0,0:0:0:0:
88,40,247469,2,0,B|112:104|112:104|64:152|64:152|76:189,1,176.000005371094,2|2,1:2|1:2,0:0:0:0:
160,256,247759,1,0,0:0:0:0:
160,280,247856,2,0,B|120:272|120:272|64:320|64:320|32:264,1,176.000005371094,8|0,0:2|1:2,0:0:0:0:
246,367,248243,6,0,B|266:331|266:331|241:274|241:274|265:256|265:256|262:213,1,176.000005371094,0|0,1:2|0:0,0:0:0:0:
356,227,248514,1,2,0:2:0:0:
360,212,248604,2,0,B|392:212|392:212|442:237,1,88.000002685547,2|2,1:2|1:2,0:0:0:0:
440,384,248798,5,8,0:2:0:0:
464,344,248896,1,0,0:2:0:0:
456,328,248993,2,0,B|424:328|424:328|373:353,1,88.000002685547,8|0,0:2|0:0,0:0:0:0:
408,176,249210,2,0,B|416:216|416:216|382:249,1,88.000002685547,2|4,1:2|1:2,0:0:0:0:
512,152,249427,2,0,B|478:118|478:118|486:78,1,88.000002685547,2|2,1:2|1:2,0:0:0:0:
344,40,249624,1,2,1:2:0:0:
352,80,249733,1,2,1:2:0:0:
328,120,249841,1,2,1:2:0:0:
288,136,249940,6,0,B|272:88|272:88|285:53,1,88.000002685547,12|0,1:2|0:0,0:0:0:0:
144,152,250119,2,0,L|162:238,1,88.000002685547,8|2,0:2|1:2,0:0:0:0:
0,128,250299,2,0,B|48:80|48:80|120:104|120:104|120:136,1,176.000005371094,2|8,1:2|0:2,0:0:0:0:
56,208,250568,1,2,1:2:0:0:
16,256,250658,1,0,0:2:0:0:
16,296,250774,6,0,B|88:272|88:272|84:283,1,88.000002685547,2|0,1:2|0:0,0:0:0:0:
200,384,250985,2,0,B|128:360|128:360|131:371,1,88.000002685547,2|0,1:2|0:0,0:0:0:0:
256,256,251196,5,0,1:2:0:0:
280,288,251290,1,2,1:2:0:0:
272,320,251385,1,8,0:2:0:0:
312,360,251491,1,0,1:2:0:0:
352,328,251597,1,2,1:2:0:0:
352,288,251709,1,2,1:2:0:0:
328,256,251806,1,2,1:2:0:0:
352,224,251921,1,8,0:2:0:0:
352,192,252048,6,0,B|328:160|328:160|339:113,1,88.000002685547,2|8,1:2|0:2,0:0:0:0:
496,192,252267,2,0,B|507:238|507:238|483:270,1,88.000002685547,2|2,1:2|1:2,0:0:0:0:
352,288,252452,1,12,0:2:0:0:
320,256,252552,1,2,0:2:0:0:
280,264,252652,5,2,1:2:0:0:
256,296,252752,1,2,1:2:0:0:
224,304,252852,38,0,B|216:280|216:280|155:261,1,88.000002685547,10|10,0:2|0:2,0:0:0:0:
248,112,253057,21,10,0:2:0:0:
264,96,253160,1,10,0:2:0:0:
296,95,253264,38,0,L|303:125,1,28,2|0,1:2|0:2,0:0:0:0:
192,208,254064,6,0,L|184:237,1,28,2|0,0:2|0:2,0:0:0:0:
48,168,254917,5,8,1:2:0:0:
64,143,255020,2,0,P|105:129|149:125,1,88.000002685547,8|0,1:2|0:2,0:0:0:0:
96,296,255227,2,0,P|54:282|10:278,1,88.000002685547,8|0,1:2|0:2,0:0:0:0:
184,234,255434,1,8,1:2:0:0:
208,242,255537,1,8,1:2:0:0:
208,242,255744,1,0,1:2:0:0:
264,360,255951,38,0,P|304:334|350:321,1,95.9999970703126,4|8,1:2|0:2,0:0:0:0:
471,383,256571,6,0,P|440:302|454:217,1,176.000005371094,4|0,1:2|0:2,0:0:0:0:
496,152,256881,1,0,1:2:0:0:
472,136,256984,2,0,L|385:120,1,88.000002685547,2|0,1:2|0:2,0:0:0:0:
320,40,257191,1,2,1:2:0:0:
208,192,257398,5,2,1:2:0:0:
224,176,257502,1,2,1:2:0:0:
232,151,257605,2,0,P|234:107|220:65,1,88.000002685547,2|2,1:2|1:2,0:0:0:0:
120,192,257812,2,0,P|21:251|102:332,1,264.000008056641,6|2,1:2|1:2,0:0:0:0:
176,367,258226,38,0,P|252:328|338:343,1,176.000005371094,2|2,1:2|0:2,0:0:0:0:
487,375,258639,1,8,0:2:0:0:
463,339,258742,1,8,0:2:0:0:
449,298,258845,1,8,0:2:0:0:
447,254,258949,1,8,0:2:0:0:
458,211,259052,1,8,1:2:0:0:
320,128,259260,6,0,P|303:168|309:211,1,88.000002685547,2|2,1:2|1:2,0:0:0:0:
424,96,259467,2,0,L|432:64,9,29.3333342285157,10|2|2|2|2|2|2|2|2|2,0:2|0:2|0:2|0:2|0:2|0:2|0:2|0:2|0:2|0:2,0:0:0:0:
344,32,259881,38,0,P|262:1|176:12,1,176.000005371094,4|0,1:2|0:2,0:0:0:0:
112,64,260191,1,2,1:2:0:0:
103,80,260295,2,0,P|89:121|86:165,1,88.000002685547,8|0,0:2|0:2,0:0:0:0:
175,239,260502,6,0,P|111:188|43:234,1,176.000005371094,2|0,1:2|0:0,0:0:0:0:
152,367,260915,2,0,P|193:353|237:353,1,88.000002685547,8|0,0:2|0:2,0:0:0:0:
304,272,261122,2,0,P|375:322|461:333,1,176.000005371094,8|2,0:2|0:2,0:0:0:0:
512,272,261433,1,2,0:2:0:0:
504,248,261536,37,2,1:2:0:0:
384,144,261743,1,2,0:2:0:0:
392,120,261846,1,0,1:2:0:0:
400,95,261950,2,0,P|440:78|484:82,1,88.000002685547,10|0,0:2|0:2,0:0:0:0:
416,224,262157,1,2,1:2:0:0:
296,120,262364,6,0,P|221:73|135:62,1,176.000005371094,2|0,1:2|0:0,0:0:0:0:
72,104,262674,1,2,0:2:0:0:
80,128,262777,1,10,0:2:0:0:
176,240,262984,2,0,P|160:280|154:325,1,88.000002685547,8|8,0:2|0:2,0:0:0:0:
393,344,263191,38,0,P|354:268|272:247,1,176.000005371094,4|0,1:2|0:2,0:0:0:0:
236,321,263502,1,0,1:2:0:0:
244,345,263605,1,10,0:2:0:0:
374,251,263812,2,0,P|390:210|395:166,1,88.000002685547,2|0,1:2|0:2,0:0:0:0:
360,88,264019,5,2,1:2:0:0:
352,64,264122,1,8,0:2:0:0:
344,40,264226,1,0,0:2:0:0:
232,160,264433,2,0,P|146:176|60:157,1,176.000005371094,8|2,0:2|0:2,0:0:0:0:
16,96,264743,1,2,0:2:0:0:
24,72,264846,37,2,1:2:0:0:
144,0,265053,2,0,L|144:88,1,88.000002685547,0|2,0:2|1:2,0:0:0:0:
144,200,265260,5,8,0:2:0:0:
0,319,265467,2,0,P|76:280|161:296,1,176.000005371094,2|0,1:2|0:2,0:0:0:0:
216,352,265777,1,2,1:2:0:0:
208,368,265881,1,2,1:2:0:0:
359,359,266088,2,0,P|335:278|378:204,1,176.000005371094,8|8,0:2|0:2,0:0:0:0:
464,200,266398,1,0,0:2:0:0:
488,216,266502,38,0,P|509:253|507:297,1,88.000002685547,6|2,1:2|0:2,0:0:0:0:
378,204,266711,1,2,0:2:0:0:
362,188,266816,1,2,0:2:0:0:
346,172,266921,2,0,P|344:128|365:90,1,88.000002685547,8|2,0:2|0:2,0:0:0:0:
496,40,267131,5,12,1:2:0:0:
458,62,267235,1,2,0:2:0:0:
415,72,267340,1,2,1:2:0:0:
372,67,267445,1,0,0:2:0:0:
331,48,267550,2,0,P|290:34|246:30,1,88.000002685547,2|0,1:2|0:0,0:0:0:0:
160,200,267760,2,0,P|203:196|245:181,1,88.000002685547,10|8,1:2|0:2,0:0:0:0:
128,40,267970,1,8,0:2:0:0:
104,72,268075,1,0,0:0:0:0:
96,112,268180,1,8,1:2:0:0:
95,111,268599,6,0,P|127:193|116:282,1,180.000006866455,4|0,1:2|0:2,0:0:0:0:
31,376,269012,2,0,P|58:362|88:359,1,60.0000022888184,0|0,1:2|0:0,0:0:0:0:
200,320,269219,2,0,L|205:359,2,40.000001525879,8|8|8,0:2|0:2|0:2,0:0:0:0:
296,304,269426,2,0,L|287:343,2,40.000001525879,8|8|8,0:2|0:2|0:2,0:0:0:0:
391,321,269633,2,0,L|369:354,2,40.000001525879,8|0|8,1:2|0:2|0:2,0:0:0:0:
460,384,269840,22,0,P|428:303|449:219,1,176.000005371094,4|0,1:2|0:2,0:0:0:0:
494,158,270140,1,2,1:2:0:0:
504,143,270240,2,0,P|512:99|511:55,1,88.000002685547,8|0,0:2|0:2,0:0:0:0:
373,164,270440,6,0,P|299:119|213:118,1,176.000005371094,2|0,1:2|0:2,0:0:0:0:
157,176,270740,1,2,1:2:0:0:
164,199,270840,1,8,0:2:0:0:
33,132,271046,2,0,P|13:51|79:0,1,176.000005371094,8|0,0:2|0:2,0:0:0:0:
145,40,271357,1,2,0:2:0:0:
138,62,271460,38,0,P|126:103|126:147,1,88.000002685547,2|0,1:2|0:2,0:0:0:0:
287,262,271666,2,0,P|287:218|274:176,1,88.000002685547,2|0,0:2|1:2,0:0:0:0:
144,285,271873,1,10,0:2:0:0:
312,368,272080,1,2,1:2:0:0:
336,344,272184,1,0,0:2:0:0:
360,320,272287,6,0,L|444:343,1,88.000002685547,2|2,0:2|1:2,0:0:0:0:
512,256,272494,1,2,0:2:0:0:
360,128,272701,37,10,0:2:0:0:
416,240,272908,2,0,P|435:200|446:157,1,88.000002685547,2|0,1:2|0:2,0:0:0:0:
273,175,273115,2,0,P|209:118|123:104,1,176.000005371094,2|0,1:2|0:2,0:0:0:0:
64,152,273425,1,2,1:2:0:0:
72,168,273528,1,10,0:2:0:0:
144,352,273735,1,2,1:2:0:0:
152,328,273839,1,10,0:2:0:0:
160,304,273942,6,0,P|198:283|242:279,1,88.000002685547,0|2,0:0|1:2,0:0:0:0:
336,344,274149,1,8,0:2:0:0:
408,208,274356,2,0,P|433:124|418:38,1,176.000005371094,8|2,0:2|0:2,0:0:0:0:
352,8,274666,1,2,0:2:0:0:
328,8,274770,38,0,L|306:93,1,88.000002685547,2|0,1:2|0:2,0:0:0:0:
192,160,274977,2,0,L|213:245,1,88.000002685547,2|0,0:2|1:2,0:0:0:0:
328,312,275184,1,10,0:2:0:0:
168,360,275391,1,2,1:2:0:0:
144,336,275494,1,0,0:2:0:0:
111,327,275597,6,0,P|67:333|29:354,1,88.000002685547,2|2,1:2|0:2,0:0:0:0:
8,192,275804,2,0,P|51:198|89:219,1,88.000002685547,0|2,0:0|1:2,0:0:0:0:
224,88,276011,2,0,P|187:167|190:254,1,176.000005371094,10|8,0:2|0:2,0:0:0:0:
224,328,276322,1,8,0:2:0:0:
248,344,276425,38,0,B|333:375|333:311|419:342,1,176.000005371094,4|0,1:2|0:2,0:0:0:0:
480,296,276735,1,0,1:2:0:0:
488,272,276839,1,8,0:2:0:0:
352,208,277046,2,0,L|337:121,1,88.000002685547,2|0,1:2|0:2,0:0:0:0:
439,48,277253,6,0,P|362:86|277:71,1,176.000005371094,2|0,1:2|0:2,0:0:0:0:
80,144,277666,2,0,P|165:128|242:167,1,176.000005371094,10|2,0:2|0:2,0:0:0:0:
272,240,277977,1,0,0:2:0:0:
264,264,278080,38,0,P|178:248|101:287,1,176.000005371094,2|0,1:2|0:0,0:0:0:0:
90,361,278391,1,2,1:2:0:0:
100,373,278494,1,8,0:2:0:0:
332,362,278701,6,0,P|363:281|360:193,1,176.000005371094,2|0,1:2|0:0,0:0:0:0:
504,104,279115,2,0,P|463:120|419:120,1,88.000002685547,0|0,1:2|0:2,0:0:0:0:
296,16,279322,2,0,P|339:16|380:32,1,88.000002685547,8|0,0:2|0:2,0:0:0:0:
283,156,279528,1,8,0:2:0:0:
251,172,279632,1,8,0:2:0:0:
217,164,279735,38,0,B|200:124|200:124|206:79,1,88.000002685547,4|2,1:2|0:2,0:0:0:0:
72,32,279942,1,2,0:2:0:0:
71,59,280046,1,10,0:2:0:0:
83,82,280149,2,0,B|100:122|100:122|93:166,1,88.000002685547,10|2,0:2|0:2,0:0:0:0:
0,287,280356,5,4,1:2:0:0:
34,261,280459,1,2,0:2:0:0:
77,252,280562,1,10,0:2:0:0:
119,263,280666,1,10,0:2:0:0:
152,292,280770,2,0,P|159:335|156:378,1,88.000002685547,2|0,1:2|0:2,0:0:0:0:
288,304,280977,2,0,P|369:335|455:320,1,176.000005371094,2|8,1:2|0:2,0:0:0:0:
488,248,281287,1,8,0:2:0:0:
480,224,281391,37,12,1:2:0:0:
320,164,281597,1,0,1:2:0:0:
398,8,281804,22,0,B|382:94|382:94|415:141|415:141|398:234,1,240.000009155274,4|0,1:2|1:2,0:0:0:0:
224,128,282425,1,8,0:2:0:0:
232,104,282528,1,8,0:2:0:0:
32,144,282735,1,8,0:2:0:0:
24,120,282838,1,8,0:2:0:0:
112,24,283046,22,0,P|135:99|122:177,1,160,4|2,1:2|1:2,0:0:0:0:
56,224,283356,1,2,1:2:0:0:
40,240,283460,2,0,P|33:279|31:319,1,80,2|0,1:2|1:2,0:0:0:0:
168,376,283666,2,0,P|161:336|159:296,1,80,10|0,1:2|0:2,0:0:0:0:
320,272,283873,5,2,1:2:0:0:
336,296,283977,1,2,1:2:0:0:
328,323,284080,2,0,P|291:337|251:337,1,80,0|0,0:2|1:2,0:0:0:0:
208,207,284287,2,0,P|279:173|358:165,1,160,8|0,0:2|1:2,0:0:0:0:
432,200,284597,1,0,1:2:0:0:
424,224,284701,37,8,1:2:0:0:
512,88,284908,1,2,1:2:0:0:
342,64,285115,22,0,B|381:174|285:174|335:295,1,240.000009155274,12|0,1:2|0:2,0:0:0:0:
256,112,285735,1,8,0:2:0:0:
248,88,285839,1,0,1:2:0:0:
70,225,286046,1,8,0:2:0:0:
78,201,286150,1,0,1:2:0:0:
168,239,286334,22,0,P|164:160|132:87,1,160,4|0,1:2|0:2,0:0:0:0:
117,74,286655,1,2,0:2:0:0:
101,66,286762,2,0,L|21:53,1,80,8|0,0:2|0:2,0:0:0:0:
200,152,286976,2,0,P|270:116|350:111,1,160,2|2,1:2|0:2,0:0:0:0:
359,126,287298,1,2,0:2:0:0:
367,142,287405,2,0,L|379:221,1,80,2|0,1:2|0:2,0:0:0:0:
432,312,287619,2,0,P|376:257|299:262,1,160,8|2,0:2|0:2,0:0:0:0:
243,319,287941,1,2,0:2:0:0:
252,342,288048,5,2,1:2:0:0:
73,260,288241,2,0,P|85:221|90:182,1,80,2|0,0:1|1:2,0:0:0:0:
23,81,288435,2,0,P|78:135|155:128,1,160,10|2,0:1|0:2,0:0:0:0:
288,16,288848,1,2,0:2:0:0:
256,16,288952,1,0,0:2:0:0:
232,40,289055,2,0,P|237:79|249:117,1,80,2|0,1:1|0:2,0:0:0:0:
368,144,289262,2,0,P|290:137|235:191,1,160,10|2,0:1|0:2,0:0:0:0:
280,256,289572,1,2,0:2:0:0:
304,264,289676,37,2,1:2:0:0:
416,368,289882,2,0,P|398:332|396:292,1,80,0|0,0:2|1:2,0:0:0:0:
464,199,290089,2,0,P|487:124|474:46,1,160,10|0,0:1|1:2,0:0:0:0:
460,37,290400,1,0,0:2:0:0:
444,29,290503,2,0,L|364:22,1,80,2|2,1:2|0:2,0:0:0:0:
270,116,290710,1,2,1:1:0:0:
149,2,290917,2,0,P|168:36|174:76,1,80,10|0,0:1|0:0,0:0:0:0:
92,136,291124,2,0,P|72:170|66:210,1,80,2|2,0:2|0:2,0:0:0:0:
232,272,291331,5,2,1:2:0:0:
238,249,291434,1,0,0:2:0:0:
240,224,291538,2,0,B|208:201|208:201|167:195,1,80,2|0,0:1|0:2,0:0:0:0:
152,343,291744,2,0,P|223:312|300:331,1,160,10|2,0:1|0:2,0:0:0:0:
307,349,292055,1,2,0:2:0:0:
315,365,292158,2,0,P|352:379|391:376,1,80,0|8,1:2|0:2,0:0:0:0:
434,222,292365,2,0,P|396:236|357:233,1,80,0|0,1:2|1:2,0:0:0:0:
272,112,292572,37,8,0:2:0:0:
311,76,292675,1,8,0:2:0:0:
361,58,292778,1,8,0:2:0:0:
413,62,292882,1,8,0:2:0:0:
