osu file format v14

[General]
AudioFilename: audio.mp3
AudioLeadIn: 0
PreviewTime: 253211
Countdown: 0
SampleSet: Soft
StackLeniency: 0.3
Mode: 0
LetterboxInBreaks: 0
WidescreenStoryboard: 1

[Editor]
Bookmarks: 645,7265,13886,27127,40369,46989,53596,61850,88376,94997,107410,114031,127272,140514,147134,160376,186817,199076,211256,223469,230089,243288,256572,286334
DistanceSpacing: 0.6
BeatDivisor: 4
GridSize: 8
TimelineZoom: 2.935999

[Metadata]
Title:Kono Yubi Tomare
TitleUnicode:コノユビトマレ
Artist:JUNNA
ArtistUnicode:JUNNA
Creator:Atalanta
Version:Extra
Source:賭ケグルイ××
Tags:Kakegurui×× xx Season 2 Full Version OP Opening Japanese Anime Compulsive Gambler
BeatmapID:1975886
BeatmapSetID:942476

[Difficulty]
HPDrainRate:4
CircleSize:3.8
OverallDifficulty:8.7
ApproachRate:9.2
SliderMultiplier:1.7
SliderTickRate:1

[Events]
//Background and Video events
0,0,"Jabami Yumepog.jpg",0,0
//Break Periods
2,88576,94427
2,148996,157323
2,187016,190870
2,226979,228278
//Storyboard Layer 0 (Background)
//Storyboard Layer 1 (Fail)
//Storyboard Layer 2 (Pass)
//Storyboard Layer 3 (Foreground)
//Storyboard Layer 4 (Overlay)
//Storyboard Sound Samples

[TimingPoints]
645,413.793103448276,4,2,11,25,1,0
645,-166.666666666667,4,2,11,25,0,0
3955,-166.666666666667,4,2,11,45,0,0
5610,-100,4,2,3,50,0,0
6438,-83.3333333333333,4,2,3,60,0,0
7265,-50,4,2,1,70,0,0
13886,-66.6666666666667,4,2,2,60,0,0
27127,-58.8235294117647,4,2,2,60,0,0
40369,-58.8235294117647,4,2,2,50,0,0
43679,461.538461538462,4,2,2,50,1,0
43679,-100,4,2,2,50,0,0
44602,419.58041958042,4,2,2,50,1,0
44602,-100,4,2,2,50,0,0
45441,410.958904109589,4,2,2,50,1,0
45441,-100,4,2,2,50,0,0
46262,363.636363636364,4,2,2,50,1,0
46262,-100,4,2,2,50,0,0
46989,413.793103448276,4,2,11,45,1,0
46989,-100,4,2,11,45,0,0
51954,495.867768595041,4,2,1,60,1,0
51954,-66.6666666666667,4,2,1,60,0,0
52254,389.61038961039,4,2,1,60,1,0
52550,535.714285714286,4,2,1,60,1,0
52550,-66.6666666666667,4,2,1,60,0,0
52817,365.853658536585,4,2,1,60,1,0
52817,-66.6666666666667,4,2,1,60,0,0
53596,425.531914893617,4,2,1,60,1,0
53596,-58.8235294117647,4,2,1,60,0,0
54023,413.793103448276,4,2,1,60,1,0
54023,-58.8235294117647,4,2,1,60,0,0
56920,-100,4,2,1,40,0,0
57126,-100,4,2,1,45,0,0
57333,-100,4,2,1,50,0,0
57540,-83.3333333333333,4,2,1,55,0,0
57747,-83.3333333333333,4,2,1,60,0,0
57954,-83.3333333333333,4,2,1,65,0,0
58161,-71.4285714285714,4,2,1,70,0,0
58368,-71.4285714285714,4,2,1,75,0,0
58575,-62.5,4,2,1,70,0,0
61084,372.670807453416,4,2,1,70,1,0
61456,394.736842105263,4,2,1,70,1,0
61850,458.015267175573,4,2,1,80,1,1
61850,-45.4545454545455,4,2,1,80,0,1
62308,413.793103448276,4,2,1,80,1,1
62308,-45.4545454545455,4,2,1,80,0,1
63549,413.793103448276,4,2,1,80,1,1
63549,-45.4545454545455,4,2,1,80,0,1
73480,-66.6666666666667,4,2,1,70,0,0
75135,-45.4545454545455,4,2,1,80,0,1
87135,-1000,4,2,1,60,0,0
94997,413.793103448276,7,2,1,60,1,0
94997,-66.6666666666667,7,2,1,60,0,0
100790,413.793103448276,4,2,2,70,1,0
100790,-50,4,2,2,70,0,0
102031,-50,4,2,2,40,0,0
102238,-66.6666666666667,4,2,2,60,0,0
105755,512.820512820513,4,2,2,60,1,0
105755,-66.6666666666667,4,2,2,60,0,0
106908,413.793103448276,4,2,2,60,1,0
107410,413.793103448276,4,2,11,50,1,0
107410,-66.6666666666667,4,2,11,50,0,0
114031,-58.8235294117647,4,2,2,60,0,0
132237,375,4,2,2,60,1,0
132237,-58.8235294117647,4,2,2,60,0,0
132750,375,4,2,2,60,1,0
132750,-58.8235294117647,4,2,2,60,0,0
133065,413.793103448276,4,2,2,60,1,0
133065,-58.8235294117647,4,2,2,60,0,0
133893,413.793103448276,4,2,1,60,1,0
133893,-58.8235294117647,4,2,1,60,0,0
138858,437.956204379562,4,2,1,60,1,0
138858,-58.8235294117647,4,2,1,60,0,0
139733,480,4,2,1,60,1,0
139733,-58.8235294117647,4,2,1,60,0,0
140514,413.793103448276,4,2,1,60,1,0
140514,-58.8235294117647,4,2,1,60,0,0
143824,-100,4,2,1,40,0,0
144031,-100,4,2,1,45,0,0
144238,-100,4,2,1,50,0,0
144445,-83.3333333333333,4,2,1,55,0,0
144652,-83.3333333333333,4,2,1,60,0,0
144858,-83.3333333333333,4,2,1,65,0,0
145065,-71.4285714285714,4,2,1,70,0,0
145272,-71.4285714285714,4,2,1,75,0,0
145479,-62.5,4,2,1,70,0,0
157893,-100,4,2,1,60,0,0
160376,-45.4545454545455,4,2,1,80,0,1
171962,-66.6666666666667,4,2,1,70,0,0
173617,-45.4545454545455,4,2,1,80,0,1
185617,400,4,2,1,60,1,0
185617,-1000,4,2,1,60,0,0
186817,400,4,2,1,60,1,0
188817,352.941176470588,4,2,1,60,1,0
189169,377.358490566038,4,2,1,60,1,0
189923,422.535211267606,4,2,1,60,1,0
191440,379.746835443038,4,2,1,60,1,0
192958,-76.9230769230769,4,2,1,60,0,0
193338,392.156862745098,4,2,1,60,1,0
193338,-76.9230769230769,4,2,1,60,0,0
193730,370.37037037037,4,2,1,60,1,0
193730,-76.9230769230769,4,2,1,60,0,0
194470,408.163265306122,4,2,1,60,1,0
194470,-76.9230769230769,4,2,1,60,0,0
194841,413.793103448276,4,2,1,60,1,0
194841,-76.9230769230769,4,2,1,60,0,0
195254,400,4,2,1,60,1,0
195254,-76.9230769230769,4,2,1,60,0,0
195520,375,4,2,1,60,1,0
195645,375,4,2,1,60,1,0
195645,-76.9230769230769,4,2,1,60,0,0
196801,375,4,2,1,60,1,0
196801,-76.9230769230769,4,2,1,60,0,0
197157,375,4,2,1,60,1,0
197157,-76.9230769230769,4,2,1,60,0,0
197904,413.793103448276,4,2,1,60,1,0
197904,-76.9230769230769,4,2,1,60,0,0
198317,379.746835443038,4,2,1,60,1,0
198317,-76.9230769230769,4,2,1,60,0,0
199076,413.793103448276,4,2,1,60,1,0
199076,-76.9230769230769,4,2,1,60,0,0
199489,363.636363636364,4,2,1,60,1,0
199489,-76.9230769230769,4,2,1,60,0,0
200216,387.096774193548,4,2,1,60,1,0
200216,-76.9230769230769,4,2,1,60,0,0
200603,375,4,2,1,60,1,0
200603,-76.9230769230769,4,2,1,60,0,0
202145,379.746835443038,4,2,1,60,1,0
202145,-76.9230769230769,4,2,1,60,0,0
202524,370.37037037037,4,2,1,60,1,0
202524,-76.9230769230769,4,2,1,60,0,0
203264,382.165605095541,4,2,1,60,1,0
203264,-76.9230769230769,4,2,1,60,0,0
204410,375,4,2,1,60,1,0
204410,-76.9230769230769,4,2,1,60,0,0
204785,413.793103448276,4,2,1,60,1,0
204785,-76.9230769230769,4,2,1,60,0,0
205198,375,4,2,1,60,1,0
205198,-76.9230769230769,4,2,1,60,0,0
205573,352.941176470588,4,2,1,60,1,0
205573,-76.9230769230769,4,2,1,60,0,0
205925,375,4,2,1,60,1,0
205925,-76.9230769230769,4,2,1,60,0,0
206300,400,4,2,1,60,1,0
206300,-76.9230769230769,4,2,1,60,0,0
206700,361.44578313253,4,2,1,60,1,0
206700,-76.9230769230769,4,2,1,60,0,0
207061,372.670807453416,4,2,1,60,1,0
207061,-76.9230769230769,4,2,1,60,0,0
207433,405.405405405405,4,2,1,60,1,0
207433,-76.9230769230769,4,2,1,60,0,0
207838,387.096774193548,4,2,1,60,1,0
207838,-76.9230769230769,4,2,1,60,0,0
208999,359.281437125748,4,2,1,60,1,0
208999,-76.9230769230769,4,2,1,60,0,0
209358,379.746835443038,4,2,1,60,1,0
209358,-76.9230769230769,4,2,1,60,0,0
211256,379.746835443038,4,2,1,60,1,0
211256,-76.9230769230769,4,2,1,60,0,0
211635,413.793103448276,4,2,1,60,1,0
211635,-76.9230769230769,4,2,1,60,0,0
212048,375,4,2,1,60,1,0
212048,-76.9230769230769,4,2,1,60,0,0
214298,419.58041958042,4,2,1,60,1,0
214298,-76.9230769230769,4,2,1,60,0,0
214717,363.636363636364,4,2,1,60,1,0
214717,-76.9230769230769,4,2,1,60,0,0
215856,379.746835443038,4,2,1,60,1,0
215856,-76.9230769230769,4,2,1,60,0,0
216220,375,4,2,1,60,1,0
216220,-76.9230769230769,4,2,1,60,0,0
216595,375,4,2,1,60,1,0
216595,-76.9230769230769,4,2,1,60,0,0
216980,413.793103448276,4,2,1,60,1,0
216980,-76.9230769230769,4,2,1,60,0,0
217383,375,4,2,1,60,1,0
217383,-76.9230769230769,4,2,1,60,0,0
218508,400,4,2,1,60,1,0
218508,-76.9230769230769,4,2,1,60,0,0
218908,375,4,2,1,60,1,0
218908,-76.9230769230769,4,2,1,60,0,0
220033,387.096774193548,4,2,1,60,1,0
220033,-76.9230769230769,4,2,1,60,0,0
220420,387.096774193548,4,2,1,60,1,0
220420,-76.9230769230769,4,2,1,60,0,0
221194,375,4,2,1,60,1,0
221194,-76.9230769230769,4,2,1,60,0,0
222355,375,4,2,1,60,1,0
222355,-76.9230769230769,4,2,1,60,0,0
222742,363.636363636364,4,2,1,60,1,0
222742,-76.9230769230769,4,2,1,60,0,0
223469,413.793103448276,4,2,1,60,1,0
228848,-66.6666666666667,4,2,1,60,0,0
230089,-66.6666666666667,4,2,1,60,0,0
235055,-58.8235294117647,4,2,1,70,0,0
236710,-66.6666666666667,4,2,1,60,0,0
241675,-58.8235294117647,4,2,1,70,0,0
242503,400,4,2,1,71,1,1
242503,-66.6666666666667,4,2,1,71,0,1
243288,394.736842105263,4,2,1,71,1,1
243288,-45.4545454545455,4,2,1,71,0,1
243386,394.736842105263,4,2,1,71,1,0
243386,-45.4545454545455,4,2,1,71,0,0
243565,394.736842105263,4,2,1,71,1,0
243565,-45.4545454545455,4,2,1,71,0,0
244175,422.535211267606,4,2,1,71,1,1
244175,-45.4545454545455,4,2,1,71,0,1
244587,422.535211267606,4,2,1,71,1,1
244587,-45.4545454545455,4,2,1,71,0,1
245020,359.281437125748,4,2,1,71,1,1
245020,-45.4545454545455,4,2,1,71,0,1
245199,392.156862745098,4,2,1,71,1,0
245199,-45.4545454545455,4,2,1,71,0,0
245591,425.531914893617,4,2,1,71,1,1
245591,-45.4545454545455,4,2,1,71,0,1
245910,425.531914893617,4,2,1,71,1,0
245910,-45.4545454545455,4,2,1,71,0,0
246421,437.956204379562,4,2,1,71,1,1
246421,-45.4545454545455,4,2,1,71,0,1
246640,472.44094488189,4,2,1,71,1,0
246640,-45.4545454545455,4,2,1,71,0,0
246876,387.096774193548,4,2,1,71,1,1
246876,-45.4545454545455,4,2,1,71,0,1
247263,413.793103448276,4,2,1,71,1,0
247263,-45.4545454545455,4,2,1,71,0,0
247469,387.096774193548,4,2,1,71,1,1
247469,-45.4545454545455,4,2,1,71,0,1
248243,361.44578313253,4,2,1,71,1,1
248243,-45.4545454545455,4,2,1,71,0,1
248604,389.61038961039,4,2,1,71,1,1
248604,-45.4545454545455,4,2,1,71,0,1
248993,434.782608695652,4,2,1,71,1,1
248993,-45.4545454545455,4,2,1,71,0,1
249427,394.736842105263,4,2,1,71,1,1
249427,-45.4545454545455,4,2,1,71,0,1
249624,434.782608695652,4,2,1,71,1,1
249624,-45.4545454545455,4,2,1,71,0,1
249940,359.281437125748,4,2,1,71,1,1
249940,-45.4545454545455,4,2,1,71,0,1
250299,359.281437125748,4,2,1,71,1,1
250299,-45.4545454545455,4,2,1,71,0,1
250774,422.535211267606,4,2,1,71,1,0
250774,-45.4545454545455,4,2,1,71,0,0
251196,379.746835443038,4,2,1,71,1,1
251196,-45.4545454545455,4,2,1,71,0,1
251385,425.531914893617,4,2,1,71,1,0
251385,-45.4545454545455,4,2,1,71,0,0
251597,451.127819548872,4,2,1,71,1,1
251597,-45.4545454545455,4,2,1,71,0,1
251806,461.538461538462,4,2,1,71,1,1
251806,-45.4545454545455,4,2,1,71,0,1
252048,363.636363636364,4,2,1,71,1,0
252048,-45.4545454545455,4,2,1,71,0,0
252267,379.746835443038,4,2,1,71,1,1
252267,-45.4545454545455,4,2,1,71,0,1
252452,400,4,2,1,71,1,0
252452,-45.4545454545455,4,2,1,71,0,0
252852,410.958904109589,4,2,1,71,1,1
252852,-45.4545454545455,4,2,1,71,0,1
253264,400,4,2,2,40,1,0
253264,-1000,4,2,2,40,0,0
254917,413.793103448276,4,2,1,80,1,1
254917,-45.4545454545455,4,2,1,80,0,1
255951,441.176470588235,4,2,1,65,1,0
255951,-166.666666666667,4,2,1,65,0,0
256571,413.793103448276,4,2,1,80,1,1
256571,-45.4545454545455,4,2,1,80,0,1
259467,-45.4545454545455,4,2,1,80,0,0
259502,-45.4545454545455,4,2,2,80,0,0
259881,-45.4545454545455,4,2,1,80,0,1
266502,419.58041958042,4,2,1,80,1,1
266502,-45.4545454545455,4,2,1,80,0,1
268180,-100,4,2,1,70,0,0
268599,413.793103448276,4,2,1,70,1,0
268599,-66.6666666666667,4,2,1,70,0,0
269840,400,4,2,1,80,1,1
269840,-45.4545454545455,4,2,1,80,0,1
270840,413.793103448276,4,2,1,80,1,1
270840,-45.4545454545455,4,2,1,80,0,1
271460,413.793103448276,4,2,1,80,1,1
271460,-45.4545454545455,4,2,1,80,0,1
281391,-45.4545454545455,4,2,1,70,0,0
281804,-66.6666666666667,4,2,1,70,0,0
283046,-50,4,2,1,80,0,1
284701,-50,4,2,1,70,0,0
285115,-66.6666666666667,4,2,1,70,0,0
286334,428.571428571429,4,2,1,60,1,0
286334,-50,4,2,1,60,0,0
288048,387.096774193548,4,2,1,60,1,0
288048,-50,4,2,1,60,0,0
288435,413.793103448276,4,2,1,60,1,0
288435,-50,4,2,1,60,0,0
289676,413.793103448276,4,2,1,60,1,0
289676,-50,4,2,1,60,0,0
292572,-50,4,2,1,70,0,0
292779,-50,4,2,1,80,0,0

[Colours]
Combo1 : 163,50,50
Combo2 : 192,192,192
Combo3 : 128,128,128
Combo4 : 255,128,128

[HitObjects]
160,105,645,5,0,3:2:0:0:
66,138,851,1,2,0:2:0:0:
66,138,955,1,2,0:2:0:0:
66,138,1058,2,0,P|83:171|83:209,1,76.4999976654053,2|0,0:2|0:2,0:0:0:0:
91,228,1472,2,0,P|81:251|78:276,1,50.9999984436036,2|0,0:2|0:2,0:0:0:0:
156,364,1885,1,2,0:2:0:0:
159,352,1989,2,0,P|181:339|206:333,1,50.9999984436036,2|0,1:2|0:2,0:0:0:0:
280,360,2300,5,0,0:2:0:0:
416,340,2507,1,2,0:2:0:0:
416,340,2610,1,2,0:2:0:0:
415,339,2713,2,0,P|396:305|393:267,1,76.4999976654053,2|0,0:2|0:2,0:0:0:0:
376,247,3127,2,0,P|387:224|394:199,1,50.9999984436036,2|0,0:2|0:2,0:0:0:0:
464,132,3541,1,2,0:2:0:0:
452,128,3645,2,0,P|439:106|433:81,1,50.9999984436036,2|0,1:2|0:2,0:0:0:0:
460,8,3955,37,2,1:2:0:0:
328,32,4162,1,2,0:2:0:0:
328,32,4265,1,2,0:2:0:0:
328,31,4369,2,0,P|296:52|258:55,1,76.4999976654053,2|0,0:2|0:2,0:0:0:0:
232,76,4782,2,0,P|209:64|184:60,1,50.9999984436036,2|0,0:2|0:2,0:0:0:0:
48,120,5196,1,2,0:2:0:0:
56,124,5300,2,0,P|68:145|73:170,1,50.9999984436036,2|0,1:2|0:2,0:0:0:0:
120,240,5610,22,0,B|100:264|100:264|91:288,1,56.6666666666667,2|0,1:2|0:2,0:0:0:0:
192,304,5817,2,0,B|186:334|186:334|191:359,1,56.6666666666667,2|0,0:2|0:2,0:0:0:0:
295,255,6024,2,0,P|273:238|247:227,1,56.6666666666667,2|0,1:2|0:2,0:0:0:0:
176,164,6231,2,0,P|198:146|224:135,1,56.6666666666667,2|0,0:2|0:2,0:0:0:0:
376,148,6438,6,0,L|367:180,2,33.9999989624024,2|0|2,1:2|0:2|0:2,0:0:0:0:
468,204,6645,2,0,L|476:236,2,33.9999989624024,2|0|2,1:2|0:2|0:2,0:0:0:0:
384,288,6851,2,0,L|375:320,2,33.9999989624024,2|0|2,1:2|0:2|0:2,0:0:0:0:
476,344,7058,2,0,L|484:376,2,33.9999989624024,2|0|0,1:2|0:0|0:2,0:0:0:0:
296,380,7265,38,0,P|219:344|134:342,1,170,4|0,1:2|0:2,0:0:0:0:
0,268,7576,1,2,0:2:0:0:
20,280,7679,2,0,P|39:317|45:359,1,85,8|0,0:2|0:2,0:0:0:0:
124,216,7886,6,0,P|84:144|118:70,1,170,2|2,1:2|0:2,0:0:0:0:
296,96,8196,1,2,0:2:0:0:
315,89,8300,2,0,P|334:52|337:10,1,85,2|0,1:2|0:2,0:0:0:0:
196,140,8507,2,0,L|231:306,1,170,8|2,0:2|0:2,0:0:0:0:
376,280,8817,1,2,0:2:0:0:
356,296,8920,38,0,B|340:336|340:336|345:377,1,85,2|0,1:2|0:2,0:0:0:0:
512,279,9127,2,0,B|486:246|486:246|480:204,1,85,2|0,0:1|1:2,0:0:0:0:
296,180,9334,2,0,P|374:157|404:81,1,170,10|2,0:1|0:2,0:0:0:0:
228,20,9645,1,2,0:2:0:0:
216,40,9748,6,0,P|210:81|215:123,1,85,2|0,0:2|0:2,0:0:0:0:
32,160,9955,2,0,P|37:201|32:243,1,85,2|0,1:1|0:2,0:0:0:0:
223,323,10162,2,0,P|141:317|80:373,1,170,10|2,0:1|0:2,0:0:0:0:
284,256,10472,1,2,0:2:0:0:
308,272,10576,38,0,L|476:293,1,170,2|0,1:1|0:2,0:0:0:0:
324,112,10885,1,0,1:2:0:0:
300,128,10989,2,0,L|131:149,1,170,10|0,0:1|1:2,0:0:0:0:
4,32,11300,1,0,0:2:0:0:
35,35,11403,2,0,P|53:72|52:114,1,85,2|2,1:2|0:2,0:0:0:0:
240,46,11610,2,0,P|237:88|215:123,1,85,2|0,1:1|0:2,0:0:0:0:
4,235,11817,2,0,P|83:218|145:272,1,170,10|2,0:1|0:2,0:0:0:0:
328,368,12127,1,2,0:2:0:0:
344,360,12231,6,0,B|383:281|311:281|342:196,1,170,2|2,1:2|0:1,0:0:0:0:
512,186,12541,1,0,0:2:0:0:
503,213,12645,2,0,P|466:233|424:234,1,85,10|0,0:1|0:2,0:0:0:0:
286,83,12851,1,2,0:2:0:0:
343,28,12955,1,10,0:2:0:0:
418,57,13058,37,0,1:2:0:0:
360,113,13162,2,0,L|341:195,1,85,8|0,0:2|1:2,0:0:0:0:
160,232,13369,1,8,0:2:0:0:
218,288,13473,2,0,L|236:370,1,85,8|0,0:2|0:2,0:0:0:0:
48,280,13679,1,8,0:2:0:0:
16,208,13782,1,8,0:2:0:0:
63,144,13886,22,0,P|79:82|73:19,1,127.500004863739,4|2,1:2|0:2,0:0:0:0:
168,48,14196,1,0,1:2:0:0:
176,71,14300,2,0,P|170:103|157:132,1,63.7500024318696,10|0,0:2|0:2,0:0:0:0:
264,32,14507,2,0,P|323:55|386:55,1,127.500004863739,2|0,1:2|0:0,0:0:0:0:
472,0,14816,1,8,0:2:0:0:
463,23,14920,2,0,P|468:54|481:83,1,63.7500024318696,0|0,1:2|0:2,0:0:0:0:
408,152,15127,1,10,0:2:0:0:
488,264,15335,1,10,0:2:0:0:
496,288,15438,1,8,0:2:0:0:
488,312,15541,22,0,P|416:288|336:296,1,127.500004863739,0|2,1:2|0:2,0:0:0:0:
256,376,15851,1,0,1:2:0:0:
271,368,15955,2,0,P|279:336|279:305,1,63.7500024318696,10|0,0:2|0:2,0:0:0:0:
104,336,16162,1,2,1:2:0:0:
120,360,16265,2,0,L|181:378,1,63.7500024318696,8|0,0:2|0:0,0:0:0:0:
232,224,16472,1,8,0:2:0:0:
216,248,16575,2,0,L|154:266,1,63.7500024318696,0|0,1:2|0:2,0:0:0:0:
80,192,16782,1,10,0:2:0:0:
232,48,16989,1,10,0:2:0:0:
216,40,17093,1,8,0:2:0:0:
200,47,17196,22,0,P|170:103|166:166,1,127.500004863739,0|2,1:2|0:2,0:0:0:0:
81,104,17507,1,0,1:2:0:0:
75,91,17610,2,0,P|88:62|110:39,1,63.7500024318696,10|0,0:2|0:2,0:0:0:0:
250,139,17817,2,0,P|309:115|372:115,1,127.500004863739,2|2,1:2|0:2,0:0:0:0:
430,46,18127,1,8,0:2:0:0:
447,52,18231,2,0,P|459:81|467:112,1,63.7500024318696,0|0,1:2|0:2,0:0:0:0:
421,218,18438,1,10,0:2:0:0:
264,228,18645,1,8,0:2:0:0:
248,244,18748,1,8,0:2:0:0:
247,267,18851,22,0,P|260:295|264:327,1,63.7500024318696,2|0,1:2|0:2,0:0:0:0:
146,316,19058,2,0,P|143:347|131:377,1,63.7500024318696,2|0,0:2|1:2,0:0:0:0:
71,233,19265,2,0,P|30:186|43:126,1,127.500004863739,10|0,0:2|1:2,0:0:0:0:
110,39,19576,1,8,0:2:0:0:
123,67,19679,2,0,L|184:83,1,63.7500024318696,0|8,1:2|0:2,0:0:0:0:
255,149,19886,2,0,L|316:132,1,63.7500024318696,0|0,1:2|0:2,0:0:0:0:
384,65,20093,1,8,0:2:0:0:
492,199,20300,2,0,P|500:229|498:261,1,63.7500024318696,8|8,0:2|0:2,0:0:0:0:
347,344,20507,21,2,1:2:0:0:
358,266,20610,2,0,P|388:257|420:259,1,63.7500024318696,8|0,0:2|0:2,0:0:0:0:
331,367,20817,1,0,1:2:0:0:
278,310,20920,2,0,P|213:289|125:282,1,127.500004863739,8|0,0:2|0:2,0:0:0:0:
32,365,21231,1,2,0:2:0:0:
47,363,21334,2,0,P|65:336|71:305,1,63.7500024318696,2|0,1:2|0:2,0:0:0:0:
91,220,21541,2,0,P|73:193|67:162,1,63.7500024318696,0|0,1:2|0:2,0:0:0:0:
216,148,21748,2,0,P|275:78|364:94,1,191.250007295609,8|0,0:2|0:2,0:0:0:0:
459,46,22162,21,2,1:2:0:0:
437,119,22265,2,0,P|449:148|453:179,1,63.7500024318696,8|0,0:2|0:2,0:0:0:0:
358,266,22472,1,0,1:2:0:0:
287,236,22576,2,0,P|230:264|169:253,1,127.500004863739,8|0,0:2|0:2,0:0:0:0:
85,175,22886,1,2,0:2:0:0:
100,165,22989,2,0,P|111:135|114:103,1,63.7500024318696,2|0,1:2|0:2,0:0:0:0:
221,104,23196,2,0,P|215:72|203:43,1,63.7500024318696,0|0,1:2|0:2,0:0:0:0:
346,84,23403,2,0,P|409:27|461:95,1,191.250007295609,8|8,0:2|0:2,0:0:0:0:
490,185,23817,22,0,P|456:239|457:302,1,127.500004863739,2|0,1:2|0:2,0:0:0:0:
356,230,24127,1,0,1:2:0:0:
345,253,24231,2,0,P|343:315|375:370,1,127.500004863739,10|0,0:2|1:2,0:0:0:0:
237,360,24541,1,0,0:0:0:0:
218,342,24645,2,0,L|230:278,1,63.7500024318696,0|8,0:0|0:2,0:0:0:0:
57,289,24851,2,0,L|45:226,1,63.7500024318696,0|0,1:2|0:2,0:0:0:0:
200,136,25058,2,0,B|188:199|188:199|149:240|149:240|136:309,1,191.250007295609,10|0,0:2|1:2,0:0:0:0:
76,134,25472,22,0,P|138:120|200:136,1,127.500004863739,10|0,0:2|1:2,0:0:0:0:
205,27,25782,1,0,1:2:0:0:
230,18,25886,2,0,P|290:36|335:80,1,127.500004863739,10|0,0:2|1:2,0:0:0:0:
475,43,26196,1,0,0:0:0:0:
446,45,26300,2,0,P|429:72|422:103,1,63.7500024318696,2|8,0:2|0:2,0:0:0:0:
307,218,26507,2,0,P|299:187|283:159,1,63.7500024318696,0|0,1:2|0:2,0:0:0:0:
430,226,26713,2,0,L|492:211,1,63.7500024318696,8|0,0:2|0:2,0:0:0:0:
432,384,26920,1,8,0:2:0:0:
360,352,27024,1,8,0:2:0:0:
287,320,27127,6,0,P|216:327|150:356,1,144.500002756119,4|0,1:2|0:2,0:0:0:0:
22,384,27438,1,0,1:2:0:0:
46,382,27541,2,0,P|70:315|49:247,1,144.500002756119,10|0,0:2|1:2,0:0:0:0:
127,198,27851,1,0,0:0:0:0:
108,165,27955,2,0,P|75:149|39:147,1,72.2500013780594,2|0,0:2|1:2,0:0:0:0:
120,44,28162,2,0,P|150:63|170:93,1,72.2500013780594,2|0,1:2|0:2,0:0:0:0:
295,60,28369,2,0,P|263:123|271:194,1,144.500002756119,10|0,0:2|0:2,0:0:0:0:
428,200,28679,1,0,1:2:0:0:
426,175,28782,6,0,P|397:154|363:143,1,72.2500013780594,2|0,1:2|1:2,0:0:0:0:
292,277,28989,2,0,P|321:255|355:244,1,72.2500013780594,2|0,0:2|1:2,0:0:0:0:
501,384,29196,2,0,P|437:350|366:350,1,144.500002756119,10|0,0:2|1:2,0:0:0:0:
199,332,29507,1,0,0:0:0:0:
232,328,29610,2,0,P|267:266|270:194,1,144.500002756119,2|0,0:2|1:2,0:0:0:0:
203,130,29920,1,0,0:2:0:0:
187,113,30024,2,0,P|175:78|176:42,1,72.2500013780594,8|0,0:2|0:0,0:0:0:0:
10,105,30231,2,0,P|10:140|0:175,1,72.2500013780594,0|0,0:2|1:2,0:0:0:0:
92,275,30438,38,0,B|68:204|116:204|99:134,1,144.500002756119,0|0,1:2|1:2,0:0:0:0:
249,199,30748,1,0,1:2:0:0:
243,216,30851,2,0,P|210:231|175:238,1,72.2500013780594,10|0,0:2|0:2,0:0:0:0:
127,360,31058,2,0,P|159:375|194:382,1,72.2500013780594,2|0,1:2|0:0,0:0:0:0:
326,286,31265,1,2,0:2:0:0:
307,295,31369,2,0,P|290:326|290:362,1,72.2500013780594,8|0,0:2|1:2,0:0:0:0:
449,381,31576,1,0,0:2:0:0:
430,372,31680,2,0,P|413:340|413:304,1,72.2500013780594,10|0,0:2|0:0,0:0:0:0:
512,192,31886,2,0,L|442:212,1,72.2500013780594,0|2,0:2|0:2,0:0:0:0:
319,79,32093,6,0,L|180:37,1,144.500002756119,0|0,1:2|1:2,0:0:0:0:
377,14,32403,1,2,1:2:0:0:
393,30,32507,2,0,P|407:62|410:98,1,72.2500013780594,8|0,0:2|0:2,0:0:0:0:
261,147,32713,2,0,P|257:182|242:215,1,72.2500013780594,2|0,1:2|1:2,0:0:0:0:
67,156,32920,1,0,1:2:0:0:
80,130,33024,2,0,L|151:118,1,72.2500013780594,8|0,0:2|1:2,0:0:0:0:
175,277,33231,1,0,1:2:0:0:
162,251,33335,2,0,L|90:239,1,72.2500013780594,8|0,0:2|0:2,0:0:0:0:
16,377,33541,2,0,P|29:343|29:307,1,72.2500013780594,0|0,1:2|1:2,0:0:0:0:
176,360,33748,37,2,1:2:0:0:
248,381,33851,2,0,P|280:365|316:361,1,72.2500013780594,0|0,0:0|0:2,0:0:0:0:
483,303,34058,1,0,1:2:0:0:
405,307,34162,2,0,P|342:274|271:270,1,144.500002756119,8|0,0:2|0:2,0:0:0:0:
400,152,34472,1,2,0:2:0:0:
418,169,34576,2,0,P|434:200|441:236,1,72.2500013780594,2|0,1:2|1:2,0:0:0:0:
304,160,34782,2,0,P|310:124|327:92,1,72.2500013780594,0|0,1:2|0:2,0:0:0:0:
481,27,34989,2,0,B|378:66|378:-21|271:19,1,216.750004134178,8|0,0:2|0:2,0:0:0:0:
218,155,35403,5,2,1:2:0:0:
166,98,35507,2,0,P|174:64|171:28,1,72.2500013780594,0|0,0:0|0:2,0:0:0:0:
14,104,35713,1,0,1:2:0:0:
86,135,35817,2,0,P|115:201|112:273,1,144.500002756119,8|0,0:2|0:2,0:0:0:0:
0,384,36127,1,2,0:2:0:0:
9,367,36231,2,0,P|41:352|77:347,1,72.2500013780594,2|0,1:2|0:2,0:0:0:0:
217,222,36438,2,0,P|184:207|148:202,1,72.2500013780594,0|0,1:2|0:2,0:0:0:0:
256,360,36645,2,0,B|217:276|275:196|275:196|285:238,1,216.750004134178,8|0,0:2|1:2,0:0:0:0:
376,336,37058,38,0,P|407:272|405:200,1,144.500002756119,2|0,1:2|0:2,0:0:0:0:
504,192,37369,1,0,1:2:0:0:
512,168,37472,2,0,P|507:96|470:35,1,144.500002756119,10|0,0:2|1:2,0:0:0:0:
336,48,37782,1,0,0:2:0:0:
344,80,37886,2,0,P|375:97|410:104,1,72.2500013780594,2|8,0:2|0:2,0:0:0:0:
272,144,38093,2,0,P|245:119|226:88,1,72.2500013780594,0|0,0:0|0:2,0:0:0:0:
120,0,38300,2,0,P|131:68|86:121,1,144.500002756119,10|0,0:2|0:0,0:0:0:0:
80,232,38610,1,0,0:2:0:0:
63,232,38713,6,0,P|21:290|13:361,1,144.500002756119,2|0,1:2|0:2,0:0:0:0:
152,312,39024,1,0,1:2:0:0:
151,328,39127,2,0,P|209:369|280:377,1,144.500002756119,10|0,0:2|1:2,0:0:0:0:
360,296,39438,1,8,0:2:0:0:
343,279,39541,38,0,P|309:265|273:263,1,72.2500013780594,8|0,0:2|0:0,0:0:0:0:
287,133,39748,1,0,1:2:0:0:
362,108,39851,1,8,0:2:0:0:
425,149,39955,2,0,L|417:237,1,72.2500013780594,8|0,0:2|0:2,0:0:0:0:
221,195,40162,1,8,0:2:0:0:
195,121,40265,1,8,0:2:0:0:
198,209,40369,5,4,1:2:0:0:
198,209,41196,1,2,0:2:0:0:
198,209,42024,1,2,0:2:0:0:
198,209,42851,1,2,0:2:0:0:
88,32,43679,5,2,0:2:0:0:
88,32,44602,1,2,0:2:0:0:
88,32,45441,1,2,0:2:0:0:
88,32,46262,1,2,0:2:0:0:
87,32,46989,38,0,P|147:10|211:7,1,127.5,0|2,3:2|0:2,0:0:0:0:
211,7,47609,2,0,L|202:48,1,42.5,2|2,0:2|0:2,0:0:0:0:
288,97,47816,2,0,L|307:179,1,85,2|0,0:2|0:2,0:0:0:0:
438,43,48230,1,2,0:2:0:0:
433,53,48333,1,2,0:2:0:0:
413,59,48437,1,2,0:2:0:0:
418,69,48540,1,2,0:2:0:0:
483,119,48644,6,0,P|494:181|479:243,1,127.5,2|2,0:2|0:2,0:0:0:0:
479,243,49264,2,0,L|437:234,1,42.5,2|2,0:2|0:2,0:0:0:0:
381,312,49471,2,0,P|339:305|298:315,1,85,2|0,0:2|0:2,0:0:0:0:
150,356,49885,1,2,0:2:0:0:
165,329,49989,1,2,0:2:0:0:
168,348,50092,1,2,0:2:0:0:
158,346,50195,1,2,0:2:0:0:
89,299,50299,38,0,P|112:239|115:176,1,127.5,2|2,1:2|0:2,0:0:0:0:
115,176,50920,2,0,L|73:167,1,42.5,2|2,0:2|0:2,0:0:0:0:
13,100,51126,2,0,L|96:82,1,85,2|0,0:2|0:2,0:0:0:0:
205,14,51540,1,2,0:2:0:0:
205,14,51747,1,2,0:2:0:0:
256,160,51954,21,8,0:2:0:0:
304,32,52119,1,0,1:2:0:0:
368,144,52254,5,8,0:2:0:0:
233,166,52383,1,0,1:2:0:0:
367,244,52550,6,0,P|427:222|463:171,1,127.500004863739,8|0,0:2|1:2,0:0:0:0:
428,0,52908,1,8,0:2:0:0:
407,0,52999,2,0,P|393:28|392:60,1,63.7500024318696,8|8,0:2|0:2,0:0:0:0:
291,112,53182,21,0,1:2:0:0:
325,179,53274,1,0,1:2:0:0:
277,243,53365,5,10,0:2:0:0:
261,321,53457,1,8,0:2:0:0:
328,365,53596,38,0,P|394:336|466:331,1,144.500002756119,4|0,1:2|0:2,0:0:0:0:
238,260,53915,1,2,1:2:0:0:
225,335,54023,2,0,P|194:354|159:364,1,72.2500013780594,8|0,0:2|0:2,0:0:0:0:
57,286,54230,1,2,1:2:0:0:
98,218,54333,2,0,P|77:152|125:101,1,144.500002756119,8|10,0:2|0:2,0:0:0:0:
176,27,54644,2,0,P|206:45|241:55,1,72.2500013780594,0|2,1:2|0:2,0:0:0:0:
264,158,54851,2,0,P|299:148|330:130,1,72.2500013780594,8|0,0:2|0:0,0:0:0:0:
455,1,55057,1,2,1:2:0:0:
393,49,55161,1,0,1:2:0:0:
441,110,55264,38,0,P|459:179|465:251,1,144.500002756119,2|0,1:2|0:2,0:0:0:0:
310,231,55575,1,2,1:2:0:0:
275,302,55678,2,0,P|270:337|249:366,1,72.2500013780594,8|0,0:2|0:2,0:0:0:0:
124,213,55885,2,0,P|59:234|14:183,1,144.500002756119,2|0,1:2|0:2,0:0:0:0:
60,49,56195,1,8,0:2:0:0:
83,66,56299,2,0,P|87:101|85:137,1,72.2500013780594,2|0,1:2|0:2,0:0:0:0:
216,221,56506,2,0,P|202:254|181:284,1,72.2500013780594,8|0,0:2|0:2,0:0:0:0:
363,167,56713,2,0,L|341:97,1,72.2500013780594,2|0,1:2|0:2,0:0:0:0:
441,318,56920,38,0,P|436:297|436:275,1,42.5,10|0,1:2|0:2,0:0:0:0:
345,328,57126,2,0,P|330:312|319:294,1,42.5,8|0,1:2|0:2,0:0:0:0:
266,384,57333,2,0,P|245:377|227:367,1,42.5,8|0,1:2|0:2,0:0:0:0:
111,201,57540,6,0,P|110:176|100:153,1,50.9999984436036,10|0,1:2|0:2,0:0:0:0:
227,221,57747,2,0,P|240:198|242:173,1,50.9999984436036,8|0,1:2|0:2,0:0:0:0:
319,294,57954,2,0,P|341:280|356:260,1,50.9999984436036,8|0,1:2|0:2,0:0:0:0:
374,171,58161,6,0,P|376:141|383:112,1,59.4999981842042,10|0,0:2|0:2,0:0:0:0:
176,96,58368,2,0,P|163:69|155:40,1,59.4999981842042,8|0,1:2|0:2,0:0:0:0:
491,113,58575,6,0,P|439:156|374:171,1,136,4|0,1:2|0:2,0:0:0:0:
465,264,58885,2,0,P|407:228|373:170,1,136,0|0,1:2|0:2,0:0:0:0:
313,286,59195,2,0,P|328:220|373:170,1,136,0|0,1:2|0:2,0:0:0:0:
244,148,59506,2,0,P|311:142|372:169,1,136,0|0,1:2|0:2,0:0:0:0:
354,41,59816,2,0,P|379:103|373:170,1,136,0|0,1:2|0:2,0:0:0:0:
491,113,60126,1,0,1:2:0:0:
491,113,61084,5,0,1:2:0:0:
487,188,61177,1,8,0:2:0:0:
354,41,61363,5,8,0:2:0:0:
358,116,61456,1,8,0:2:0:0:
219,124,61653,37,8,0:2:0:0:
215,199,61752,1,8,0:2:0:0:
200,104,61850,22,0,B|113:64|113:136|18:105,1,187.000005706787,4|0,1:2|0:2,0:0:0:0:
32,280,62193,1,2,1:2:0:0:
111,280,62308,2,0,P|125:235|128:188,1,93.5000028533936,8|0,0:2|0:2,0:0:0:0:
288,240,62514,1,2,1:2:0:0:
344,183,62618,6,0,P|413:127|494:164,1,187.000005706787,8|2,0:2|1:2,0:0:0:0:
442,317,62928,2,0,P|428:273|426:227,1,93.5000028533936,8|0,0:2|0:2,0:0:0:0:
259,330,63135,2,0,P|169:303|76:303,1,187.000005706787,8|2,0:2|0:2,0:0:0:0:
34,133,63445,1,2,0:2:0:0:
110,127,63549,38,0,B|123:172|123:172|116:218,1,93.5000028533936,2|0,1:2|0:2,0:0:0:0:
269,85,63755,2,0,B|251:41|251:41|217:9,1,93.5000028533936,2|0,0:2|1:2,0:0:0:0:
433,127,63962,2,0,L|343:155,1,93.5000028533936,10|0,0:2|0:2,0:0:0:0:
421,329,64169,2,0,L|510:357,1,93.5000028533936,2|0,1:2|0:2,0:0:0:0:
355,237,64376,5,2,0:2:0:0:
278,259,64480,2,0,P|260:302|259:348,1,93.5000028533936,0|0,1:2|1:2,0:0:0:0:
116,262,64686,1,2,0:2:0:0:
165,205,64790,2,0,L|120:23,1,187.000005706787,8|2,0:2|0:2,0:0:0:0:
11,190,65100,1,2,0:2:0:0:
26,264,65204,38,0,P|71:342|160:340,1,187.000005706787,4|0,1:2|0:2,0:0:0:0:
194,219,65514,1,2,1:2:0:0:
259,174,65617,2,0,P|306:179|347:200,1,93.5000028533936,8|0,0:2|0:2,0:0:0:0:
512,213,65824,1,2,1:2:0:0:
481,282,65928,6,0,P|393:312|327:377,1,187.000005706787,0|2,0:0|1:2,0:0:0:0:
427,207,66238,2,0,P|433:160|430:114,1,93.5000028533936,8|0,0:2|0:2,0:0:0:0:
261,87,66445,2,0,P|243:43|216:5,1,93.5000028533936,8|0,0:2|0:2,0:0:0:0:
23,182,66652,1,2,0:2:0:0:
88,222,66755,1,2,0:2:0:0:
159,185,66859,38,0,B|174:141|174:141|171:94,1,93.5000028533936,2|2,1:2|0:2,0:0:0:0:
14,264,67066,2,0,B|11:310|11:310|26:354,1,93.5000028533936,2|0,0:2|1:2,0:0:0:0:
246,294,67273,2,0,P|202:276|156:274,1,93.5000028533936,10|0,0:2|0:2,0:0:0:0:
81,113,67480,2,0,P|124:95|170:93,1,93.5000028533936,2|2,1:2|0:2,0:0:0:0:
358,20,67686,6,0,P|335:109|357:200,1,187.000005706787,2|0,1:2|1:2,0:0:0:0:
419,342,67997,1,2,0:2:0:0:
494,366,68100,2,0,P|516:276|494:185,1,187.000005706787,10|8,0:2|0:2,0:0:0:0:
297,248,68411,1,8,0:2:0:0:
284,325,68514,38,0,B|348:357|420:325|420:325|380:301,1,187.000005706787,4|0,1:2|1:2,0:0:0:0:
192,256,68824,1,0,0:0:0:0:
173,283,68928,2,0,P|164:328|169:375,1,93.5000028533936,10|0,0:2|0:2,0:0:0:0:
3,270,69135,2,0,P|8:223|0:177,1,93.5000028533936,2|0,1:2|0:2,0:0:0:0:
88,64,69342,6,0,B|49:149|129:149|91:243,1,187.000005706787,2|0,1:2|0:2,0:0:0:0:
237,137,69652,1,2,1:2:0:0:
178,82,69755,2,0,P|134:65|87:63,1,93.5000028533936,8|0,0:2|0:2,0:0:0:0:
319,19,69962,2,0,P|362:2|409:0,1,93.5000028533936,2|2,0:2|0:2,0:0:0:0:
350,199,70169,38,0,P|334:116|416:94,1,187.000005706787,2|0,1:2|0:2,0:0:0:0:
462,213,70480,1,2,1:2:0:0:
405,263,70583,2,0,L|425:354,1,93.5000028533936,8|0,0:2|0:2,0:0:0:0:
217,216,70790,6,0,P|134:255|49:223,1,187.000005706787,2|0,1:2|0:2,0:0:0:0:
69,45,71100,1,2,1:2:0:0:
143,63,71204,2,0,P|146:109|136:155,1,93.5000028533936,2|0,1:2|0:2,0:0:0:0:
312,284,71411,2,0,P|307:191|263:109,1,187.000005706787,8|8,0:2|0:2,0:0:0:0:
232,304,71721,1,0,0:0:0:0:
214,329,71824,37,6,1:2:0:0:
161,274,71928,1,2,0:2:0:0:
192,206,72031,1,2,0:2:0:0:
136,155,72135,2,0,L|127:61,1,93.5000028533936,2|8,0:2|0:2,0:0:0:0:
294,33,72342,1,2,0:2:0:0:
363,68,72445,2,0,B|362:114|362:114|334:152,1,93.5000028533936,12|2,1:2|0:2,0:0:0:0:
324,326,72652,5,2,1:2:0:0:
269,384,72755,1,0,0:0:0:0:
197,361,72859,1,2,1:2:0:0:
183,285,72962,1,8,0:0:0:0:
249,242,73066,2,0,L|342:233,1,93.5000028533936,8|8,0:2|0:2,0:0:0:0:
109,344,73273,1,8,0:2:0:0:
94,338,73341,1,8,0:2:0:0:
79,333,73410,1,8,0:2:0:0:
64,328,73480,1,8,1:2:0:0:
64,328,73893,6,0,P|79:234|57:141,1,191.250007295609,4|0,1:2|0:2,0:0:0:0:
128,72,74307,2,0,P|109:46|104:15,1,63.7500024318696,0|0,1:2|0:2,0:0:0:0:
223,104,74514,1,8,0:2:0:0:
242,93,74582,1,8,0:2:0:0:
261,83,74651,1,8,0:2:0:0:
281,77,74721,2,0,L|287:35,2,42.5000016212464,8|8|8,0:2|0:2|0:2,0:0:0:0:
380,119,74928,2,0,L|386:160,2,42.5000016212464,8|0|8,1:2|0:2|0:2,0:0:0:0:
503,24,75135,22,0,P|475:112|481:205,1,187.000005706787,4|0,1:2|0:2,0:0:0:0:
335,262,75445,1,2,1:2:0:0:
413,277,75549,2,0,P|429:320|428:367,1,93.5000028533936,8|0,0:2|0:2,0:0:0:0:
267,310,75755,1,2,1:2:0:0:
196,275,75859,6,0,P|113:314|25:288,1,187.000005706787,8|2,0:2|1:2,0:0:0:0:
89,131,76169,2,0,P|102:176|102:223,1,93.5000028533936,8|0,0:2|0:2,0:0:0:0:
250,124,76376,2,0,P|298:57|224:21,1,187.000005706787,8|0,0:2|0:2,0:0:0:0:
192,187,76686,1,2,0:2:0:0:
263,222,76790,38,0,P|309:223|355:231,1,93.5000028533936,2|0,1:2|0:2,0:0:0:0:
394,368,76997,2,0,P|358:337|318:313,1,93.5000028533936,2|0,0:2|1:2,0:0:0:0:
472,192,77204,2,0,P|451:234|446:280,1,93.5000028533936,10|0,0:2|0:2,0:0:0:0:
332,145,77411,2,0,P|327:98|306:57,1,93.5000028533936,2|0,1:2|0:2,0:0:0:0:
123,50,77617,5,2,0:2:0:0:
120,129,77721,2,0,B|163:153|163:153|207:154,1,93.5000028533936,2|2,1:2|0:2,0:0:0:0:
239,305,77928,1,2,0:2:0:0:
164,291,78031,2,0,P|88:250|36:319,1,187.000005706787,10|2,0:2|1:2,0:0:0:0:
259,383,78341,1,0,0:2:0:0:
314,329,78445,38,0,P|335:220|331:139,1,187.000005706787,2|0,1:2|0:2,0:0:0:0:
444,10,78755,1,2,1:2:0:0:
501,63,78859,2,0,P|480:172|484:253,1,187.000005706787,10|2,0:2|1:2,0:0:0:0:
478,384,79169,2,0,P|437:360|392:351,1,93.5000028533936,10|0,0:2|0:0,0:0:0:0:
280,280,79376,1,2,1:2:0:0:
294,249,79480,2,0,P|334:225|379:216,1,93.5000028533936,8|0,0:2|0:2,0:0:0:0:
211,46,79686,2,0,P|236:135|213:224,1,187.000005706787,8|2,0:2|0:2,0:0:0:0:
29,187,79997,1,2,0:2:0:0:
37,109,80100,6,0,B|77:82|77:82|122:85,1,93.5000028533936,2|0,1:2|0:2,0:0:0:0:
73,256,80307,2,0,B|119:253|119:253|159:280,1,93.5000028533936,2|0,0:2|1:2,0:0:0:0:
271,377,80514,2,0,P|280:331|279:284,1,93.5000028533936,10|0,0:2|0:2,0:0:0:0:
482,197,80721,2,0,P|472:242|473:289,1,93.5000028533936,2|0,1:2|0:2,0:0:0:0:
320,120,80928,38,0,B|331:183|331:183|370:224|370:224|382:289,1,187.000005706787,2|2,1:2|0:2,0:0:0:0:
512,120,81238,1,2,1:2:0:0:
480,48,81342,2,0,P|436:32|390:37,1,93.5000028533936,10|0,0:2|0:2,0:0:0:0:
216,120,81549,1,8,0:2:0:0:
176,56,81652,1,8,0:2:0:0:
231,7,81755,6,0,P|238:100|207:188,1,187.000005706787,4|0,1:2|0:2,0:0:0:0:
8,104,82066,1,0,1:2:0:0:
15,80,82169,2,0,P|51:50|96:39,1,93.5000028533936,8|0,0:2|0:2,0:0:0:0:
112,208,82376,2,0,P|67:194|22:202,1,93.5000028533936,2|0,1:2|0:2,0:0:0:0:
8,376,82583,38,0,P|91:334|183:325,1,187.000005706787,2|0,1:2|0:2,0:0:0:0:
344,360,82893,1,2,1:2:0:0:
408,312,82997,2,0,P|403:265|384:223,1,93.5000028533936,10|0,0:2|0:2,0:0:0:0:
201,108,83204,2,0,P|181:150|177:196,1,93.5000028533936,2|0,0:2|0:2,0:0:0:0:
428,114,83411,6,0,P|337:128|276:196,1,187.000005706787,2|0,1:2|0:2,0:0:0:0:
448,320,83721,1,2,1:2:0:0:
504,264,83824,2,0,L|511:170,1,93.5000028533936,8|0,0:2|0:2,0:0:0:0:
328,352,84031,2,0,P|249:302|157:293,1,187.000005706787,2|0,1:2|0:2,0:0:0:0:
24,360,84342,1,8,0:2:0:0:
48,352,84445,2,0,P|64:308|72:262,1,93.5000028533936,0|0,1:2|0:2,0:0:0:0:
159,102,84652,2,0,P|167:148|184:192,1,93.5000028533936,8|0,0:2|0:2,0:0:0:0:
16,96,84859,1,8,0:2:0:0:
40,24,84962,1,8,0:2:0:0:
120,24,85066,38,0,L|212:10,1,93.5000028533936,4|2,1:2|0:2,0:0:0:0:
344,184,85273,1,2,0:2:0:0:
408,136,85376,1,10,0:2:0:0:
336,104,85480,2,0,L|243:90,1,93.5000028533936,10|2,0:2|0:2,0:0:0:0:
448,24,85686,1,4,1:2:0:0:
487,87,85790,6,0,P|495:133|491:180,1,93.5000028533936,2|10,0:2|0:2,0:0:0:0:
368,352,85997,1,10,0:2:0:0:
367,272,86100,2,0,P|408:249|454:251,1,93.5000028533936,2|0,1:2|0:0,0:0:0:0:
288,376,86307,2,0,P|247:353|201:355,1,93.5000028533936,10|8,0:2|0:2,0:0:0:0:
32,376,86514,1,8,0:2:0:0:
72,312,86617,1,8,0:2:0:0:
40,240,86721,37,12,1:2:0:0:
40,240,86928,5,2,0:2:0:0:
56,160,87031,1,2,0:2:0:0:
132,120,87135,6,0,L|182:128,1,51,4|0,1:2|1:2,0:0:0:0:
383,43,94997,54,0,P|360:102|354:165,1,127.500004863739,4|0,1:2|0:2,0:0:0:0:
383,143,95307,2,0,P|405:202|411:265,1,127.500004863739,8|0,0:2|0:2,0:0:0:0:
386,256,95617,2,0,P|363:315|357:378,1,127.500004863739,2|0,1:2|0:2,0:0:0:0:
508,380,95928,1,8,0:2:0:0:
505,365,96031,2,0,P|475:353|444:347,1,63.7500024318696,0|0,1:2|0:2,0:0:0:0:
283,272,96238,6,0,P|267:331|209:350,1,127.500004863739,2|0,1:2|0:2,0:0:0:0:
217,317,96548,2,0,P|158:333|112:293,1,127.500004863739,8|0,0:2|0:2,0:0:0:0:
6,353,96859,2,0,P|32:294|31:231,1,127.500004863739,10|0,0:2|0:2,0:0:0:0:
113,160,97169,1,8,0:2:0:0:
81,154,97272,2,0,P|64:126|56:96,1,63.7500024318696,0|0,1:2|0:2,0:0:0:0:
196,127,97479,2,0,P|246:88|308:82,1,127.500004863739,2|2,1:2|1:2,0:0:0:0:
341,222,97790,1,2,1:2:0:0:
344,204,97893,38,0,P|299:163|247:192,1,127.500004863739,0|2,1:2|1:2,0:0:0:0:
261,214,98203,2,0,P|203:232|202:292,1,127.500004863739,8|0,0:2|0:2,0:0:0:0:
228,290,98514,2,0,P|215:348|266:379,1,127.500004863739,2|0,1:2|0:2,0:0:0:0:
372,308,98824,1,8,0:2:0:0:
387,292,98928,2,0,P|417:283|449:281,1,63.7500024318696,0|0,1:2|0:2,0:0:0:0:
423,168,99134,6,0,P|450:110|456:47,1,127.500004863739,2|0,1:2|0:2,0:0:0:0:
332,88,99445,1,0,1:2:0:0:
339,66,99548,2,0,P|335:34|322:5,1,63.7500024318696,8|0,0:2|0:2,0:0:0:0:
207,53,99755,1,8,0:2:0:0:
209,67,99859,2,0,P|267:90|331:87,1,127.500004863739,0|0,1:2|0:2,0:0:0:0:
184,160,100169,2,0,P|134:121|71:120,1,127.500004863739,2|8,1:2|0:2,0:0:0:0:
24,200,100479,1,0,0:2:0:0:
99,227,100583,2,0,P|108:257|112:288,1,63.7500024318696,2|2,0:2|0:2,0:0:0:0:
256,328,100790,5,0,1:2:0:0:
253,338,100858,1,0,1:2:0:0:
250,348,100927,1,0,1:2:0:0:
247,358,100996,2,0,L|232:274,1,85,8|0,1:2|0:2,0:0:0:0:
452,144,101203,2,0,L|437:227,1,85,8|0,1:2|0:2,0:0:0:0:
404,384,101410,1,8,1:2:0:0:
344,300,101514,1,8,1:2:0:0:
344,300,102031,21,2,0:2:0:0:
347,290,102099,1,2,0:2:0:0:
350,280,102168,1,2,0:2:0:0:
352,269,102237,22,0,B|291:198|164:240|164:240|204:270,1,255,4|0,1:2|0:2,0:0:0:0:
306,197,102652,2,0,P|311:165|314:133,1,63.7500024318696,2|0,1:2|0:2,0:0:0:0:
156,152,102858,2,0,P|100:122|37:123,1,127.500004863739,10|2,0:2|0:2,0:0:0:0:
0,252,103169,1,0,1:2:0:0:
18,262,103272,2,0,P|74:232|137:233,1,127.500004863739,10|0,0:2|0:2,0:0:0:0:
140,376,103583,1,2,1:2:0:0:
116,376,103686,2,0,P|101:347|95:316,1,63.7500024318696,8|0,0:2|0:2,0:0:0:0:
223,304,103893,2,0,P|224:272|234:242,1,63.7500024318696,2|0,1:2|0:2,0:0:0:0:
373,382,104100,22,0,P|313:362|254:384,1,127.500004863739,0|2,1:2|0:2,0:0:0:0:
390,261,104410,1,0,1:2:0:0:
415,270,104514,2,0,P|434:296|444:326,1,63.7500024318696,8|0,0:2|0:2,0:0:0:0:
317,219,104721,2,0,P|326:188|345:163,1,63.7500024318696,2|0,1:2|0:2,0:0:0:0:
512,71,104927,2,0,P|452:92|390:80,1,127.500004863739,2|0,0:2|0:0,0:0:0:0:
262,122,105238,1,0,0:2:0:0:
251,99,105341,2,0,L|261:36,1,63.7500024318696,10|0,0:2|0:2,0:0:0:0:
132,104,105548,2,0,L|142:166,1,63.7500024318696,2|0,0:2|0:0,0:0:0:0:
65,239,105755,22,0,L|2:228,1,63.7500024318696,0|0,1:2|1:2,0:0:0:0:
136,314,106011,2,0,L|105:324,1,31.8750012159348,2|8,1:2|0:2,0:0:0:0:
224,360,106203,2,0,L|203:384,1,31.8750012159348,2|8,1:2|0:2,0:0:0:0:
341,285,106396,1,4,1:2:0:0:
353,297,106460,2,0,P|343:328|341:360,1,63.7500024318696,2|0,0:2|0:2,0:0:0:0:
368,296,106652,2,0,P|360:265|346:236,1,63.7500024318696,2|0,0:2|0:2,0:0:0:0:
368,144,106908,1,2,0:2:0:0:
290,100,107045,1,2,0:2:0:0:
299,85,107183,21,2,0:2:0:0:
299,85,107410,5,2,0:2:0:0:
285,76,107513,1,0,0:2:0:0:
271,68,107616,1,0,0:2:0:0:
256,62,107720,1,0,0:2:0:0:
241,58,107823,1,0,0:2:0:0:
225,56,107927,1,0,0:2:0:0:
209,55,108030,1,0,0:2:0:0:
194,56,108134,1,2,0:2:0:0:
136,108,108238,1,2,0:2:0:0:
122,117,108341,1,0,0:2:0:0:
108,125,108444,1,0,0:2:0:0:
93,131,108548,1,0,0:2:0:0:
78,135,108651,1,0,0:2:0:0:
62,137,108755,1,0,0:2:0:0:
46,138,108858,1,0,0:2:0:0:
31,137,108962,1,2,0:2:0:0:
28,70,109065,1,0,0:2:0:0:
37,84,109168,1,0,0:2:0:0:
45,98,109271,1,2,0:2:0:0:
51,113,109375,1,2,0:2:0:0:
55,128,109478,1,0,0:2:0:0:
57,144,109582,1,2,0:2:0:0:
58,160,109685,1,2,0:2:0:0:
57,175,109789,1,0,0:2:0:0:
113,230,109893,1,2,0:2:0:0:
104,244,109996,1,2,0:2:0:0:
96,258,110099,1,2,0:2:0:0:
90,273,110203,1,0,0:2:0:0:
86,288,110306,1,0,0:2:0:0:
84,304,110410,1,2,0:2:0:0:
83,320,110513,1,0,0:2:0:0:
84,335,110617,1,2,0:2:0:0:
159,363,110720,1,2,0:2:0:0:
247,292,110927,1,2,0:2:0:0:
247,292,111031,1,2,0:2:0:0:
342,347,111238,1,2,0:2:0:0:
342,347,111342,1,2,0:2:0:0:
433,316,111548,1,2,0:2:0:0:
427,217,111755,1,0,1:2:0:0:
427,217,112169,1,2,0:2:0:0:
406,191,112272,1,2,0:2:0:0:
405,154,112376,1,10,0:2:0:0:
413,150,112479,1,0,1:2:0:0:
422,147,112583,1,0,1:2:0:0:
430,143,112686,1,2,1:2:0:0:
439,68,112790,1,0,1:2:0:0:
439,68,112893,1,0,1:2:0:0:
369,26,112996,1,2,1:2:0:0:
369,26,113100,1,0,1:2:0:0:
305,74,113203,1,0,1:2:0:0:
305,74,113307,1,8,0:2:0:0:
305,74,113410,1,0,0:2:0:0:
305,74,113514,1,0,0:2:0:0:
223,66,113617,1,8,0:2:0:0:
56,184,113824,37,2,0:2:0:0:
39,168,113927,1,2,0:2:0:0:
42,143,114031,38,0,P|110:124|177:148,1,144.500002756119,4|0,1:2|0:2,0:0:0:0:
104,256,114341,1,0,1:2:0:0:
79,272,114445,2,0,P|62:304|54:339,1,72.2500013780594,10|0,0:2|0:2,0:0:0:0:
208,256,114652,2,0,P|263:299|334:300,1,144.500002756119,0|2,1:2|0:2,0:0:0:0:
392,192,114962,1,0,1:2:0:0:
375,184,115065,2,0,P|339:181|303:187,1,72.2500013780594,2|0,1:2|0:2,0:0:0:0:
456,312,115272,2,0,L|484:170,1,144.500002756119,10|0,0:2|0:2,0:0:0:0:
392,96,115583,1,0,1:2:0:0:
376,80,115686,6,0,L|368:8,1,72.2500013780594,2|0,1:2|1:2,0:0:0:0:
232,80,115893,2,0,L|224:152,1,72.2500013780594,2|0,0:2|1:2,0:0:0:0:
80,8,116100,2,0,P|94:40|97:76,1,72.2500013780594,10|0,0:2|0:2,0:0:0:0:
32,176,116307,2,0,P|99:186|120:251,1,144.500002756119,0|2,1:2|0:2,0:0:0:0:
8,360,116617,1,0,1:2:0:0:
16,344,116721,2,0,P|48:328|84:328,1,72.2500013780594,0|0,1:2|0:2,0:0:0:0:
207,264,116927,2,0,P|235:327|303:332,1,144.500002756119,8|0,0:2|0:2,0:0:0:0:
392,208,117238,1,0,1:2:0:0:
400,224,117341,38,0,B|376:294|432:294|406:363,1,144.500002756119,0|0,1:2|1:2,0:0:0:0:
480,254,117652,1,0,1:2:0:0:
496,239,117755,2,0,P|504:204|505:168,1,72.2500013780594,10|0,0:2|0:2,0:0:0:0:
368,128,117962,2,0,P|357:93|340:61,1,72.2500013780594,2|0,1:2|0:2,0:0:0:0:
208,160,118169,1,2,0:2:0:0:
224,184,118272,2,0,L|293:204,1,72.2500013780594,8|0,0:2|1:2,0:0:0:0:
240,48,118478,1,0,0:2:0:0:
224,72,118583,2,0,L|154:92,1,72.2500013780594,10|0,0:2|0:0,0:0:0:0:
32,16,118790,2,0,P|49:47|55:82,1,72.2500013780594,0|2,0:2|0:2,0:0:0:0:
127,207,118996,6,0,P|62:187|11:233,1,144.500002756119,0|0,1:2|1:2,0:0:0:0:
80,328,119307,1,2,1:2:0:0:
96,328,119410,2,0,P|129:314|165:309,1,72.2500013780594,8|0,0:2|0:2,0:0:0:0:
301,308,119617,1,2,1:2:0:0:
278,308,119721,2,0,B|262:341|262:341|262:376,1,72.2500013780594,0|0,1:2|1:2,0:0:0:0:
425,340,119927,1,8,0:2:0:0:
402,340,120031,2,0,B|386:307|386:307|386:271,1,72.2500013780594,0|0,1:2|1:2,0:0:0:0:
512,200,120238,2,0,P|413:237|319:191,1,216.750004134178,8|0,0:2|1:2,0:0:0:0:
337,34,120652,37,2,1:2:0:0:
404,74,120755,2,0,P|414:108|416:144,1,72.2500013780594,0|0,0:2|0:0,0:0:0:0:
268,131,120962,1,0,1:2:0:0:
197,96,121065,2,0,P|131:122|61:106,1,144.500002756119,8|0,0:2|0:2,0:0:0:0:
161,16,121376,1,2,0:2:0:0:
177,27,121479,2,0,P|192:59|196:95,1,72.2500013780594,2|0,1:2|1:2,0:0:0:0:
42,174,121686,2,0,P|45:138|61:105,1,72.2500013780594,0|0,1:2|0:2,0:0:0:0:
229,210,121893,2,0,P|124:217|52:295,1,216.750004134178,8|0,0:2|0:2,0:0:0:0:
112,379,122307,5,2,1:2:0:0:
173,326,122410,2,0,P|205:310|241:306,1,72.2500013780594,0|0,0:2|0:2,0:0:0:0:
416,349,122617,1,0,1:2:0:0:
343,369,122721,2,0,P|319:302|344:235,1,144.500002756119,8|0,0:2|0:2,0:0:0:0:
512,225,123031,1,2,0:2:0:0:
495,245,123134,2,0,P|461:257|425:262,1,72.2500013780594,2|0,1:2|0:2,0:0:0:0:
354,145,123341,2,0,P|318:139|285:125,1,72.2500013780594,0|0,1:2|0:2,0:0:0:0:
480,0,123548,2,0,P|510:98|438:173,1,216.750004134178,8|0,0:2|1:2,0:0:0:0:
348,40,123962,38,0,P|281:18|214:42,1,144.500002756119,2|0,1:2|0:2,0:0:0:0:
126,12,124272,1,0,1:2:0:0:
110,1,124376,2,0,P|57:48|43:117,1,144.500002756119,10|0,0:2|1:2,0:0:0:0:
205,171,124686,1,0,0:0:0:0:
201,149,124790,2,0,P|172:130|136:125,1,72.2500013780594,2|8,0:2|0:2,0:0:0:0:
17,227,124996,2,0,P|52:222|82:202,1,72.2500013780594,0|0,0:2|0:2,0:0:0:0:
153,320,125203,2,0,P|217:288|289:285,1,144.500002756119,10|0,0:2|0:2,0:0:0:0:
408,372,125514,1,0,0:2:0:0:
388,378,125617,6,0,P|371:311|411:253,1,144.500002756119,2|0,1:2|0:2,0:0:0:0:
394,142,125927,1,0,1:2:0:0:
392,124,126031,2,0,P|442:75|512:80,1,144.500002756119,10|0,0:2|1:2,0:0:0:0:
332,215,126341,1,8,0:2:0:0:
325,201,126445,2,0,P|295:182|261:170,1,72.2500013780594,8|0,0:2|1:0,0:0:0:0:
150,339,126652,37,8,0:2:0:0:
221,308,126755,1,0,0:0:0:0:
158,258,126858,2,0,L|170:186,1,72.2500013780594,8|0,1:2|0:2,0:0:0:0:
11,141,127065,1,8,0:2:0:0:
37,67,127169,1,8,0:2:0:0:
40,148,127272,21,4,1:2:0:0:
117,130,127686,1,0,1:2:0:0:
171,187,128100,1,2,1:2:0:0:
149,263,128514,1,0,1:2:0:0:
317,359,128927,5,2,1:2:0:0:
299,282,129341,1,0,1:2:0:0:
356,228,129755,1,2,1:2:0:0:
432,250,130169,1,0,1:2:0:0:
313,49,130583,37,2,1:2:0:0:
241,113,130996,1,0,1:2:0:0:
235,209,131410,1,2,1:2:0:0:
299,282,131824,1,0,1:2:0:0:
401,147,132238,22,0,P|410:112|411:76,1,72.2500013780594,8|0,1:2|0:2,0:0:0:0:
237,58,132424,1,8,0:2:0:0:
313,48,132518,2,0,P|322:82|323:118,1,72.2500013780594,8|0,1:2|0:2,0:0:0:0:
159,199,132750,1,8,0:2:0:0:
235,209,132843,2,0,P|244:174|245:138,1,72.2500013780594,8|0,1:2|0:2,0:0:0:0:
106,13,133065,5,0,1:2:0:0:
46,63,133168,1,8,0:2:0:0:
70,140,133271,2,0,L|79:211,1,72.2500013780594,0|0,1:2|1:2,0:0:0:0:
216,289,133478,6,0,L|207:360,1,72.2500013780594,10|0,0:2|0:0,0:0:0:0:
69,293,133685,2,0,L|60:222,1,72.2500013780594,2|0,0:2|0:0,0:0:0:0:
299,271,133893,6,0,P|363:302|434:309,1,144.500002756119,4|0,1:2|0:2,0:0:0:0:
441,155,134203,1,2,1:2:0:0:
417,153,134307,2,0,P|394:180|386:215,1,72.2500013780594,8|0,0:2|0:2,0:0:0:0:
331,81,134514,2,0,P|355:55|389:41,1,72.2500013780594,2|0,1:2|0:0,0:0:0:0:
257,187,134721,1,0,0:2:0:0:
240,172,134824,2,0,L|225:101,1,72.2500013780594,8|2,0:2|1:2,0:0:0:0:
134,4,135031,1,0,0:2:0:0:
148,22,135134,2,0,L|118:163,1,144.500002756119,8|2,0:2|0:2,0:0:0:0:
19,293,135445,1,0,0:2:0:0:
15,275,135548,38,0,P|80:249|148:268,1,144.500002756119,2|2,1:2|0:2,0:0:0:0:
250,377,135858,1,0,1:2:0:0:
232,370,135962,2,0,P|225:334|234:300,1,72.2500013780594,8|0,0:2|0:2,0:0:0:0:
385,361,136169,2,0,P|396:327|421:301,1,72.2500013780594,2|0,1:2|0:0,0:0:0:0:
325,156,136376,1,0,0:2:0:0:
306,172,136479,2,0,P|309:207|322:241,1,72.2500013780594,8|2,0:2|1:2,0:0:0:0:
465,231,136686,1,0,0:2:0:0:
479,208,136790,2,0,P|500:139|500:67,1,144.500002756119,8|2,0:2|0:2,0:0:0:0:
392,0,137100,1,2,0:2:0:0:
374,19,137203,6,0,L|385:90,1,72.2500013780594,2|0,1:2|0:2,0:0:0:0:
241,105,137410,2,0,P|213:171|168:227,1,144.500002756119,2|8,1:2|0:2,0:0:0:0:
38,59,137721,1,2,0:2:0:0:
43,35,137824,2,0,P|110:19|166:62,1,144.500002756119,2|8,1:2|0:2,0:0:0:0:
81,229,138134,1,2,0:2:0:0:
61,228,138238,2,0,P|34:168|92:138,1,144.500002756119,2|8,1:2|0:2,0:0:0:0:
123,299,138548,1,2,0:2:0:0:
118,315,138652,2,0,P|87:332|55:318,1,72.2500013780594,2|0,1:2|0:2,0:0:0:0:
280,224,138858,6,0,L|259:318,1,96.3333351707459,12|0,0:2|1:2,0:0:0:0:
492,290,139149,2,0,L|512:384,1,96.3333351707459,8|0,0:2|1:2,0:0:0:0:
417,173,139441,2,0,L|370:184,2,48.1666675853729,8|0|0,0:2|1:2|1:2,0:0:0:0:
453,101,139660,1,0,0:2:0:0:
467,97,139733,38,0,L|512:111,1,48.1666675853729,8|0,0:2|1:2,0:0:0:0:
425,17,139893,2,0,L|379:31,1,48.1666675853729,2|2,1:2|1:2,0:0:0:0:
296,88,140053,2,0,L|251:74,1,48.1666675853729,8|0,0:2|1:2,0:0:0:0:
168,180,140213,5,2,1:2:0:0:
184,177,140293,1,2,1:2:0:0:
200,174,140373,2,0,L|248:165,1,48.1666675853729,10|2,0:2|1:2,0:0:0:0:
160,8,140514,22,0,B|136:80|184:80|153:149,1,144.500002756119,4|0,1:2|0:2,0:0:0:0:
0,140,140824,1,2,1:2:0:0:
9,119,140927,2,0,P|42:108|78:107,1,72.2500013780594,8|0,0:2|0:2,0:0:0:0:
123,237,141134,2,0,P|89:225|53:224,1,72.2500013780594,2|8,1:2|0:2,0:0:0:0:
29,381,141341,1,0,1:2:0:0:
56,383,141445,2,0,P|67:349|74:314,1,72.2500013780594,10|0,0:2|0:0,0:0:0:0:
257,287,141651,1,2,0:2:0:0:
229,289,141755,2,0,P|217:254|210:219,1,72.2500013780594,8|0,0:2|0:2,0:0:0:0:
147,384,141962,2,0,L|217:369,1,72.2500013780594,2|0,1:2|1:2,0:0:0:0:
301,216,142169,6,0,L|442:245,1,144.500002756119,2|0,1:2|0:2,0:0:0:0:
375,384,142479,1,2,1:2:0:0:
355,383,142582,2,0,P|343:350|344:314,1,72.2500013780594,8|0,0:2|0:2,0:0:0:0:
461,228,142789,2,0,P|477:158|471:87,1,144.500002756119,2|0,1:2|0:2,0:0:0:0:
317,89,143100,1,8,0:2:0:0:
319,114,143203,2,0,P|351:131|387:137,1,72.2500013780594,2|0,1:2|0:2,0:0:0:0:
450,0,143410,2,0,P|418:16|382:22,1,72.2500013780594,8|0,0:2|0:2,0:0:0:0:
230,84,143617,2,0,L|244:13,1,72.2500013780594,2|0,1:2|0:2,0:0:0:0:
59,73,143824,22,0,P|79:78|99:86,1,42.5,10|0,1:2|0:2,0:0:0:0:
63,158,144031,2,0,P|77:173|91:189,1,42.5,8|0,1:2|0:2,0:0:0:0:
23,233,144238,2,0,P|28:253|31:274,1,42.5,8|0,1:2|0:2,0:0:0:0:
136,344,144445,6,0,P|160:349|184:344,1,50.9999984436036,10|0,1:2|0:2,0:0:0:0:
180,250,144652,2,0,P|203:242|221:225,1,50.9999984436036,8|0,1:2|0:2,0:0:0:0:
171,147,144858,2,0,P|187:128|194:104,1,50.9999984436036,8|0,1:2|0:2,0:0:0:0:
345,134,145065,6,0,P|372:148|395:167,1,59.4999981842042,10|0,0:2|0:2,0:0:0:0:
272,320,145272,2,0,P|288:344|298:372,1,59.4999981842042,8|0,1:2|0:2,0:0:0:0:
504,230,145479,6,0,P|459:180|394:166,1,136,4|0,1:2|0:2,0:0:0:0:
489,80,145790,2,0,P|428:108|394:166,1,136,0|0,1:2|0:2,0:0:0:0:
343,49,146100,2,0,P|350:116|395:167,1,136,0|0,1:2|0:2,0:0:0:0:
267,178,146410,2,0,P|333:192|395:166,1,136,0|0,1:2|0:2,0:0:0:0:
366,291,146721,2,0,P|399:232|394:166,1,136,0|0,1:2|0:2,0:0:0:0:
504,230,147031,1,0,1:2:0:0:
360,284,157893,6,0,L|384:289,2,21.25,8|8|8,0:2|0:2|0:2,0:0:0:0:
310,221,158100,2,0,L|268:228,1,42.5,8|8,0:2|0:2,0:0:0:0:
198,339,158307,2,0,L|193:363,2,21.25,2|2|8,0:2|0:2|0:2,0:0:0:0:
119,252,158514,2,0,L|114:228,3,21.25,8|2|8|2,0:2|0:2|0:2|0:2,0:0:0:0:
148,218,158721,6,0,L|153:194,2,21.25,8|8|8,0:2|0:2|0:2,0:0:0:0:
212,144,158927,2,0,L|215:123,2,21.25,2|2|2,0:2|0:2|0:2,0:0:0:0:
287,82,159134,2,0,L|281:39,1,42.5,8|8,0:2|0:2,0:0:0:0:
371,108,159341,2,0,L|374:128,2,21.25,8|8|8,0:2|0:2|0:2,0:0:0:0:
296,169,159548,38,0,L|293:189,2,21.25,2|2|8,0:2|0:2|0:2,0:0:0:0:
361,242,159755,2,0,L|381:234,3,21.25,2|2|2|2,0:2|0:2|0:2|0:2,0:0:0:0:
335,277,159962,6,0,L|292:272,1,42.5,8|8,1:2|0:2,0:0:0:0:
193,359,160169,2,0,L|150:363,1,42.5,8|0,0:2|1:2,0:0:0:0:
11,154,160376,6,0,P|66:226|53:316,1,187.000005706787,4|0,1:2|0:2,0:0:0:0:
178,184,160686,1,2,1:2:0:0:
115,135,160790,2,0,P|104:89|116:44,1,93.5000028533936,8|0,0:2|0:2,0:0:0:0:
280,69,160996,1,2,1:2:0:0:
342,111,161100,6,0,P|428:91|484:160,1,187.000005706787,8|2,0:2|1:2,0:0:0:0:
380,217,161410,2,0,P|335:203|290:213,1,93.5000028533936,8|0,0:2|0:2,0:0:0:0:
464,383,161617,2,0,P|440:299|512:249,1,187.000005706787,8|2,0:2|0:2,0:0:0:0:
332,292,161927,1,2,0:2:0:0:
288,355,162031,38,0,B|237:361|237:361|202:336,1,93.5000028533936,2|0,1:2|0:2,0:0:0:0:
133,186,162238,2,0,B|184:192|184:192|218:167,1,93.5000028533936,2|0,0:2|1:2,0:0:0:0:
120,384,162445,2,0,P|108:338|118:293,1,93.5000028533936,10|0,0:2|0:2,0:0:0:0:
19,127,162652,2,0,P|28:172|17:217,1,93.5000028533936,2|0,1:2|0:2,0:0:0:0:
166,106,162858,5,2,0:2:0:0:
244,92,162962,2,0,L|254:0,1,93.5000028533936,8|0,0:2|1:2,0:0:0:0:
415,17,163169,1,2,0:2:0:0:
493,31,163273,2,0,L|503:123,1,93.5000028533936,8|2,0:2|0:2,0:0:0:0:
308,168,163479,2,0,P|350:147|397:144,1,93.5000028533936,2|2,0:2|0:2,0:0:0:0:
504,352,163686,38,0,B|408:320|408:384|321:360,1,187.000005706787,4|0,1:2|0:2,0:0:0:0:
149,222,163996,1,2,1:2:0:0:
224,208,164100,2,0,P|246:248|249:295,1,93.5000028533936,8|0,0:2|0:2,0:0:0:0:
81,384,164307,6,0,P|21:323|80:263,1,187.000005706787,2|0,1:2|0:2,0:0:0:0:
119,103,164617,1,2,1:2:0:0:
41,115,164721,2,0,P|18:155|15:202,1,93.5000028533936,8|0,0:2|0:2,0:0:0:0:
199,130,164927,2,0,P|288:106|379:124,1,187.000005706787,8|2,0:2|0:2,0:0:0:0:
512,27,165238,1,2,0:2:0:0:
434,28,165341,38,0,L|401:212,1,187.000005706787,2|2,1:2|0:2,0:0:0:0:
493,349,165652,1,0,1:2:0:0:
500,328,165755,2,0,P|462:301|416:292,1,93.5000028533936,10|0,0:2|0:2,0:0:0:0:
226,244,165962,2,0,P|263:217|309:208,1,93.5000028533936,2|2,1:2|0:2,0:0:0:0:
235,384,166169,5,2,1:2:0:0:
158,375,166272,2,0,L|143:282,1,93.5000028533936,0|0,0:0|1:2,0:0:0:0:
55,112,166479,1,2,0:2:0:0:
31,186,166583,2,0,L|215:214,1,187.000005706787,10|8,0:2|0:2,0:0:0:0:
333,60,166893,1,8,0:2:0:0:
277,1,166996,38,0,P|216:62|261:137,1,187.000005706787,4|0,1:2|0:2,0:0:0:0:
416,165,167307,1,0,1:2:0:0:
469,104,167410,2,0,P|475:57|476:11,1,93.5000028533936,10|0,0:2|0:2,0:0:0:0:
336,181,167617,2,0,P|336:227|343:273,1,93.5000028533936,2|0,1:2|0:2,0:0:0:0:
509,354,167824,5,2,1:2:0:0:
512,276,167927,2,0,B|468:251|468:251|425:253,1,93.5000028533936,8|0,0:2|0:2,0:0:0:0:
263,315,168134,1,2,1:2:0:0:
299,384,168237,2,0,B|349:383|349:383|385:360,1,93.5000028533936,8|0,0:2|0:2,0:0:0:0:
237,220,168445,2,0,L|219:311,1,93.5000028533936,2|2,0:2|0:2,0:0:0:0:
18,222,168652,38,0,B|9:322|59:358|59:358|71:321,1,187.000005706787,2|0,1:2|0:2,0:0:0:0:
156,215,168962,1,2,1:2:0:0:
118,148,169065,2,0,P|77:124|31:120,1,93.5000028533936,8|0,0:2|0:2,0:0:0:0:
238,21,169272,6,0,P|324:54|417:53,1,187.000005706787,2|0,1:2|0:2,0:0:0:0:
378,196,169583,1,2,1:2:0:0:
303,166,169686,2,0,P|294:120|309:77,1,93.5000028533936,2|0,1:2|0:2,0:0:0:0:
460,198,169893,2,0,P|488:286|472:377,1,187.000005706787,8|8,0:2|0:2,0:0:0:0:
242,348,170203,1,0,0:2:0:0:
252,268,170307,37,6,1:2:0:0:
329,261,170410,2,0,B|355:298|355:298|351:346,1,93.5000028533936,2|2,0:2|0:2,0:0:0:0:
154,368,170617,1,2,0:2:0:0:
135,292,170721,2,0,B|131:243|131:243|157:206,1,93.5000028533936,8|2,0:2|0:2,0:0:0:0:
37,110,170927,1,12,1:2:0:0:
36,31,171031,1,2,0:2:0:0:
104,70,171134,6,0,P|147:86|193:91,1,93.5000028533936,2|0,1:2|1:2,0:0:0:0:
318,42,171341,1,2,1:2:0:0:
392,60,171445,2,0,L|409:151,1,93.5000028533936,8|8,0:2|0:2,0:0:0:0:
296,248,171652,1,8,0:2:0:0:
336,316,171755,1,8,0:2:0:0:
347,318,171823,1,8,0:2:0:0:
358,321,171892,1,8,0:2:0:0:
370,323,171961,1,8,1:2:0:0:
370,323,172376,6,0,P|357:230|409:152,1,191.250007295609,4|0,1:2|0:2,0:0:0:0:
494,48,172790,2,0,P|465:63|434:70,1,63.7500024318696,0|8,1:2|0:2,0:0:0:0:
248,52,172996,1,0,1:2:0:0:
326,33,173100,2,0,P|340:61|347:92,1,63.7500024318696,8|0,0:2|0:2,0:0:0:0:
170,181,173307,1,8,0:2:0:0:
248,200,173411,2,0,P|262:171|269:140,1,63.7500024318696,0|0,1:2|0:2,0:0:0:0:
88,0,173617,22,0,B|49:85|129:85|85:179,1,187.000005706787,4|0,1:2|0:2,0:0:0:0:
40,368,173927,1,2,1:2:0:0:
7,296,174031,2,0,P|45:269|92:268,1,93.5000028533936,8|0,0:2|0:2,0:0:0:0:
247,199,174238,6,0,P|287:283|269:373,1,187.000005706787,2|0,1:2|0:2,0:0:0:0:
176,248,174548,1,2,1:2:0:0:
144,176,174652,2,0,L|158:83,1,93.5000028533936,8|0,0:2|0:2,0:0:0:0:
323,0,174858,2,0,L|352:184,1,187.000005706787,8|0,0:2|0:2,0:0:0:0:
504,232,175169,1,2,0:2:0:0:
509,215,175272,37,2,1:2:0:0:
438,193,175376,1,2,0:2:0:0:
392,256,175479,5,2,0:2:0:0:
321,278,175583,1,2,1:2:0:0:
256,232,175686,2,0,P|247:186|255:140,1,93.5000028533936,10|0,0:2|0:2,0:0:0:0:
91,267,175893,2,0,P|107:311|138:347,1,93.5000028533936,2|0,1:2|0:2,0:0:0:0:
183,109,176100,37,2,0:2:0:0:
133,171,176203,2,0,B|91:189|91:189|44:179,1,93.5000028533936,2|2,1:2|0:2,0:0:0:0:
117,6,176410,1,2,0:2:0:0:
196,0,176514,1,10,0:2:0:0:
247,59,176617,2,0,L|209:242,1,187.000005706787,2|8,0:2|0:2,0:0:0:0:
332,373,176927,6,0,P|253:327|167:356,1,187.000005706787,2|0,1:2|0:2,0:0:0:0:
290,245,177238,1,2,1:2:0:0:
365,234,177341,2,0,P|389:145|359:57,1,187.000005706787,10|2,0:2|1:2,0:0:0:0:
479,190,177652,1,10,0:2:0:0:
498,266,177755,38,0,P|457:288|412:301,1,93.5000028533936,0|2,0:0|1:2,0:0:0:0:
306,166,177962,2,0,P|259:165|214:153,1,93.5000028533936,8|0,0:2|0:2,0:0:0:0:
132,375,178169,2,0,P|170:292|133:209,1,187.000005706787,8|2,0:2|0:2,0:0:0:0:
15,104,178479,1,2,0:2:0:0:
4,183,178583,6,0,B|51:178|51:178|83:145,1,93.5000028533936,2|2,1:2|0:2,0:0:0:0:
156,6,178790,2,0,B|136:49|136:49|148:93,1,93.5000028533936,2|2,0:2|1:2,0:0:0:0:
233,226,178996,2,0,B|205:187|205:187|160:176,1,93.5000028533936,10|2,0:2|0:2,0:0:0:0:
45,314,179203,2,0,P|87:295|133:290,1,93.5000028533936,2|0,1:2|0:2,0:0:0:0:
312,370,179410,37,2,1:2:0:0:
375,325,179514,2,0,P|393:233|377:142,1,187.000005706787,2|2,1:2|1:2,0:0:0:0:
278,45,179824,2,0,P|328:112|399:65,1,187.000005706787,10|8,0:2|0:2,0:0:0:0:
192,32,180134,1,8,0:2:0:0:
176,112,180238,6,0,B|144:200|208:200|171:294,1,187.000005706787,4|0,1:2|0:2,0:0:0:0:
0,128,180548,1,0,1:2:0:0:
0,47,180652,2,0,P|40:25|87:22,1,93.5000028533936,8|0,0:2|0:2,0:0:0:0:
88,240,180858,2,0,P|47:217|0:214,1,93.5000028533936,2|0,1:2|0:2,0:0:0:0:
80,375,181065,38,0,P|162:333|254:331,1,187.000005706787,2|0,1:2|0:2,0:0:0:0:
432,376,181376,1,2,1:2:0:0:
352,368,181479,2,0,B|341:321|341:321|355:278,1,93.5000028533936,10|0,0:2|0:2,0:0:0:0:
219,152,181686,2,0,B|233:194|233:194|222:241,1,93.5000028533936,2|0,0:2|0:2,0:0:0:0:
456,167,181893,6,0,P|367:177|312:106,1,187.000005706787,2|0,1:2|0:0,0:0:0:0:
405,1,182203,1,2,1:2:0:0:
480,6,182307,2,0,P|504:47|509:93,1,93.5000028533936,8|0,0:2|0:2,0:0:0:0:
311,17,182514,38,0,P|224:49|132:33,1,187.000005706787,2|0,1:2|0:2,0:0:0:0:
13,0,182824,1,8,0:2:0:0:
0,73,182927,2,0,P|16:116|18:162,1,93.5000028533936,0|0,1:2|0:2,0:0:0:0:
22,293,183134,2,0,P|51:256|90:231,1,93.5000028533936,8|0,0:2|0:2,0:0:0:0:
201,163,183341,2,0,P|155:155|113:134,1,93.5000028533936,8|8,0:2|0:2,0:0:0:0:
104,347,183548,5,4,1:2:0:0:
182,327,183652,1,2,0:2:0:0:
204,249,183755,1,2,0:2:0:0:
283,230,183858,1,10,0:2:0:0:
339,288,183962,2,0,L|332:382,1,93.5000028533936,10|2,0:2|0:2,0:0:0:0:
474,277,184169,1,4,1:2:0:0:
499,206,184272,1,2,0:2:0:0:
439,153,184376,38,0,P|419:110|414:64,1,93.5000028533936,10|10,0:2|0:2,0:0:0:0:
287,0,184583,2,0,P|281:46|262:88,1,93.5000028533936,2|0,1:2|0:0,0:0:0:0:
85,49,184790,2,0,L|176:28,1,93.5000028533936,2|8,1:2|0:2,0:0:0:0:
203,166,184996,1,8,0:2:0:0:
137,213,185100,1,8,0:2:0:0:
64,181,185203,5,12,1:2:0:0:
64,181,185410,37,2,0:2:0:0:
23,250,185514,1,2,0:2:0:0:
72,313,185617,22,0,L|67:363,1,51,4|0,1:2|1:2,0:0:0:0:
339,125,191440,6,0,L|345:97,2,28.3333333333333,8|8|8,0:2|0:2|0:2,0:0:0:0:
264,208,191693,1,2,0:2:0:0:
352,272,191819,2,0,L|358:299,2,28.3333333333333,8|8|8,0:2|0:2|0:2,0:0:0:0:
264,352,192072,1,2,0:2:0:0:
168,232,192199,6,0,L|112:220,1,56.6666666666667,8|0,0:2|1:2,0:0:0:0:
24,352,192452,1,0,1:2:0:0:
104,312,192579,1,2,1:2:0:0:
40,160,192705,1,0,1:2:0:0:
24,256,192832,1,0,1:2:0:0:
168,144,192958,38,0,P|162:73|219:32,1,147.333326588949,4|0,1:2|0:2,0:0:0:0:
395,125,193338,2,0,P|328:151|264:120,1,147.333326588949,0|0,1:2|0:2,0:0:0:0:
466,50,193730,2,0,P|484:81|496:116,1,73.6666632944744,8|0,0:2|0:2,0:0:0:0:
395,125,193976,1,2,0:2:0:0:
409,269,194100,2,0,P|427:237|439:202,1,73.6666632944744,8|0,0:2|0:2,0:0:0:0:
338,194,194346,1,2,0:2:0:0:
350,349,194470,22,0,P|423:363|496:360,1,147.333326588949,0|0,1:2|0:2,0:0:0:0:
278,279,194841,2,0,P|223:318|257:377,1,147.333326588949,0|0,1:2|0:2,0:0:0:0:
246,197,195254,2,0,P|212:184|176:180,1,73.6666632944744,8|0,0:2|0:2,0:0:0:0:
120,264,195520,1,2,1:2:0:0:
0,184,195645,2,0,P|34:170|70:166,1,73.6666632944744,8|0,0:2|0:2,0:0:0:0:
126,250,195895,1,2,1:2:0:0:
220,105,196020,22,0,P|225:36|161:11,1,147.333326588949,0|0,1:2|1:2,0:0:0:0:
277,179,196395,2,0,P|300:151|318:119,1,73.6666632944744,8|0,0:2|0:2,0:0:0:0:
323,31,196645,1,2,1:2:0:0:
461,16,196801,2,0,P|484:44|502:76,1,73.6666632944744,8|0,0:2|0:2,0:0:0:0:
506,164,197051,1,2,1:2:0:0:
396,262,197157,22,0,P|389:189|413:120,1,147.333326588949,8|0,0:2|0:2,0:0:0:0:
488,288,197532,2,0,P|448:347|377:358,1,147.333326588949,0|0,1:2|1:2,0:0:0:0:
259,265,197904,2,0,P|300:320|264:378,1,147.333326588949,8|0,0:2|0:2,0:0:0:0:
81,384,198317,21,10,0:2:0:0:
84,257,198443,1,8,0:2:0:0:
193,324,198570,1,8,0:2:0:0:
55,343,198696,21,10,0:2:0:0:
121,234,198822,1,8,0:2:0:0:
181,347,198949,1,8,0:2:0:0:
35,256,199076,22,0,P|35:182|57:112,1,147.333326588949,4|0,1:2|0:2,0:0:0:0:
216,120,199489,2,0,P|187:143|151:148,1,73.6666632944744,2|0,1:2|0:2,0:0:0:0:
84,18,199731,1,2,1:2:0:0:
226,22,199852,2,0,P|294:46|368:43,1,147.333326588949,10|0,0:2|0:2,0:0:0:0:
503,168,200216,2,0,P|429:164|360:189,1,147.333326588949,8|2,0:2|1:2,0:0:0:0:
430,344,200603,2,0,P|443:310|447:274,1,73.6666632944744,2|0,1:2|0:2,0:0:0:0:
351,290,200853,1,2,1:2:0:0:
230,189,200978,22,0,P|244:262|271:330,1,147.333326588949,2|2,1:2|1:2,0:0:0:0:
140,239,201353,2,0,P|137:202|140:165,1,73.6666632944744,8|0,0:2|0:2,0:0:0:0:
0,111,201603,1,2,1:2:0:0:
169,29,201728,1,10,0:2:0:0:
82,95,201853,2,0,P|85:58|83:22,1,73.6666632944744,2|0,1:2|1:2,0:0:0:0:
25,242,202145,22,0,P|94:255|127:319,1,147.333326588949,2|2,1:2|1:2,0:0:0:0:
268,214,202524,2,0,P|237:281|229:354,1,147.333326588949,2|2,1:2|1:2,0:0:0:0:
406,308,202894,2,0,P|372:292|336:285,1,73.6666632944744,10|0,0:2|1:2,0:0:0:0:
346,376,203141,1,0,1:2:0:0:
436,231,203264,2,0,P|469:215|505:208,1,73.6666632944744,8|0,0:2|0:0,0:0:0:0:
496,298,203518,1,0,0:2:0:0:
353,191,203646,22,0,P|337:119|351:47,1,147.333326588949,2|0,1:2|1:2,0:0:0:0:
195,15,204028,2,0,P|208:86|193:158,1,147.333326588949,2|0,1:2|1:2,0:0:0:0:
13,52,204410,2,0,P|76:24|120:76,1,147.333326588949,8|2,2:2|0:2,0:0:0:0:
23,166,204785,2,0,P|10:201|9:238,1,73.6666632944744,8|0,0:2|0:2,0:0:0:0:
87,307,205060,1,2,1:2:0:0:
255,217,205198,22,0,P|186:192|113:202,1,147.333326588949,2|2,1:2|1:2,0:0:0:0:
159,363,205573,2,0,P|227:338|300:348,1,147.333326588949,10|2,0:2|1:2,0:0:0:0:
364,199,205925,2,0,P|349:232|345:268,1,73.6666632944744,10|0,0:2|0:0,0:0:0:0:
422,316,206175,1,0,0:2:0:0:
512,180,206300,2,0,P|508:143|494:109,1,73.6666632944744,8|0,0:2|0:0,0:0:0:0:
403,107,206550,1,0,0:0:0:0:
310,9,206700,22,0,P|238:26|165:24,1,147.333326588949,0|0,1:2|0:2,0:0:0:0:
133,137,207061,2,0,P|204:154|277:152,1,147.333326588949,8|2,0:2|1:2,0:0:0:0:
67,52,207433,2,0,P|27:111|32:184,1,147.333326588949,8|2,0:2|1:2,0:0:0:0:
124,260,207838,2,0,P|135:295|138:331,1,73.6666632944744,8|2,0:2|0:2,0:0:0:0:
54,380,208096,1,2,1:2:0:0:
209,239,208225,22,0,L|280:254,1,73.6666632944744,2|0,1:2|0:0,0:0:0:0:
333,341,208483,1,2,1:2:0:0:
470,209,208612,2,0,L|398:224,1,73.6666632944744,10|0,0:2|0:2,0:0:0:0:
346,311,208870,1,2,1:2:0:0:
277,152,208999,22,0,P|274:78|299:9,1,147.333326588949,8|2,1:2|1:2,0:0:0:0:
471,73,209358,2,0,P|426:125|361:100,1,147.333326588949,8|0,0:2|1:2,0:0:0:0:
193,137,209737,1,8,0:2:0:0:
104,86,209864,2,0,P|95:50|91:13,1,73.6666632944744,0|0,1:2|1:2,0:0:0:0:
15,184,210117,1,8,0:2:0:0:
82,289,210244,2,0,L|97:254,3,36.8333316472372,2|0|0|0,1:2|1:2|1:2|0:2,0:2:0:0:
172,347,210497,2,0,L|157:312,5,36.8333316472372,2|0|0|0|0|0,1:2|1:2|1:2|1:2|1:2|1:2,0:0:0:0:
250,371,210876,2,0,P|258:344|262:317,2,55.2499974708558,8|0|0,0:2|1:2|1:2,0:0:0:0:
368,253,211256,21,4,1:2:0:0:
451,272,211382,2,0,P|463:307|462:344,1,73.6666632944744,2|0,1:2|0:2,0:0:0:0:
283,213,211635,2,0,P|316:147|321:74,1,147.333326588949,2|0,1:2|1:2,0:0:0:0:
129,55,212048,2,0,P|159:74|195:81,1,73.6666632944744,10|0,0:2|0:0,0:0:0:0:
255,12,212298,1,0,0:2:0:0:
201,178,212423,2,0,P|170:197|134:204,1,73.6666632944744,8|2,0:2|1:2,0:0:0:0:
76,135,212673,1,0,0:2:0:0:
15,340,212798,21,2,1:2:0:0:
118,306,212923,2,0,P|136:339|142:375,1,73.6666632944744,2|0,1:2|0:2,0:0:0:0:
251,249,213173,1,8,0:2:0:0:
356,290,213298,2,0,P|373:257|379:221,1,73.6666632944744,2|0,1:2|0:2,0:0:0:0:
505,155,213548,2,0,P|442:117|369:115,1,147.333326588949,10|2,0:2|1:2,0:0:0:0:
178,53,213923,2,0,P|250:51|313:13,1,147.333326588949,8|0,0:2|0:2,0:0:0:0:
84,0,214298,22,0,P|62:69|85:138,1,147.333326588949,2|0,1:2|0:2,0:0:0:0:
197,187,214717,1,2,1:2:0:0:
107,279,214838,2,0,P|70:280|39:299,1,73.6666632944744,2|0,1:2|0:0,0:0:0:0:
225,369,215080,2,0,B|241:336|241:336|237:299,1,73.6666632944744,10|0,0:2|1:2,0:0:0:0:
179,221,215323,1,0,1:2:0:0:
301,129,215444,2,0,B|317:162|317:162|313:198,1,73.6666632944744,10|2,0:2|1:2,0:0:0:0:
255,277,215687,1,0,0:2:0:0:
394,377,215856,22,0,P|407:309|345:281,1,147.333326588949,2|0,1:2|0:2,0:0:0:0:
512,122,216220,2,0,P|475:183|405:190,1,147.333326588949,2|2,1:2|1:2,0:0:0:0:
335,36,216595,2,0,P|367:18|403:11,1,73.6666632944744,10|0,0:2|0:0,0:0:0:0:
482,42,216845,1,0,0:2:0:0:
329,137,216980,2,0,P|296:119|260:112,1,73.6666632944744,8|0,0:2|0:0,0:0:0:0:
182,143,217255,1,0,0:2:0:0:
55,6,217383,22,0,P|91:68|82:140,1,147.333326588949,4|0,1:2|0:2,0:0:0:0:
13,269,217758,1,0,1:2:0:0:
109,235,217883,1,0,1:2:0:0:
6,294,218008,1,0,1:2:0:0:
102,260,218133,2,0,L|173:275,1,73.6666632944744,8|0,0:2|0:2,0:0:0:0:
235,363,218383,1,2,1:2:0:0:
350,295,218508,2,0,P|370:224|369:150,1,147.333326588949,8|0,0:2|0:2,0:0:0:0:
492,19,218908,22,0,P|491:92|511:163,1,147.333326588949,2|0,1:2|0:2,0:0:0:0:
389,40,219283,2,0,P|320:16|248:22,1,147.333326588949,2|0,1:2|0:2,0:0:0:0:
175,171,219658,2,0,P|190:137|191:101,1,73.6666632944744,8|2,0:2|1:2,0:0:0:0:
112,49,219908,1,0,0:2:0:0:
73,185,220033,2,0,P|88:218|89:254,1,73.6666632944744,8|0,0:2|0:0,0:0:0:0:
10,306,220291,1,0,0:2:0:0:
148,358,220420,22,0,P|181:343|217:337,1,73.6666632944744,2|0,1:2|0:2,0:0:0:0:
313,248,220678,2,0,P|276:242|243:226,1,73.6666632944744,2|8,1:2|0:2,0:0:0:0:
416,160,220936,2,0,L|404:232,1,73.6666632944744,0|0,0:0|0:2,0:0:0:0:
191,101,221194,21,10,0:2:0:0:
270,23,221319,1,0,1:2:0:0:
377,52,221444,1,0,1:2:0:0:
248,200,221569,21,10,0:2:0:0:
169,122,221694,1,0,1:2:0:0:
62,151,221819,1,0,1:2:0:0:
128,304,221944,22,0,L|144:232,2,73.6666632944744,10|0|0,0:2|1:2|1:2,0:0:0:0:
392,384,222355,2,0,L|376:312,2,73.6666632944744,10|0|8,0:2|1:2|0:2,0:0:0:0:
405,148,222742,6,0,P|376:170|341:179,1,73.6666632944744,10|0,0:2|0:2,0:0:0:0:
142,84,222984,2,0,P|177:96|202:122,1,73.6666632944744,8|0,0:2|0:2,0:0:0:0:
218,342,223226,2,0,P|212:306|222:271,1,73.6666632944744,8|0,0:2|0:2,0:0:0:0:
256,192,223469,5,4,1:2:0:0:
256,192,223572,12,0,226779,0:2:0:0:
95,334,228848,37,8,0:2:0:0:
96,323,228916,1,8,0:2:0:0:
97,312,228985,1,8,0:2:0:0:
98,302,229055,2,0,L|85:239,1,63.7500024318696,8|8,0:2|0:2,0:0:0:0:
220,122,229262,1,0,1:2:0:0:
256,192,229365,1,8,0:2:0:0:
213,258,229469,2,0,L|200:320,1,63.7500024318696,8|0,0:2|1:2,0:0:0:0:
326,348,229675,5,8,0:2:0:0:
400,319,229779,1,2,0:2:0:0:
339,270,229882,1,2,0:2:0:0:
338,259,229950,1,2,0:2:0:0:
337,248,230019,1,2,0:2:0:0:
335,238,230089,6,0,P|359:178|366:115,1,127.500004863739,4|2,1:2|0:2,0:0:0:0:
354,96,230400,1,2,1:2:0:0:
448,98,230503,2,0,P|472:158|479:221,1,127.500004863739,8|2,0:2|0:2,0:0:0:0:
467,246,230813,1,2,1:2:0:0:
441,344,230917,2,0,P|471:334|503:335,1,63.7500024318696,2|0,1:2|0:2,0:0:0:0:
343,384,231124,2,0,P|312:374|280:375,1,63.7500024318696,2|0,0:2|1:2,0:0:0:0:
209,259,231331,2,0,P|183:347|94:367,1,191.250007295609,8|2,0:2|1:2,0:0:0:0:
24,299,231744,38,0,P|8:237|0:174,1,127.500004863739,2|2,1:2|0:2,0:0:0:0:
14,152,232055,1,2,1:2:0:0:
120,124,232158,2,0,P|104:185|96:248,1,127.500004863739,8|2,0:2|0:2,0:0:0:0:
116,270,232469,1,2,1:2:0:0:
208,259,232572,2,0,P|209:227|205:195,1,63.7500024318696,2|0,1:2|0:2,0:0:0:0:
338,153,232779,2,0,P|337:121|341:89,1,63.7500024318696,2|0,0:2|1:2,0:0:0:0:
489,161,232986,1,8,0:2:0:0:
473,190,233089,2,0,L|412:208,1,63.7500024318696,2|2,0:2|1:2,0:0:0:0:
302,277,233296,1,2,1:2:0:0:
310,301,233400,6,0,L|431:338,1,127.500004863739,2|2,1:2|0:2,0:0:0:0:
448,323,233710,1,2,1:2:0:0:
389,239,233813,2,0,P|375:177|381:113,1,127.500004863739,8|2,0:2|0:2,0:0:0:0:
401,96,234124,1,2,1:2:0:0:
499,75,234227,2,0,P|507:44|511:12,1,63.7500024318696,2|0,0:2|0:2,0:0:0:0:
389,33,234434,2,0,P|396:63|400:95,1,63.7500024318696,2|0,0:2|1:2,0:0:0:0:
270,21,234641,2,0,P|212:92|123:76,1,191.250007295609,8|2,0:2|1:2,0:0:0:0:
33,11,235055,38,0,B|48:58|48:58|24:102|24:102|38:130|38:130|40:143,1,144.500002756119,2|2,1:2|0:2,0:0:0:0:
31,171,235365,1,2,1:2:0:0:
109,206,235469,2,0,B|108:217|108:217|94:229|94:229|97:271,1,72.2500013780594,8|2,0:2|0:2,0:0:0:0:
21,288,235675,1,2,0:2:0:0:
30,364,235779,1,2,1:2:0:0:
100,383,235882,2,0,B|121:349|121:349|225:356,1,144.500002756119,2|0,1:2|0:2,0:0:0:0:
241,330,236193,1,2,1:2:0:0:
335,307,236296,2,0,B|348:345|348:345|348:377,1,72.2500013780594,8|2,0:2|0:2,0:0:0:0:
498,320,236503,2,0,B|498:287|498:287|511:249,1,72.2500013780594,2|2,1:2|0:2,0:0:0:0:
380,127,236710,6,0,P|410:182|423:244,1,127.500004863739,4|2,1:2|0:2,0:0:0:0:
415,272,237020,1,2,1:2:0:0:
322,281,237124,2,0,P|264:253|202:239,1,127.500004863739,8|2,0:2|0:2,0:0:0:0:
175,254,237434,1,2,1:2:0:0:
76,290,237537,2,0,P|91:261|96:230,1,63.7500024318696,2|0,1:2|0:2,0:0:0:0:
19,160,237744,2,0,P|4:131|0:100,1,63.7500024318696,2|0,0:2|1:2,0:0:0:0:
178,131,237951,2,0,P|94:118|117:36,1,191.250007295609,8|2,0:2|1:2,0:0:0:0:
259,31,238365,38,0,P|279:91|277:154,1,127.500004863739,2|2,1:2|0:2,0:0:0:0:
263,177,238675,1,2,1:2:0:0:
360,145,238779,2,0,P|380:84|378:21,1,127.500004863739,8|2,0:2|0:2,0:0:0:0:
361,3,239089,1,2,1:2:0:0:
460,32,239193,2,0,P|471:63|476:94,1,63.7500024318696,2|0,1:2|0:2,0:0:0:0:
425,226,239400,1,2,0:2:0:0:
427,198,239503,2,0,P|454:180|485:176,1,63.7500024318696,0|8,1:2|0:2,0:0:0:0:
512,356,239710,1,2,0:2:0:0:
509,328,239813,2,0,P|482:310|451:306,1,63.7500024318696,2|2,1:2|1:2,0:0:0:0:
316,246,240020,6,0,P|304:307|251:340,1,127.500004863739,2|2,1:2|0:2,0:0:0:0:
232,331,240331,1,2,1:2:0:0:
153,267,240434,2,0,P|91:252|28:257,1,127.500004863739,8|2,0:2|0:2,0:0:0:0:
14,281,240744,1,2,1:2:0:0:
82,358,240848,2,0,P|112:347|143:344,1,63.7500024318696,2|0,1:2|0:2,0:0:0:0:
226,202,241055,2,0,P|195:191|164:188,1,63.7500024318696,2|0,0:2|1:2,0:0:0:0:
31,108,241262,2,0,P|15:26|98:33,1,191.250007295609,8|2,0:2|1:2,0:0:0:0:
191,86,241675,38,0,B|226:69|226:69|255:87|255:87|278:77|278:77|324:78,1,144.500002756119,4|2,1:2|0:2,0:0:0:0:
340,101,241986,1,2,1:2:0:0:
432,47,242089,2,0,P|420:81|422:117,1,72.2500013780594,8|0,0:2|0:2,0:0:0:0:
481,209,242296,1,8,0:2:0:0:
463,213,242364,1,8,0:2:0:0:
445,217,242433,1,8,0:2:0:0:
428,222,242503,6,0,L|365:211,1,63.7500024318696,8|8,1:2|0:2,0:0:0:0:
276,296,242703,1,8,1:2:0:0:
241,365,242803,1,8,0:2:0:0:
164,342,242903,2,0,P|152:312|148:280,1,63.7500024318696,8|8,1:2|0:2,0:0:0:0:
34,233,243103,1,8,1:2:0:0:
71,162,243203,1,8,0:2:0:0:
23,98,243288,38,0,B|12:153|12:153|42:180|42:180|20:205|20:205|10:238|10:238|12:260,1,187.000005706787,6|0,1:2|0:2,0:0:0:0:
59,351,243565,2,0,B|65:323|65:323|90:302|90:302|100:271,1,93.5000028533936,2|0,0:2|1:2,0:0:0:0:
166,199,243762,1,8,0:2:0:0:
117,141,243861,1,8,0:2:0:0:
161,73,243959,2,0,B|176:93|176:93|244:89,1,93.5000028533936,10|2,0:2|1:2,0:0:0:0:
361,4,244175,6,0,B|333:48|333:48|368:87|368:87|447:66,1,187.000005706787,2|2,1:2|1:2,0:0:0:0:
493,147,244491,1,8,0:2:0:0:
432,198,244587,2,0,B|397:173|397:173|379:179|379:179|347:175,1,93.5000028533936,2|2,1:2|0:2,0:0:0:0:
426,300,244798,2,0,B|461:275|461:275|479:281|479:281|510:277,1,93.5000028533936,8|0,0:2|0:0,0:0:0:0:
330,373,245020,1,2,1:2:0:0:
280,320,245109,1,0,0:2:0:0:
334,286,245199,6,0,B|316:348|316:348|322:388,1,93.5000028533936,2|2,1:2|1:2,0:0:0:0:
206,252,245395,2,0,B|224:190|224:190|219:161,1,93.5000028533936,8|0,0:2|0:0,0:0:0:0:
43,311,245591,1,8,0:2:0:0:
101,361,245697,1,2,1:2:0:0:
171,324,245803,1,2,1:2:0:0:
129,301,245910,5,8,0:2:0:0:
96,230,246016,1,2,1:2:0:0:
39,228,246122,2,0,B|62:188|62:188|27:142|27:142|58:65,1,187.000005706787,2|0,1:2|1:2,0:0:0:0:
170,99,246421,2,0,B|157:87|157:87|167:59|167:59|159:13,1,93.5000028533936,8|0,0:2|0:0,0:0:0:0:
307,77,246640,2,0,B|299:122|299:122|309:150|309:150|296:162,1,93.5000028533936,8|0,1:2|0:0,0:0:0:0:
498,57,246876,6,0,B|466:29|466:29|391:63|391:63|402:106|402:106|418:111,1,187.000005706787,10|2,1:2|1:2,0:0:0:0:
500,160,247166,1,0,0:0:0:0:
438,217,247263,2,0,B|381:180|381:180|357:188,1,93.5000028533936,8|0,0:2|0:0,0:0:0:0:
399,290,247469,6,0,B|456:253|456:253|479:261,1,93.5000028533936,10|0,1:2|0:2,0:0:0:0:
483,359,247662,1,2,1:2:0:0:
416,384,247759,1,0,0:0:0:0:
339,346,247856,1,8,0:2:0:0:
281,378,247952,1,0,0:0:0:0:
243,364,248049,2,0,B|235:327|235:327|253:274,1,93.5000028533936,0|0,1:2|0:0,0:0:0:0:
196,179,248243,6,0,B|156:236|156:236|96:212|96:212|43:216,1,187.000005706787,8|0,0:2|0:0,0:0:0:0:
41,258,248514,1,0,1:2:0:0:
102,170,248604,2,0,B|110:141|110:141|65:95,1,93.5000028533936,2|2,1:2|1:2,0:0:0:0:
212,94,248798,2,0,B|229:69|229:69|203:11,1,93.5000028533936,8|0,0:2|0:2,0:0:0:0:
349,109,248993,5,8,0:2:0:0:
400,49,249101,2,0,B|432:45|432:45|491:59,1,93.5000028533936,0|2,0:0|1:2,0:0:0:0:
436,207,249319,1,4,1:2:0:0:
426,220,249427,5,2,1:2:0:0:
346,208,249525,1,2,1:2:0:0:
283,262,249624,1,2,1:2:0:0:
308,336,249732,1,2,1:2:0:0:
388,355,249841,1,2,1:2:0:0:
407,332,249940,6,0,B|365:307|365:307|290:346|290:346|237:335,1,187.000005706787,12|8,1:2|0:2,0:0:0:0:
111,268,250209,1,2,1:2:0:0:
188,244,250299,2,0,B|199:278|199:278|184:333,1,93.5000028533936,2|2,1:2|1:2,0:0:0:0:
10,384,250478,2,0,B|-4:328|-4:328|6:294,1,93.5000028533936,8|2,0:2|1:2,0:0:0:0:
97,210,250658,1,0,0:2:0:0:
69,137,250774,6,0,L|-27:113,1,93.5000028533936,2|0,1:2|0:0,0:0:0:0:
186,214,250985,2,0,L|282:190,1,93.5000028533936,2|0,1:2|0:0,0:0:0:0:
341,6,251196,1,0,1:2:0:0:
265,36,251290,1,2,1:2:0:0:
327,84,251385,2,0,B|348:97|348:97|416:91,1,93.5000028533936,8|0,0:2|1:2,0:0:0:0:
512,229,251597,6,0,B|443:223|443:223|422:236,1,93.5000028533936,2|2,1:2|1:2,0:0:0:0:
313,359,251806,1,2,1:2:0:0:
395,342,251921,1,8,0:2:0:0:
334,282,252048,1,2,1:2:0:0:
310,203,252138,1,8,0:2:0:0:
333,204,252267,6,0,B|347:177|347:177|355:114,1,93.5000028533936,2|2,1:2|1:2,0:0:0:0:
189,1,252452,2,0,B|176:34|176:34|196:66|196:66|190:85,1,93.5000028533936,12|2,0:2|0:2,0:0:0:0:
101,180,252652,5,2,1:2:0:0:
55,244,252752,1,2,1:2:0:0:
83,319,252852,5,10,0:2:0:0:
163,316,252954,1,10,0:2:0:0:
230,369,253057,21,10,0:2:0:0:
294,329,253160,1,10,0:2:0:0:
305,311,253264,38,0,L|297:282,1,29.75,2|0,1:2|0:2,0:0:0:0:
183,114,254064,6,0,L|190:85,1,29.75,2|0,0:2|0:2,0:0:0:0:
344,16,254917,5,8,1:2:0:0:
375,111,255020,2,0,P|418:131|464:135,1,93.5000028533936,8|0,1:2|0:2,0:0:0:0:
248,208,255227,2,0,P|205:227|159:231,1,93.5000028533936,8|0,1:2|0:2,0:0:0:0:
40,128,255434,1,8,1:2:0:0:
96,48,255537,1,8,1:2:0:0:
96,48,255744,1,0,1:2:0:0:
72,216,255951,38,0,P|71:266|92:312,1,101.999996887207,4|8,1:2|0:2,0:0:0:0:
336,368,256571,6,0,B|296:281|368:281|334:186,1,187.000005706787,4|0,1:2|0:2,0:0:0:0:
498,218,256881,1,0,1:2:0:0:
501,298,256984,2,0,P|459:317|413:319,1,93.5000028533936,2|0,1:2|0:2,0:0:0:0:
461,141,257191,2,0,P|422:62|483:0,1,187.000005706787,2|2,1:2|1:2,0:0:0:0:
260,6,257502,1,2,1:2:0:0:
256,86,257605,2,0,P|298:105|344:106,1,93.5000028533936,2|2,1:2|1:2,0:0:0:0:
165,13,257812,6,0,P|95:72|5:63,1,187.000005706787,6|0,1:2|0:2,0:0:0:0:
173,123,258122,1,2,1:2:0:0:
190,147,258226,38,0,L|174:243,1,93.5000028533936,2|0,1:2|0:2,0:0:0:0:
79,365,258433,1,2,0:2:0:0:
138,315,258536,1,2,0:2:0:0:
213,317,258639,2,0,P|257:331|303:331,1,93.5000028533936,8|8,0:2|0:2,0:0:0:0:
372,160,258846,2,0,P|325:160|281:174,1,93.5000028533936,8|8,0:2|0:2,0:0:0:0:
404,342,259053,6,0,B|425:299|425:299|422:253,1,93.5000028533936,8|0,1:2|0:2,0:0:0:0:
487,96,259260,2,0,B|484:141|484:141|505:184,1,93.5000028533936,2|2,1:2|1:2,0:0:0:0:
332,66,259467,38,0,L|339:35,9,31.1666676177979,10|2|2|2|2|2|2|2|2|2,0:2|0:2|0:2|0:2|0:2|0:2|0:2|0:2|0:2|0:2,0:0:0:0:
190,147,259881,6,0,P|110:100|17:96,1,187.000005706787,4|0,1:2|0:2,0:0:0:0:
15,240,260191,1,2,1:2:0:0:
90,256,260295,2,0,P|132:235|179:231,1,93.5000028533936,8|0,0:2|0:2,0:0:0:0:
332,358,260502,1,2,1:2:0:0:
256,369,260605,38,0,P|249:279|311:213,1,187.000005706787,2|2,1:2|1:2,0:0:0:0:
395,268,260915,2,0,L|415:359,1,93.5000028533936,8|0,0:2|0:2,0:0:0:0:
512,168,261122,2,0,P|421:179|343:130,1,187.000005706787,8|2,0:2|0:2,0:0:0:0:
376,2,261433,1,2,0:2:0:0:
452,7,261536,6,0,B|460:54|460:54|447:98,1,93.5000028533936,2|2,1:2|0:2,0:0:0:0:
240,129,261743,2,0,B|273:97|273:97|290:53,1,93.5000028533936,2|0,0:2|1:2,0:0:0:0:
112,23,261950,2,0,P|158:13|205:16,1,93.5000028533936,10|0,0:2|0:2,0:0:0:0:
113,151,262157,2,0,P|67:141|20:144,1,93.5000028533936,2|2,1:2|0:2,0:0:0:0:
45,280,262364,37,2,1:2:0:0:
104,331,262467,1,2,1:2:0:0:
177,301,262571,2,0,L|184:207,1,93.5000028533936,0|2,0:0|0:2,0:0:0:0:
299,361,262777,2,0,P|378:314|469:323,1,187.000005706787,10|8,0:2|0:2,0:0:0:0:
493,138,263088,1,8,0:2:0:0:
413,162,263191,6,0,L|384:346,1,187.000005706787,4|0,1:2|0:2,0:0:0:0:
320,180,263502,1,0,1:2:0:0:
267,127,263605,2,0,P|266:80|278:35,1,93.5000028533936,10|0,0:2|0:2,0:0:0:0:
110,16,263812,38,0,P|171:80|146:166,1,187.000005706787,2|2,1:2|1:2,0:0:0:0:
2,204,264122,1,8,0:2:0:0:
0,125,264226,2,0,P|41:106|88:101,1,93.5000028533936,0|2,0:2|1:2,0:0:0:0:
165,264,264433,2,0,P|122:244|76:239,1,93.5000028533936,8|0,0:2|0:0,0:0:0:0:
0,383,264639,2,0,P|42:363|88:358,1,93.5000028533936,2|2,0:2|0:2,0:0:0:0:
240,202,264846,6,0,P|191:278|226:361,1,187.000005706787,2|0,1:2|0:2,0:0:0:0:
343,379,265157,1,2,1:2:0:0:
379,310,265260,2,0,L|365:217,1,93.5000028533936,8|0,0:2|0:2,0:0:0:0:
490,117,265467,38,0,L|462:301,1,187.000005706787,2|0,1:2|0:2,0:0:0:0:
341,201,265777,1,2,1:2:0:0:
324,125,265881,2,0,P|366:106|412:100,1,93.5000028533936,2|0,1:2|0:2,0:0:0:0:
209,2,266088,2,0,P|130:48|38:43,1,187.000005706787,8|8,0:2|0:2,0:0:0:0:
27,197,266398,1,0,0:2:0:0:
38,210,266502,5,6,1:2:0:0:
96,153,266606,1,2,0:2:0:0:
172,178,266711,1,2,0:2:0:0:
113,233,266816,2,0,L|103:326,1,93.5000028533936,2|8,0:2|0:2,0:0:0:0:
226,375,267026,1,2,0:2:0:0:
272,311,267131,2,0,P|316:294|362:295,1,93.5000028533936,12|2,1:2|0:2,0:0:0:0:
512,256,267341,37,2,1:2:0:0:
464,194,267446,1,0,0:2:0:0:
390,208,267550,2,0,P|346:191|300:192,1,93.5000028533936,2|0,1:2|0:0,0:0:0:0:
177,32,267760,5,10,1:2:0:0:
247,68,267865,1,8,0:2:0:0:
185,110,267970,1,8,0:2:0:0:
180,132,268039,1,8,0:2:0:0:
176,155,268109,1,8,0:2:0:0:
172,178,268179,1,8,1:2:0:0:
172,178,268599,6,0,P|97:128|27:183,1,191.250007295609,4|0,1:2|0:2,0:0:0:0:
96,255,269012,2,0,P|110:284|111:316,1,63.7500024318696,0|0,1:2|0:0,0:0:0:0:
243,362,269219,1,8,0:2:0:0:
246,346,269287,1,8,0:2:0:0:
249,330,269356,1,8,0:2:0:0:
253,314,269426,2,0,L|245:251,1,63.7500024318696,8|0,0:2|0:0,0:0:0:0:
448,313,269633,1,8,1:2:0:0:
391,367,269736,1,0,0:0:0:0:
338,309,269840,22,0,L|361:123,1,187.000005706787,4|0,1:2|0:2,0:0:0:0:
512,127,270140,1,2,1:2:0:0:
512,207,270240,2,0,P|471:229|425:231,1,93.5000028533936,8|0,0:2|0:2,0:0:0:0:
285,109,270440,1,2,1:2:0:0:
325,39,270540,2,0,P|371:39|412:61,1,93.5000028533936,2|0,1:2|0:2,0:0:0:0:
264,233,270740,1,2,1:2:0:0:
200,188,270840,6,0,L|205:94,1,93.5000028533936,8|0,0:2|0:2,0:0:0:0:
21,40,271046,2,0,P|96:82|77:167,1,187.000005706787,8|0,0:2|0:2,0:0:0:0:
9,348,271357,1,2,0:2:0:0:
8,270,271460,38,0,P|50:251|96:249,1,93.5000028533936,2|0,1:2|0:2,0:0:0:0:
188,377,271666,2,0,P|145:358|99:356,1,93.5000028533936,2|0,0:2|1:2,0:0:0:0:
200,188,271873,2,0,B|182:232|182:232|186:277,1,93.5000028533936,10|0,0:2|0:2,0:0:0:0:
292,384,272080,2,0,B|296:338|296:338|278:294,1,93.5000028533936,2|0,1:2|0:2,0:0:0:0:
393,102,272287,5,2,0:2:0:0:
373,179,272391,2,0,P|332:201|286:207,1,93.5000028533936,2|2,1:2|0:2,0:0:0:0:
433,315,272597,1,2,0:2:0:0:
489,258,272701,1,10,0:2:0:0:
455,185,272804,2,0,L|426:0,1,187.000005706787,0|0,0:2|0:2,0:0:0:0:
315,95,273115,38,0,B|227:63|227:127|132:95,1,187.000005706787,2|0,1:2|0:2,0:0:0:0:
32,8,273425,1,2,1:2:0:0:
112,8,273528,2,0,P|133:49|133:95,1,93.5000028533936,10|0,0:2|0:2,0:0:0:0:
21,276,273735,1,2,1:2:0:0:
0,202,273839,6,0,P|88:175|177:197,1,187.000005706787,10|2,0:2|1:2,0:0:0:0:
116,354,274149,2,0,P|108:307|113:261,1,93.5000028533936,8|0,0:2|0:2,0:0:0:0:
251,270,274356,2,0,P|267:226|295:188,1,93.5000028533936,8|0,0:2|0:0,0:0:0:0:
407,381,274563,2,0,L|314:365,1,93.5000028533936,2|2,0:2|0:2,0:0:0:0:
408,208,274770,38,0,B|453:229|453:229|496:226,1,93.5000028533936,2|0,1:2|0:2,0:0:0:0:
384,48,274977,2,0,B|347:72|347:72|298:76,1,93.5000028533936,2|0,0:2|1:2,0:0:0:0:
112,16,275184,1,10,0:2:0:0:
191,23,275287,2,0,P|206:67|209:113,1,93.5000028533936,0|2,0:2|1:2,0:0:0:0:
72,204,275494,1,0,0:2:0:0:
0,176,275597,6,0,P|57:111|132:155,1,187.000005706787,2|0,1:2|0:0,0:0:0:0:
148,279,275908,1,2,1:2:0:0:
94,332,276011,2,0,L|2:351,1,93.5000028533936,10|0,0:2|0:0,0:0:0:0:
198,214,276218,1,8,0:2:0:0:
250,275,276322,1,8,0:2:0:0:
328,249,276425,38,0,P|352:158|355:65,1,187.000005706787,4|0,1:2|0:2,0:0:0:0:
472,177,276735,1,0,1:2:0:0:
419,235,276839,2,0,P|374:248|327:248,1,93.5000028533936,8|0,0:2|0:2,0:0:0:0:
227,366,277046,2,0,P|274:365|319:379,1,93.5000028533936,2|0,1:2|0:2,0:0:0:0:
189,196,277253,6,0,P|172:285|93:331,1,187.000005706787,2|0,1:2|0:2,0:0:0:0:
73,212,277563,1,2,1:2:0:0:
27,148,277666,2,0,B|46:105|46:105|47:58,1,93.5000028533936,10|0,0:2|0:2,0:0:0:0:
232,24,277873,2,0,B|254:64|254:64|259:111,1,93.5000028533936,2|0,0:2|0:2,0:0:0:0:
463,193,278080,38,0,P|376:167|300:217,1,187.000005706787,2|0,1:2|0:0,0:0:0:0:
383,383,278391,1,2,1:2:0:0:
460,376,278494,2,0,P|469:330|467:283,1,93.5000028533936,8|0,0:2|0:2,0:0:0:0:
324,328,278701,1,2,1:2:0:0:
259,374,278804,6,0,P|173:338|81:347,1,187.000005706787,2|8,1:2|0:2,0:0:0:0:
0,277,279115,2,0,P|38:250|83:240,1,93.5000028533936,0|0,1:2|0:2,0:0:0:0:
229,250,279322,2,0,P|188:229|156:195,1,93.5000028533936,8|0,0:2|0:2,0:0:0:0:
91,64,279528,2,0,P|94:110|80:154,1,93.5000028533936,8|8,0:2|0:2,0:0:0:0:
212,22,279735,37,4,1:2:0:0:
197,101,279839,1,2,0:2:0:0:
257,153,279942,1,2,0:2:0:0:
333,128,280046,1,10,0:2:0:0:
349,49,280149,2,0,L|257:65,1,93.5000028533936,10|2,0:2|0:2,0:0:0:0:
363,211,280356,5,4,1:2:0:0:
428,166,280460,1,2,0:2:0:0:
496,204,280563,2,0,P|509:248|512:295,1,93.5000028533936,10|10,0:2|0:2,0:0:0:0:
332,381,280770,2,0,P|345:336|348:289,1,93.5000028533936,2|0,1:2|0:2,0:0:0:0:
198,217,280977,2,0,L|210:309,1,93.5000028533936,2|8,1:2|0:2,0:0:0:0:
52,362,281184,1,8,0:2:0:0:
19,295,281287,1,8,0:2:0:0:
49,225,281391,37,12,1:2:0:0:
49,225,281597,1,0,1:2:0:0:
240,201,281804,22,0,B|150:185|150:185|94:135|94:135|8:120,1,255.000009727478,4|0,1:2|1:2,0:0:0:0:
120,8,282425,1,8,0:2:0:0:
192,32,282528,2,0,L|200:95,1,63.7500024318696,8|0,0:2|1:2,0:0:0:0:
312,177,282735,1,8,0:2:0:0:
240,201,282838,2,0,L|232:264,1,63.7500024318696,8|0,0:2|0:0,0:0:0:0:
377,377,283046,21,4,1:2:0:0:
449,353,283149,1,2,1:2:0:0:
465,279,283253,1,2,1:2:0:0:
409,229,283356,1,2,1:2:0:0:
338,253,283460,2,0,L|344:337,1,85,2|0,1:2|1:2,0:0:0:0:
485,202,283666,2,0,L|491:117,1,85,10|0,1:2|0:2,0:0:0:0:
333,42,283873,5,2,1:2:0:0:
318,118,283977,2,0,P|356:137|398:146,1,85,2|0,1:2|0:2,0:0:0:0:
257,10,284184,1,0,1:2:0:0:
242,86,284287,2,0,P|204:104|162:113,1,85,8|0,0:2|0:0,0:0:0:0:
11,22,284494,1,0,1:2:0:0:
70,74,284597,1,0,1:2:0:0:
51,152,284701,37,8,1:2:0:0:
51,152,284908,1,2,1:2:0:0:
186,261,285115,22,0,B|101:216|10:250|10:250|26:287|58:303,1,255.000009727478,12|0,1:2|0:2,0:0:0:0:
226,372,285735,1,8,0:2:0:0:
266,304,285839,2,0,P|274:272|274:241,1,63.7500024318696,0|0,1:2|0:2,0:0:0:0:
357,169,286046,1,8,0:2:0:0:
316,101,286150,2,0,P|308:69|308:38,1,63.7500024318696,0|0,1:2|0:2,0:0:0:0:
511,202,286334,22,0,P|432:175|350:193,1,170,4|0,1:2|0:2,0:0:0:0:
413,352,286655,1,2,0:2:0:0:
426,340,286762,2,0,P|434:298|427:256,1,85,8|0,0:2|0:2,0:0:0:0:
265,303,286976,2,0,P|227:229|153:190,1,170,2|2,1:2|0:2,0:0:0:0:
71,319,287298,1,2,0:2:0:0:
73,306,287405,2,0,P|112:289|155:288,1,85,2|0,1:2|0:2,0:0:0:0:
24,203,287619,2,0,P|61:128|59:44,1,170,8|2,0:2|0:2,0:0:0:0:
224,67,287941,1,2,0:2:0:0:
224,94,288048,6,0,B|186:112|186:112|143:104,1,85,2|0,1:2|0:2,0:0:0:0:
240,224,288241,2,0,B|280:209|280:209|304:175,1,85,2|0,0:1|1:2,0:0:0:0:
328,0,288435,2,0,L|312:83,1,85,10|0,0:1|0:2,0:0:0:0:
445,119,288641,38,0,L|475:286,1,170,2|2,0:2|0:2,0:0:0:0:
317,384,288952,1,0,0:2:0:0:
318,358,289055,2,0,P|356:341|398:347,1,85,2|0,1:1|0:2,0:0:0:0:
239,223,289262,2,0,P|197:294|210:377,1,170,10|2,0:1|0:2,0:0:0:0:
101,233,289572,1,2,0:2:0:0:
127,213,289676,6,0,P|162:136|161:52,1,170,2|0,1:2|0:2,0:0:0:0:
0,68,289986,1,0,1:2:0:0:
0,86,290090,2,0,P|31:113|73:116,1,85,10|0,0:1|0:2,0:0:0:0:
244,25,290297,1,0,1:2:0:0:
268,43,290400,38,0,L|276:127,1,85,0|2,0:2|1:2,0:0:0:0:
364,194,290607,1,2,0:2:0:0:
340,212,290710,2,0,L|331:296,1,85,2|0,1:1|0:2,0:0:0:0:
184,284,290917,6,0,P|136:350|54:361,1,170,10|2,0:1|0:2,0:0:0:0:
49,185,291227,1,2,0:2:0:0:
75,181,291331,2,0,P|89:222|91:264,1,85,2|0,1:2|0:2,0:0:0:0:
208,187,291538,2,0,P|184:151|153:123,1,85,2|0,0:1|0:2,0:0:0:0:
0,53,291744,38,0,P|84:49|165:23,1,170,10|2,0:1|0:2,0:0:0:0:
243,81,292055,2,0,P|280:62|322:58,1,85,2|0,0:2|1:2,0:0:0:0:
441,163,292262,1,8,0:2:0:0:
377,210,292365,2,0,P|339:191|297:187,1,85,0|0,1:2|1:2,0:0:0:0:
252,330,292572,5,8,0:2:0:0:
326,362,292676,1,8,0:2:0:0:
374,297,292779,37,8,0:2:0:0:
448,265,292882,1,8,0:2:0:0:
