osu file format v14

[General]
AudioFilename: audio.mp3
AudioLeadIn: 0
PreviewTime: 53286
Countdown: 0
SampleSet: Soft
StackLeniency: 0.7
Mode: 0
LetterboxInBreaks: 0
WidescreenStoryboard: 1

[Editor]
DistanceSpacing: 1.1
BeatDivisor: 4
GridSize: 8
TimelineZoom: 2.1

[Metadata]
Title:Kaze no Oto sae Kikoenai (TV Size)
TitleUnicode:風の音さえ聞こえない (TV Size)
Artist:JUNNA
ArtistUnicode:JUNNA
Creator:Astrolis
Version:Extra
Source:錆喰いビスコ
Tags:japanese rock j-rock jrock anime opening op Sabikui Bisco Rust-Eater Rust Eater Ryxliee Maiev Chizu Kun Chizu-Kun [_Lost_] conner c_o_n_n_e_r sarawatlism yamadarknesss a_blue vinxis mishima yurara eijun R・O・N R.O.N RON じゅんな
BeatmapID:3712912
BeatmapSetID:1680764

[Difficulty]
HPDrainRate:5
CircleSize:3.8
OverallDifficulty:8.5
ApproachRate:9
SliderMultiplier:2
SliderTickRate:1

[Events]
//Background and Video events
0,0,"bg.jpg",0,0
Video,0,"VD.mp4"
//Break Periods
2,1342,2400
2,3628,4686
//Storyboard Layer 0 (Background)
//Storyboard Layer 1 (Fail)
//Storyboard Layer 2 (Pass)
//Storyboard Layer 3 (Foreground)
//Storyboard Layer 4 (Overlay)
//Storyboard Sound Samples

[TimingPoints]
715,285.714285714286,4,2,1,100,1,0
715,-100,4,2,1,40,0,0
9857,-90.9090909090909,4,2,1,70,0,0
19000,-117.647058823529,4,2,1,70,0,0
28143,-105.263157894737,4,2,1,70,0,0
37286,-153.846153846154,4,2,1,70,0,0
41572,-153.846153846154,4,2,1,70,0,0
41857,-105.263157894737,4,2,1,70,0,0
46429,-153.846153846154,4,2,1,70,0,0
48143,-153.846153846154,4,2,1,70,0,0
48715,-100,4,2,1,70,0,0
51000,-133.333333333333,4,2,1,70,0,0
53000,-100,4,2,1,70,0,0
53286,-83.3333333333333,4,2,1,90,0,1
77286,-100,4,2,1,90,0,0
77857,-166.666666666667,4,2,1,90,0,0
78429,-100,4,2,1,70,0,0

[Colours]
Combo1 : 143,205,192
Combo2 : 222,173,99
Combo3 : 125,158,213
Combo4 : 211,135,137

[HitObjects]
163,33,715,6,0,P|228:59|195:132,1,150,8|0,0:2|0:0,0:0:0:0:
219,111,1000,2,0,P|157:121|92:146,1,100,8|0,0:2|0:0,0:0:0:0:
481,368,3000,6,0,B|494:270|506:330|511:214,1,150,8|0,0:2|0:0,0:0:0:0:
501,218,3286,2,0,P|491:279|468:332,1,100,8|0,0:2|0:0,0:0:0:0:
5,353,5286,6,0,B|111:327|111:327|67:366,1,150,8|0,0:2|0:0,0:0:0:0:
85,361,5572,2,0,L|62:246,1,100,8|0,0:2|0:0,0:0:0:0:
12,91,5857,5,2,0:2:0:0:
20,97,5929,1,0,0:0:0:0:
28,103,6000,2,0,P|67:97|144:86,1,100,0|2,1:2|1:2,0:0:0:0:
201,136,6286,1,2,0:2:0:0:
209,130,6358,1,0,0:0:0:0:
217,124,6429,2,0,P|256:130|333:141,1,100,2|0,3:2|3:2,0:0:0:0:
411,133,6715,1,10,0:2:0:0:
351,44,6857,1,0,0:0:0:0:
352,51,6929,1,0,0:0:0:0:
354,58,7000,2,0,P|395:49|416:-8,1,100,2|2,0:2|3:2,0:0:0:0:
411,133,7286,2,0,P|420:174|477:195,1,100,10|0,0:2|0:0,0:0:0:0:
96,263,7572,6,0,B|175:278|175:278|176:283|176:283|262:301,1,150,8|0,0:2|0:0,0:0:0:0:
254,298,7857,2,0,B|295:271|295:271|268:221,1,100,8|0,0:2|0:0,0:0:0:0:
116,186,8143,5,2,0:2:0:0:
249,130,8286,1,0,1:2:0:0:
237,132,8357,1,0,0:0:0:0:
226,135,8429,1,10,0:2:0:0:
30,77,8572,5,0,1:2:0:0:
67,67,8643,1,0,1:2:0:0:
107,59,8715,1,10,0:2:0:0:
262,48,8857,6,0,P|268:24|276:-3,2,50,0|0|10,1:2|1:2|0:2,0:0:0:0:
469,196,9143,5,0,0:0:0:0:
432,186,9214,1,0,0:0:0:0:
392,178,9286,1,2,0:2:0:0:
326,377,9429,6,0,P|341:360|339:313,1,50,0|0,3:2|0:0,0:0:0:0:
237,381,9572,1,10,0:2:0:0:
235,331,9643,1,0,0:0:0:0:
229,282,9715,1,0,0:0:0:0:
219,233,9786,1,0,0:0:0:0:
206,185,9857,6,0,B|155:169|123:187|130:191|57:254|-2:202,1,220.000006713867,6|8,3:2|0:2,0:0:0:0:
264,127,10286,2,0,P|132:108|51:149,1,220.000006713867,2|0,0:2|3:2,0:0:0:0:
0,2,10715,2,0,P|72:10|112:10,1,110.000003356934,10|2,0:2|0:2,0:0:0:0:
285,15,11000,5,0,3:2:0:0:
361,135,11143,1,2,3:2:0:0:
435,11,11286,2,0,P|475:22|480:128,1,165.000005035401,8|0,0:2|0:0,0:0:0:0:
473,117,11572,2,0,P|510:164|517:222,1,110.000003356934,0|2,0:0|3:2,0:0:0:0:
361,135,11857,1,10,0:2:0:0:
290,246,12000,1,2,0:2:0:0:
341,380,12143,6,0,P|382:365|500:335,1,165.000005035401,0|0,3:2|0:0,0:0:0:0:
499,335,12429,1,10,0:2:0:0:
392,239,12572,2,0,P|336:259|278:237,1,110.000003356934,2|0,0:2|0:0,0:0:0:0:
145,368,12857,1,2,3:2:0:0:
90,274,13000,2,0,P|170:284|225:288,1,110.000003356934,8|2,0:2|0:2,0:0:0:0:
84,148,13286,5,2,3:2:0:0:
173,14,13429,1,2,3:2:0:0:
245,157,13572,1,10,0:2:0:0:
173,14,13715,2,0,P|121:37|14:24,1,165.000005035401,2|0,0:2|0:0,0:0:0:0:
12,39,14000,2,0,P|76:67|246:72,1,220.000006713867,2|0,3:2|0:0,0:0:0:0:
418,28,14429,6,0,P|371:27|346:176,1,220.000006713867,6|10,3:2|0:2,0:0:0:0:
504,28,14857,2,0,P|491:100|479:262,1,220.000006713867,2|0,0:2|3:2,0:0:0:0:
303,281,15286,2,0,P|352:254|404:211,1,110.000003356934,10|2,0:2|0:2,0:0:0:0:
392,108,15572,5,0,3:2:0:0:
239,196,15715,1,0,3:2:0:0:
96,109,15857,2,0,P|117:187|127:282,1,165.000005035401,8|0,0:2|0:0,0:0:0:0:
135,262,16143,2,0,P|94:323|46:311,1,110.000003356934,0|2,0:0|3:2,0:0:0:0:
11,206,16429,1,10,0:2:0:0:
142,349,16572,1,2,0:2:0:0:
239,299,16715,6,0,P|289:296|352:383,1,165.000005035401,0|0,3:2|0:0,0:0:0:0:
352,380,17000,1,10,0:2:0:0:
512,186,17143,2,0,P|462:183|399:270,1,165.000005035401,2|0,0:2|0:0,0:0:0:0:
398,267,17428,1,2,3:2:0:0:
459,77,17572,1,10,0:2:0:0:
511,271,17715,1,2,0:2:0:0:
392,11,17857,5,10,0:2:0:0:
315,71,18000,2,0,L|256:68,2,55.0000016784668,0|8|8,3:2|0:2|0:2,0:0:0:0:
181,17,18286,2,0,P|118:24|45:31,1,110.000003356934,8|0,0:2|3:2,0:0:0:0:
74,40,18500,1,8,0:2:0:0:
74,51,18572,1,8,0:2:0:0:
137,111,18715,1,8,0:2:0:0:
205,173,18857,1,8,0:2:0:0:
2,107,19000,5,4,3:2:0:0:
0,231,19143,2,0,P|24:257|108:193,1,170.000003242493,0|0,3:2|3:2,0:0:0:0:
186,263,19572,2,0,P|204:300|196:342,1,85.0000016212464,10|0,0:2|0:0,0:0:0:0:
340,318,19857,2,0,P|325:357|290:380,1,85.0000016212464,2|0,0:2|0:0,0:0:0:0:
280,374,20072,1,0,0:0:0:0:
273,363,20143,5,2,3:2:0:0:
271,231,20286,1,8,0:2:0:0:
340,318,20429,1,2,0:2:0:0:
343,163,20572,2,0,P|392:174|512:186,2,170.000003242493,2|2|2,3:2|0:2|0:2,0:0:0:0:
228,87,21286,5,0,3:2:0:0:
301,31,21429,2,0,B|398:23|368:51|479:39,1,170.000003242493,2|0,3:2|3:2,0:0:0:0:
511,186,21857,2,0,P|458:179|395:155,1,85.0000016212464,8|0,0:2|0:0,0:0:0:0:
326,238,22143,2,0,P|285:249|242:254,1,85.0000016212464,2|0,0:2|1:2,0:0:0:0:
233,243,22357,1,0,1:2:0:0:
232,227,22429,5,2,3:2:0:0:
147,179,22572,1,8,0:2:0:0:
9,325,22715,1,2,0:2:0:0:
82,265,22857,1,2,3:2:0:0:
41,177,23000,2,0,P|41:122|36:0,2,170.000003242493,10|2|0,0:2|0:2|3:2,0:0:0:0:
61,384,23715,6,0,P|130:364|161:271,1,170.000003242493,0|0,3:2|3:2,0:0:0:0:
147,179,24143,2,0,P|174:140|228:122,1,85.0000016212464,10|0,0:2|0:0,0:0:0:0:
267,19,24429,2,0,P|304:38|326:73,1,85.0000016212464,2|0,0:2|0:0,0:0:0:0:
316,88,24643,1,0,0:0:0:0:
306,100,24715,5,2,3:2:0:0:
352,207,24857,2,0,P|389:200|462:192,1,85.0000016212464,8|2,0:2|0:2,0:0:0:0:
506,116,25143,2,0,P|446:93|396:-18,2,170.000003242493,2|2|2,3:2|0:2|0:2,0:0:0:0:
512,287,25857,5,0,3:2:0:0:
435,193,26000,2,0,P|386:224|272:274,1,170.000003242493,2|0,3:2|3:2,0:0:0:0:
179,343,26429,2,0,P|271:362|362:372,1,170.000003242493,10|2,0:2|0:2,0:0:0:0:
181,223,26857,1,0,1:2:0:0:
183,199,26929,1,0,1:2:0:0:
186,176,27000,6,0,P|236:165|280:156,1,85.0000016212464,2|8,3:2|0:2,0:0:0:0:
328,77,27286,2,0,P|278:66|234:57,1,85.0000016212464,2|2,0:2|3:2,0:0:0:0:
147,12,27572,2,0,B|-5:70|152:111|-18:192,1,255.000004863739,10|0,0:2|0:0,0:0:0:0:
3,175,28143,6,0,P|43:196|140:154,1,142.49999619484,6|0,3:2|0:0,0:0:0:0:
130,167,28429,2,0,P|170:146|230:164,1,94.9999974632264,10|2,0:2|0:2,0:0:0:0:
367,7,28715,2,0,P|352:78|340:181,1,142.49999619484,4|0,3:2|0:0,0:0:0:0:
342,147,29000,2,0,P|329:208|330:251,1,94.9999974632264,8|2,0:2|0:2,0:0:0:0:
230,378,29286,6,0,P|176:360|195:273,1,142.49999619484,4|0,3:2|0:0,0:0:0:0:
178,284,29572,2,0,P|148:331|75:359,1,94.9999974632264,10|0,0:2|0:0,0:0:0:0:
221,175,29857,5,6,3:2:0:0:
442,252,30000,1,2,0:2:0:0:
221,175,30143,2,0,B|223:176|265:190|334:190,1,94.9999974632264,10|0,0:2|0:0,0:0:0:0:
169,240,30429,6,0,P|91:257|9:272,1,142.49999619484,6|0,3:2|0:0,0:0:0:0:
29,268,30715,2,0,P|12:190|-3:108,1,142.49999619484,10|0,0:2|0:0,0:0:0:0:
0,128,31000,2,0,P|102:106|113:101,1,94.9999974632264,6|0,3:2|0:0,0:0:0:0:
314,51,31286,1,10,0:2:0:0:
152,15,31429,1,2,0:2:0:0:
314,51,31572,6,0,P|381:71|484:66,1,142.49999619484,4|0,3:2|0:0,0:0:0:0:
453,71,31857,1,10,0:2:0:0:
376,115,32000,1,2,0:2:0:0:
230,83,32143,5,6,3:2:0:0:
209,265,32286,1,2,0:2:0:0:
230,83,32429,2,0,P|243:142|276:160,1,94.9999974632264,10|2,0:2|0:2,0:0:0:0:
354,319,32715,6,0,P|477:314|502:289,1,142.49999619484,6|0,3:2|0:0,0:0:0:0:
505,210,33000,6,0,P|437:232|353:232,1,142.49999619484,10|0,0:2|0:0,0:0:0:0:
366,233,33286,2,0,P|306:228|287:280,1,94.9999974632264,6|0,3:2|0:0,0:0:0:0:
171,369,33572,2,0,P|120:297|95:236,1,142.49999619484,10|0,0:2|0:0,0:0:0:0:
98,247,33857,2,0,P|60:284|52:333,1,94.9999974632264,6|0,3:2|0:0,0:0:0:0:
16,94,34143,5,10,0:2:0:0:
16,94,34286,1,2,0:2:0:0:
111,153,34429,1,4,3:2:0:0:
287,21,34572,1,2,0:2:0:0:
203,79,34715,2,0,P|151:64|91:37,1,94.9999974632264,10|0,0:2|0:0,0:0:0:0:
30,200,35000,6,0,B|127:183|87:230|198:210,1,142.49999619484,6|0,3:2|0:0,0:0:0:0:
177,225,35286,6,0,P|186:309|196:354,1,94.9999974632264,10|0,0:2|0:0,0:0:0:0:
388,374,35572,2,0,P|340:371|294:364,1,94.9999974632264,6|0,3:2|0:0,0:0:0:0:
456,231,35857,2,0,P|409:238|361:241,1,94.9999974632264,10|0,0:2|0:0,0:0:0:0:
271,113,36143,5,6,3:2:0:0:
331,38,36286,2,0,P|374:62|378:107,1,94.9999974632264,2|10,0:2|0:2,0:0:0:0:
271,113,36572,1,2,0:2:0:0:
465,21,36715,5,10,1:2:0:0:
465,21,36857,1,10,1:2:0:0:
465,21,37000,1,10,1:2:0:0:
465,21,37143,1,0,1:2:0:0:
465,21,37286,6,0,P|458:77|448:156,1,129.999994049073,4|2,3:2|1:2,0:0:0:0:
455,158,37643,1,0,1:2:0:0:
459,166,37715,1,0,1:2:0:0:
463,172,37786,1,0,1:2:0:0:
466,180,37857,1,2,0:2:0:0:
424,274,38286,1,0,1:2:0:0:
424,274,38572,1,0,1:2:0:0:
424,274,38857,1,0,1:2:0:0:
337,226,39000,2,0,P|308:245|263:254,1,64.9999970245363,2|0,0:2|0:0,0:0:0:0:
299,366,39286,2,0,P|328:347|373:338,1,64.9999970245363,2|0,0:2|0:0,0:0:0:0:
365,347,39500,1,0,0:0:0:0:
375,355,39572,5,2,1:2:0:0:
145,374,40000,1,0,1:2:0:0:
102,283,40143,1,2,0:2:0:0:
102,283,40572,1,0,1:2:0:0:
102,283,40857,1,0,1:2:0:0:
140,200,41000,1,0,1:2:0:0:
31,70,41286,1,2,0:2:0:0:
28,80,41357,1,0,1:2:0:0:
27,89,41429,1,0,1:2:0:0:
23,98,41500,1,0,1:2:0:0:
21,108,41572,6,0,P|27:151|30:210,1,97.4999955368044,8|0,0:3|0:0,0:0:0:0:
36,212,41857,6,0,P|77:236|147:143,1,189.999994926453,6|10,3:2|0:2,0:0:0:0:
277,200,42286,2,0,P|298:110|319:11,2,189.999994926453,2|2|2,0:2|3:2|0:2,0:0:0:0:
154,11,43000,5,0,3:2:0:0:
147,144,43143,2,0,P|163:198|170:244,1,94.9999974632264,2|8,0:2|0:2,0:0:0:0:
111,307,43429,1,2,0:2:0:0:
359,331,43572,2,0,B|281:345|339:364|206:389,1,142.49999619484,2|0,3:2|0:0,0:0:0:0:
221,375,43857,2,0,P|275:346|304:272,1,142.49999619484,10|0,0:2|0:0,0:0:0:0:
361,219,44143,6,0,P|422:250|450:368,1,189.999994926453,2|10,3:2|0:2,0:0:0:0:
467,259,44572,1,2,0:2:0:0:
359,331,44715,1,2,3:2:0:0:
361,219,44857,2,0,P|385:178|390:109,1,94.9999974632264,2|8,0:2|0:2,0:0:0:0:
312,32,45143,6,0,P|356:14|446:50,1,142.49999619484,2|0,0:2|0:0,0:0:0:0:
420,38,45429,2,0,P|466:27|512:17,1,94.9999974632264,2|8,0:2|0:2,0:0:0:0:
497,150,45715,1,0,1:2:0:0:
487,138,45786,1,8,1:2:0:0:
488,122,45857,1,10,0:2:0:0:
392,131,46000,1,10,0:2:0:0:
202,151,46143,1,10,0:2:0:0:
298,142,46286,1,8,0:2:0:0:
202,151,46429,6,0,P|141:141|72:132,1,129.999994049073,4|2,3:2|0:2,0:0:0:0:
72,123,46786,1,0,1:2:0:0:
72,113,46857,1,0,1:2:0:0:
77,103,46929,1,0,1:2:0:0:
82,96,47000,1,2,0:2:0:0:
199,18,47429,1,0,1:2:0:0:
199,18,47715,1,0,1:2:0:0:
199,18,48000,1,0,1:2:0:0:
269,71,48143,2,0,P|329:64|489:41,1,194.999991073609,2|0,0:2|3:2,0:0:0:0:
504,164,48715,6,0,B|355:119|491:245|331:205,1,200,14|0,0:2|3:2,0:0:0:0:
218,155,49143,2,0,P|169:188|100:202,1,100,4|0,1:2|0:0,0:0:0:0:
257,259,49429,1,0,3:2:0:0:
72,19,49572,6,0,B|221:-26|85:100|245:60,1,200,12|0,0:2|3:2,0:0:0:0:
358,10,50000,2,0,P|407:43|476:57,1,100,4|0,1:2|0:0,0:0:0:0:
319,114,50286,1,0,1:2:0:0:
30,112,50429,6,0,B|51:270|-17:121|0:301,2,200,4|0|2,3:2|3:2|0:2,0:0:0:0:
75,257,51143,5,2,1:2:0:0:
156,229,51286,2,0,P|171:261|215:266,1,75.0000028610231,2|0,1:2|0:0,0:0:0:0:
219,264,51500,1,0,1:2:0:0:
230,258,51572,1,2,2:2:0:0:
246,164,51715,1,0,1:2:0:0:
317,317,51857,1,2,1:2:0:0:
499,223,52000,5,2,2:2:0:0:
475,215,52072,1,0,1:2:0:0:
451,207,52143,1,0,1:2:0:0:
376,116,52286,5,2,2:2:0:0:
414,100,52358,1,0,1:2:0:0:
451,83,52429,1,0,1:2:0:0:
486,307,52572,5,2,2:2:0:0:
451,292,52644,1,0,0:0:0:0:
417,276,52715,1,2,2:2:0:0:
382,260,52786,1,0,0:0:0:0:
347,244,52857,1,0,0:0:0:0:
153,92,53000,6,0,P|80:110|8:128,1,150,2|0,2:2|0:0,0:0:0:0:
7,128,53286,5,6,3:2:0:0:
171,283,53429,1,2,0:2:0:0:
260,155,53572,2,0,P|167:183|69:216,1,179.999994506836,10|0,0:2|0:0,0:0:0:0:
21,264,53857,2,0,P|7:313|73:340,1,119.999996337891,2|0,3:2|3:2,0:0:0:0:
306,299,54143,2,0,P|317:353|268:379,1,119.999996337891,10|0,0:2|0:0,0:0:0:0:
171,283,54429,5,2,3:2:0:0:
153,92,54572,1,0,3:2:0:0:
365,228,54715,1,10,0:2:0:0:
459,50,54857,2,0,P|419:-3|353:117,1,239.999992675781,2|0,0:2|3:2,0:0:0:0:
478,311,55286,2,0,P|495:178|512:109,1,179.999994506836,8|0,0:2|0:0,0:0:0:0:
505,133,55572,5,2,3:2:0:0:
365,228,55715,1,2,0:2:0:0:
244,104,55857,2,0,P|247:184|254:238,1,119.999996337891,10|0,0:2|0:0,0:0:0:0:
91,83,56143,1,2,3:2:0:0:
171,19,56286,1,0,3:2:0:0:
165,176,56429,2,0,P|105:182|46:192,1,119.999996337891,10|0,0:2|0:0,0:0:0:0:
11,10,56715,5,2,3:2:0:0:
244,104,56857,1,0,3:2:0:0:
11,10,57000,1,10,0:2:0:0:
244,104,57143,2,0,P|248:190|263:376,1,239.999992675781,2|0,3:2|3:2,0:0:0:0:
22,378,57572,2,0,P|4:329|107:293,1,179.999994506836,10|0,0:2|0:0,0:0:0:0:
172,254,57857,6,0,P|254:252|346:212,1,179.999994506836,6|0,3:2|0:0,0:0:0:0:
399,278,58143,2,0,P|449:244|442:187,1,119.999996337891,8|2,0:2|0:2,0:0:0:0:
321,129,58429,1,0,3:2:0:0:
258,265,58572,1,0,3:2:0:0:
153,35,58715,2,0,P|64:21|32:109,1,179.999994506836,10|0,0:2|0:0,0:0:0:0:
12,184,59000,6,0,P|125:161|213:131,1,179.999994506836,2|0,3:2|0:0,0:0:0:0:
241,35,59286,2,0,P|283:14|342:49,1,119.999996337891,8|2,0:2|0:2,0:0:0:0:
508,134,59572,1,2,3:2:0:0:
441,0,59715,1,0,3:2:0:0:
324,146,59857,2,0,P|386:123|439:78,1,119.999996337891,10|0,0:2|0:0,0:0:0:0:
185,378,60143,6,0,P|197:281|170:252,1,119.999996337891,2|0,3:2|3:2,0:0:0:0:
8,62,60429,6,0,P|112:83|147:83,1,119.999996337891,10|0,0:2|0:0,0:0:0:0:
379,264,60715,6,0,P|453:244|511:242,1,119.999996337891,2|0,3:2|3:2,0:0:0:0:
10,231,61000,6,0,P|56:277|47:347,1,119.999996337891,10|0,0:2|3:2,0:0:0:0:
223,133,61286,5,10,0:2:0:0:
306,63,61429,1,0,3:2:0:0:
296,320,61572,5,10,0:2:0:0:
188,268,61715,1,0,3:2:0:0:
0,151,61857,6,0,P|73:137|135:125,1,119.999996337891,10|0,0:2|0:0,0:0:0:0:
123,93,62072,1,8,0:2:0:0:
136,56,62143,1,10,0:2:0:0:
264,219,62286,1,8,0:2:0:0:
503,23,62429,6,0,P|444:20|426:87,1,119.999996337891,6|2,3:2|0:2,0:0:0:0:
497,190,62715,5,10,0:2:0:0:
497,190,62857,1,0,3:2:0:0:
305,116,63000,5,10,0:2:0:0:
305,116,63143,1,0,3:2:0:0:
188,268,63286,5,10,0:2:0:0:
188,268,63429,1,0,3:2:0:0:
373,381,63572,6,0,P|382:300|388:169,1,179.999994506836,10|0,0:2|0:0,0:0:0:0:
387,201,63857,1,10,0:2:0:0:
305,116,64000,2,0,P|244:132|149:5,1,239.999992675781,2|0,3:2|3:2,0:0:0:0:
28,129,64429,2,0,P|82:117|153:107,1,119.999996337891,8|0,0:2|3:2,0:0:0:0:
0,357,64715,6,0,P|78:363|160:378,1,119.999996337891,14|2,0:2|0:2,0:0:0:0:
91,219,65000,5,10,0:2:0:0:
200,254,65143,1,0,3:2:0:0:
322,376,65286,5,10,0:2:0:0:
431,341,65429,1,0,3:2:0:0:
499,155,65572,5,10,0:2:0:0:
390,120,65715,1,0,3:2:0:0:
499,155,65857,6,0,P|452:221|336:243,1,179.999994506836,10|0,0:2|0:0,0:0:0:0:
360,247,66143,1,10,0:2:0:0:
225,382,66286,2,0,P|257:306|165:161,1,239.999992675781,2|0,3:2|3:2,0:0:0:0:
304,125,66715,2,0,P|315:82|200:37,1,179.999994506836,10|0,0:2|0:0,0:0:0:0:
179,95,67000,6,0,P|112:100|-30:90,1,179.999994506836,14|0,0:2|0:0,0:0:0:0:
0,94,67286,1,8,0:2:0:0:
28,185,67429,1,2,3:2:0:0:
54,276,67572,2,0,P|115:286|216:302,1,119.999996337891,8|0,0:2|3:2,0:0:0:0:
504,336,67857,2,0,P|415:353|329:378,1,179.999994506836,10|0,0:2|0:0,0:0:0:0:
264,309,68143,6,0,P|286:250|392:215,1,179.999994506836,10|0,0:2|0:0,0:0:0:0:
389,214,68429,1,8,0:2:0:0:
487,166,68572,1,2,3:2:0:0:
403,92,68715,2,0,P|340:78|271:88,1,119.999996337891,8|2,0:2|3:2,0:0:0:0:
187,130,69000,1,8,0:2:0:0:
269,170,69143,1,2,3:2:0:0:
125,16,69286,5,14,0:2:0:0:
47,75,69429,1,8,0:2:0:0:
94,163,69572,1,10,0:2:0:0:
269,170,69715,5,2,3:2:0:0:
187,130,69857,1,8,0:2:0:0:
183,217,70000,1,10,0:2:0:0:
351,60,70143,5,6,3:2:0:0:
449,31,70286,1,8,0:2:0:0:
496,122,70429,1,10,0:2:0:0:
351,60,70572,5,2,3:2:0:0:
394,137,70715,1,8,0:2:0:0:
353,212,70857,1,10,0:2:0:0:
409,285,71000,5,2,1:2:0:0:
409,285,71143,1,0,1:2:0:0:
272,252,71286,5,2,3:2:0:0:
272,252,71429,1,0,3:2:0:0:
161,379,71572,6,0,P|81:373|26:274,1,179.999994506836,6|0,3:2|0:0,0:0:0:0:
34,214,71857,2,0,P|84:165|162:178,1,119.999996337891,8|0,0:2|0:0,0:0:0:0:
155,258,72143,2,0,P|149:170|123:-3,2,239.999992675781,2|8|2,0:2|0:2|3:2,0:0:0:0:
246,379,72857,5,0,3:2:0:0:
272,252,73000,2,0,P|262:192|255:102,1,119.999996337891,10|0,0:2|0:0,0:0:0:0:
339,23,73286,2,0,P|421:35|445:88,1,119.999996337891,2|0,0:2|3:2,0:0:0:0:
415,223,73572,2,0,P|481:173|535:194,1,119.999996337891,10|0,0:2|0:0,0:0:0:0:
237,56,73857,6,0,P|170:55|30:52,1,179.999994506836,2|0,3:2|0:0,0:0:0:0:
12,121,74143,2,0,P|39:139|24:232,1,119.999996337891,10|0,0:2|0:0,0:0:0:0:
213,304,74429,2,0,P|118:331|7:372,1,179.999994506836,2|0,0:2|0:0,0:0:0:0:
41,358,74715,1,10,0:2:0:0:
120,296,74857,1,2,0:2:0:0:
286,382,75000,6,0,P|344:345|286:200,2,239.999992675781,0|10|0,3:2|0:2|0:0,0:0:0:0:
218,216,75715,1,0,3:2:0:0:
441,378,75857,1,10,0:2:0:0:
480,282,76000,1,0,0:0:0:0:
390,63,76143,6,0,P|422:147|517:191,1,179.999994506836,2|0,3:2|0:0,0:0:0:0:
497,189,76429,1,10,0:2:0:0:
504,53,76572,1,2,3:2:0:0:
218,216,76715,5,8,0:2:0:0:
248,65,76857,1,10,0:2:0:0:
218,216,77000,1,8,0:2:0:0:
248,65,77143,1,2,3:2:0:0:
169,8,77286,6,0,B|121:102|-11:115|-11:115|11:40|112:53,1,350,2|0,3:2|0:0,0:0:0:0:
88,60,77857,6,0,B|98:172|46:139|84:275,1,209.999993591309,2|0,0:2|0:0,0:0:0:0:
25,337,78429,6,0,P|87:358|163:252,1,200,6|2,3:2|0:2,0:0:0:0:
241,154,78857,2,0,P|245:226|269:364,1,200,2|2,3:2|0:2,0:0:0:0:
381,378,79286,1,2,0:2:0:0:
471,293,79429,1,2,3:2:0:0:
462,271,79501,1,0,3:2:0:0:
456,253,79572,5,0,3:2:0:0:
339,267,79715,2,0,P|349:216|353:157,1,100,8|2,0:2|0:2,0:0:0:0:
308,75,80000,1,0,3:2:0:0:
478,132,80143,1,10,0:2:0:0:
404,75,80286,1,2,0:2:0:0:
461,6,80429,2,0,P|493:35|465:140,1,150,2|0,0:2|0:0,0:0:0:0:
404,75,80715,5,2,3:2:0:0:
404,75,80857,1,0,0:2:0:0:
330,0,81000,1,0,0:2:0:0:
330,0,81143,1,2,3:2:0:0:
233,33,81286,2,0,P|174:48|120:59,1,100,10|2,0:2|1:2,0:0:0:0:
40,29,81572,1,2,0:2:0:0:
24,125,81715,1,2,0:2:0:0:
24,125,81786,1,0,0:0:0:0:
24,125,81857,5,0,3:2:0:0:
126,138,82000,1,8,0:2:0:0:
113,239,82143,2,0,P|66:225|28:255,1,100,2|0,0:2|3:2,0:0:0:0:
88,319,82429,1,10,0:2:0:0:
88,319,82572,1,2,3:2:0:0:
212,212,82715,1,10,0:2:0:0:
233,319,82857,1,8,0:2:0:0:
319,186,83000,5,6,3:2:0:0:
319,186,83143,1,0,0:0:0:0:
285,99,83286,1,2,0:2:0:0:
285,99,83429,1,2,3:2:0:0:
341,27,83572,2,0,P|392:38|445:43,1,100,8|2,0:2|0:2,0:0:0:0:
504,118,83857,1,2,0:2:0:0:
434,170,84000,1,2,3:2:0:0:
434,170,84072,1,0,3:2:0:0:
434,170,84143,5,0,3:2:0:0:
360,115,84286,1,8,0:2:0:0:
319,186,84429,2,0,P|338:236|358:284,1,100,2|0,0:2|3:2,0:0:0:0:
442,251,84715,1,10,0:2:0:0:
442,251,84857,1,2,0:2:0:0:
512,311,85000,2,0,P|450:347|376:375,1,150,2|0,0:2|0:0,0:0:0:0:
376,374,85286,5,2,3:2:0:0:
376,374,85429,1,0,0:2:0:0:
294,345,85572,1,0,0:2:0:0:
294,345,85715,1,2,3:2:0:0:
210,384,85857,2,0,P|189:343|225:295,1,100,10|2,0:2|1:2,0:0:0:0:
175,216,86143,1,2,0:2:0:0:
100,268,86286,1,2,0:2:0:0:
100,268,86357,1,0,0:0:0:0:
100,268,86429,5,0,3:2:0:0:
92,376,86572,1,8,0:2:0:0:
0,278,86715,2,0,P|4:346|3:398,1,100,2|0,0:2|3:2,0:0:0:0:
51,204,87000,1,10,0:2:0:0:
51,204,87143,1,2,3:2:0:0:
1,56,87286,1,10,0:2:0:0:
110,117,87429,1,8,0:2:0:0:
321,18,87572,5,4,3:2:0:0:
190,13,87715,1,8,0:2:0:0:
345,210,87857,1,8,0:2:0:0:
185,199,88000,5,4,3:2:0:0:
321,18,88286,5,4,3:2:0:0:
185,199,88572,5,4,3:2:0:0:
