osu file format v14

[General]
AudioFilename: audio.mp3
AudioLeadIn: 0
PreviewTime: 57643
Countdown: 1
SampleSet: Soft
StackLeniency: 0.3
Mode: 0
LetterboxInBreaks: 0
WidescreenStoryboard: 0

[Editor]
Bookmarks: 13338,22226,37782,40004,57782,77782,86115
DistanceSpacing: 1.6
BeatDivisor: 4
GridSize: 16
TimelineZoom: 1.400006

[Metadata]
Title:Here -TV size-
TitleUnicode:Here -TV size-
Artist:JUNNA
ArtistUnicode:JUNNA
Creator:Ohwow
Version:test Extra
Source:魔法使いの嫁
Tags:The Ancient Magus Bride opening
BeatmapID:1451131
BeatmapSetID:685572

[Difficulty]
HPDrainRate:5
CircleSize:4
OverallDifficulty:8
ApproachRate:9
SliderMultiplier:3
SliderTickRate:1

[Events]
//Background and Video events
0,0,"bg.jpg",0,0
//Break Periods
2,8647,12247
//Storyboard Layer 0 (Background)
//Storyboard Layer 1 (Fail)
//Storyboard Layer 2 (Pass)
//Storyboard Layer 3 (Foreground)
//Storyboard Sound Samples

[TimingPoints]
1139,833.333333333333,4,2,1,70,1,0
1139,-83.3333333333333,4,2,1,70,0,0
2805,810.810810810811,4,2,1,70,1,0
2805,-166.666666666667,4,2,1,70,0,0
4426,833.333333333333,4,2,1,70,1,0
4426,-83.3333333333333,4,2,1,70,0,0
6092,853.48506401138,4,2,1,70,1,0
6092,-166.666666666667,4,2,1,70,0,0
8652,545.454545454546,4,2,1,70,1,0
9197,400,4,2,1,70,1,0
9597,750,4,2,1,70,1,0
10347,500,4,2,1,70,1,0
10847,315.789473684211,4,2,1,70,1,0
11162,1090.90909090909,4,2,1,70,1,0
13343,555.555555555556,4,2,1,70,1,0
19546,-100,4,2,1,5,0,0
19639,-100,4,2,1,70,0,0
19731,-100,4,2,1,5,0,0
19824,-100,4,2,1,70,0,0
19917,-100,4,2,1,5,0,0
20009,-100,4,2,1,70,0,0
22231,-100,4,2,1,60,0,0
57787,833.333333333333,4,2,1,70,1,0
57787,-66.6666666666667,4,2,1,70,0,1
77787,-76.9230769230769,4,2,1,70,0,0

[Colours]
Combo1 : 241,132,12
Combo2 : 255,113,113
Combo3 : 140,47,225
Combo4 : 252,202,29

[HitObjects]
101,208,1139,6,0,L|108:148,1,59.9999981689454,0|0,0:0|0:0,0:0:0:0:
201,154,1416,2,0,L|208:94,1,59.9999981689454
281,332,1694,2,0,L|221:324,1,59.9999981689454
109,220,1972,6,0,L|116:160,1,59.9999981689454,0|0,0:0|0:0,0:0:0:0:
209,166,2250,2,0,L|216:106,1,59.9999981689454
289,344,2527,2,0,L|229:336,1,59.9999981689454
306,169,2805,6,0,B|343:118|419:129|446:182|446:182|381:213|374:293,1,299.999990844727
374,285,4426,6,0,L|433:277,1,59.9999981689454
453,181,4703,2,0,L|512:173,1,59.9999981689454
297,162,4981,1,0,0:0:0:0:
297,162,5120,1,0,0:0:0:0:
364,275,5259,6,0,L|423:267,1,59.9999981689454
443,171,5537,2,0,L|502:163,1,59.9999981689454
287,152,5814,1,0,0:0:0:0:
287,152,5953,1,0,0:0:0:0:
242,310,6092,6,0,P|97:343|143:202,1,359.999989013672
62,134,13344,6,0,P|136:138|211:128,1,150,4|0,3:2|0:2,0:2:0:0:
292,53,13759,1,0,0:2:0:0:
192,227,13899,2,0,L|183:305,2,75,10|2|2,3:2|0:2|0:2,0:2:0:0:
205,103,14315,1,0,0:2:0:0:
408,157,14455,6,0,P|444:147|476:119,1,75,0|0,3:2|0:2,0:2:0:0:
285,191,14732,2,0,P|275:227|283:269,1,75,0|0,0:2|0:2,0:2:0:0:
318,68,15010,2,0,P|291:41|251:27,2,75,10|2|2,3:2|0:2|0:2,0:2:0:0:
365,232,15426,1,0,0:2:0:0:
169,300,15566,6,0,P|241:294|294:345,1,150,0|0,3:2|0:2,0:2:0:0:
440,318,15981,1,0,0:2:0:0:
331,159,16121,2,0,L|256:168,1,75,10|2,3:2|0:2,0:2:0:0:
95,291,16399,2,0,L|169:300,1,75,2|0,0:2|0:2,0:2:0:0:
0,165,16677,6,0,P|2:127|16:85,1,75,0|0,3:2|0:2,0:2:0:0:
176,0,16954,2,0,P|186:35|189:73,1,75,0|0,0:2|0:2,0:2:0:0:
128,208,17232,1,10,3:2:0:0:
85,51,17370,1,2,0:2:0:0:
272,95,17510,1,2,0:2:0:0:
239,246,17648,1,0,0:2:0:0:
392,74,17788,6,0,P|320:68|267:119,1,150,4|0,3:2|0:2,0:2:0:0:
366,198,18204,1,0,0:2:0:0:
478,122,18344,2,0,L|483:38,1,75,10|2,3:2|0:2,0:2:0:0:
348,214,18621,2,2,L|343:288,1,75,2|2,0:2|0:2,0:2:0:0:
209,354,18899,6,0,P|159:347|120:317,2,100,2|2|2,3:2|0:2|0:2,0:2:0:0:
253,228,19455,2,0,P|228:230|204:238,1,50,10|0,3:2|0:2,0:2:0:0:
85,160,19640,2,0,P|109:162|133:170,1,50,2|0,0:2|0:2,0:2:0:0:
264,94,19825,2,0,P|239:96|215:104,1,50,2|0,0:2|0:2,0:2:0:0:
272,258,20010,5,2,3:2:0:0:
430,171,20148,2,0,P|467:170|503:180,2,75,0|0|0,0:2|0:2|0:2,0:2:0:0:
258,76,20566,2,0,P|257:38|267:2,1,75,10|2,3:2|0:2,0:2:0:0:
175,201,20844,2,0,P|175:238|165:274,1,75,2|0,0:2|0:2,0:2:0:0:
35,201,21121,5,0,3:2:0:0:
135,49,21259,1,0,0:2:0:0:
42,180,21399,5,0,0:2:0:0:
169,82,21537,1,0,0:2:0:0:
49,159,21677,5,10,3:2:0:0:
182,127,21815,1,2,0:2:0:0:
56,138,21955,5,2,0:2:0:0:
170,172,22093,1,0,0:2:0:0:
12,308,22232,6,0,P|77:274|146:297,1,150,4|0,3:2|0:2,0:2:0:0:
235,377,22648,1,0,0:2:0:0:
323,296,22788,2,0,L|422:284,1,75,8|0,3:2|0:2,0:2:0:0:
507,376,23066,2,0,L|432:385,1,75,0|0,0:2|0:2,0:2:0:0:
299,274,23344,6,0,L|447:255,1,150,0|0,3:2|0:2,0:2:0:0:
503,102,23759,2,0,P|468:115|443:143,1,75,0|8,0:2|3:2,0:2:0:0:
328,105,24037,2,0,P|333:68|321:33,1,75,0|0,0:2|0:2,0:2:0:0:
210,80,24315,1,0,0:2:0:0:
226,220,24454,6,0,L|77:201,1,150,0|0,3:2|0:2,0:2:0:0:
24,93,24870,1,0,0:2:0:0:
72,229,25010,2,0,L|61:319,1,75,8|0,3:2|0:0,0:0:0:0:
223,189,25288,2,0,L|213:114,1,75,0|0,0:0|0:0,0:0:0:0:
207,331,25566,6,0,P|244:333|279:320,1,75,0|0,3:0|0:0,0:0:0:0:
226,220,25844,1,0,0:0:0:0:
355,272,25981,2,0,P|368:306|365:346,1,75,0|8,0:0|3:2,0:0:0:0:
130,378,26259,2,0,P|116:343|120:304,1,75
279,319,26537,1,0,0:0:0:0:
351,145,26677,6,0,P|288:109|221:138,1,150,0|0,3:0|0:0,0:0:0:0:
116,197,27093,1,0,0:0:0:0:
64,89,27232,2,0,L|138:92,1,75,8|0,3:2|0:0,0:0:0:0:
204,219,27510,2,0,L|129:222,1,75,0|0,0:0|0:0,0:0:0:0:
61,303,27788,5,0,3:0:0:0:
116,197,27926,1,0,0:0:0:0:
204,316,28066,2,0,L|279:319,1,75,0|0,0:0|0:0,0:0:0:0:
471,245,28344,2,0,P|423:245|369:332,1,150,8|0,3:2|0:0,0:0:0:0:
484,97,28899,6,0,L|487:22,2,75,0|0|0,3:0|0:0|0:0,0:0:0:0:
376,151,29315,2,0,L|301:148,1,75,0|8,0:0|3:2,0:0:0:0:
217,60,29593,1,0,0:0:0:0:
217,60,29731,1,0,0:0:0:0:
140,152,29870,2,0,L|65:155,1,75,0|0,0:0|3:0,0:0:0:0:
201,228,30148,6,0,P|191:307|120:313,1,150
56,125,30565,2,0,L|131:122,1,75,8|0,3:2|0:0,0:0:0:0:
74,253,30844,2,0,L|-1:250,1,75
155,345,31121,5,0,3:0:0:0:
277,180,31259,2,0,P|253:151|218:138,1,75
242,309,31537,2,0,P|303:268|338:271,1,75,0|8,0:0|3:2,0:0:0:0:
404,301,31815,1,0,0:0:0:0:
490,237,31954,2,0,P|502:200|496:164,1,75
