osu file format v14

[General]
AudioFilename: audio.mp3
AudioLeadIn: 0
PreviewTime: 37322
Countdown: 0
SampleSet: None
StackLeniency: 0.6
Mode: 0
LetterboxInBreaks: 0
WidescreenStoryboard: 1

[Editor]
DistanceSpacing: 0.9
BeatDivisor: 4
GridSize: 4
TimelineZoom: 1

[Metadata]
Title:Here - TV Size -
TitleUnicode:Here - TV Size -
Artist:JUNNA
ArtistUnicode:JUNNA
Creator:Shogud
Version:Insane
Source:
Tags:
BeatmapID:1460994
BeatmapSetID:687500

[Difficulty]
HPDrainRate:5
CircleSize:4
OverallDifficulty:7
ApproachRate:9
SliderMultiplier:1.5
SliderTickRate:1

[Events]
//Background and Video events
0,0,"here.jpg",0,0
Video,-150,"vid.avi"
//Break Periods
2,8434,10100
//Storyboard Layer 0 (Background)
//Storyboard Layer 1 (Fail)
//Storyboard Layer 2 (Pass)
//Storyboard Layer 3 (Foreground)
//Storyboard Sound Samples

[TimingPoints]
934,555.555555555556,3,2,0,100,1,0
934,-200,3,2,0,100,0,0
7600,869.565217391304,3,2,0,100,1,0
8469,833.333333333333,3,2,0,100,1,0
8469,-133.333333333333,4,2,0,100,0,0
10969,-275.5,3,2,0,100,0,0
12044,555.555555555556,3,2,0,100,1,0
12600,-133.333333333333,3,2,0,100,0,0
13156,555.555555555556,4,2,0,100,1,0
22044,-133.333333333333,4,2,0,100,0,0
37600,-200,4,2,0,100,0,0
38711,-100,4,2,0,100,0,0
57600,555.555555555556,3,2,0,100,1,0
57600,-80,3,2,0,100,0,1
77600,-100,3,2,0,100,0,0
85933,-200,3,2,0,100,0,0
87600,-800,3,2,0,100,0,0

[HitObjects]
145,83,934,5,0,0:0:0:0:
231,98,1211,1,0,0:0:0:0:
318,113,1489,1,0,0:0:0:0:
259,186,1767,1,0,0:0:0:0:
172,201,2044,1,0,0:0:0:0:
85,216,2322,1,0,0:0:0:0:
144,288,2600,2,0,B|188:287|188:287|241:313|241:313|293:314,1,150
366,83,4267,5,0,0:0:0:0:
280,98,4544,1,0,0:0:0:0:
193,113,4822,2,0,L|159:119,1,18.75
253,186,5100,1,0,0:0:0:0:
340,201,5377,1,0,0:0:0:0:
427,216,5656,2,0,L|460:222,1,18.75
368,288,5933,2,0,B|264:311|264:263|144:287,1,225
256,192,10934,12,0,12045,0:0:0:0:
232,176,12600,6,0,L|227:152,7,14.0625005364418
248,192,13156,6,0,P|304:212|356:192,1,112.5
284,52,13711,2,0,L|297:126,1,75
436,176,14128,2,0,L|421:93,1,75
284,52,14544,1,0,0:0:0:0:
196,36,14683,1,0,0:0:0:0:
138,104,14822,1,0,0:0:0:0:
226,120,14961,1,0,0:0:0:0:
256,204,15100,1,0,0:0:0:0:
168,188,15239,1,0,0:0:0:0:
80,172,15378,6,0,P|74:209|93:250,1,75
251,250,15794,2,0,P|216:201|162:188,1,112.5
16,300,16489,1,0,0:0:0:0:
104,328,16628,1,0,0:0:0:0:
172,265,16767,1,0,0:0:0:0:
83,237,16906,1,0,0:0:0:0:
104,328,17044,1,0,0:0:0:0:
193,355,17183,1,0,0:0:0:0:
260,291,17322,1,0,0:0:0:0:
348,317,17461,1,0,0:0:0:0:
414,253,17600,6,0,P|419:215|400:174,1,75
260,212,18017,2,0,L|346:227,1,75
406,181,18433,1,0,0:0:0:0:
268,52,18711,5,0,0:0:0:0:
105,76,18896,5,0,0:0:0:0:
207,205,19081,5,0,0:0:0:0:
268,52,19267,5,0,0:0:0:0:
92,191,19452,5,0,0:0:0:0:
300,273,19637,5,0,0:0:0:0:
268,52,19822,5,0,0:0:0:0:
268,52,19961,5,0,0:0:0:0:
320,120,20100,1,0,0:0:0:0:
205,211,20239,5,0,0:0:0:0:
236,132,20378,1,0,0:0:0:0:
372,186,20517,5,0,0:0:0:0:
288,198,20656,1,0,0:0:0:0:
403,107,20794,5,0,0:0:0:0:
455,173,20933,1,0,0:0:0:0:
320,120,21072,5,0,0:0:0:0:
351,41,21211,1,0,0:0:0:0:
487,95,21350,5,0,0:0:0:0:
403,107,21489,1,0,0:0:0:0:
435,29,21628,5,0,0:0:0:0:
487,95,21767,1,0,0:0:0:0:
455,173,21906,5,0,0:0:0:0:
236,132,22044,1,0,0:0:0:0:
